<?xml version="1.0" standalone="no"?>
<!DOCTYPE svg PUBLIC "-//W3C//DTD SVG 1.1//EN" "http://www.w3.org/Graphics/SVG/1.1/DTD/svg11.dtd" >
<svg xmlns="http://www.w3.org/2000/svg" xmlns:xlink="http://www.w3.org/1999/xlink" version="1.1">
<metadata>
Created by FontForge 20160405 at Thu Jul 14 03:20:59 2016
 By www-data
Copyright (c) 2010 Dalton Maag Ltd. All rights reserved. This font may not be altered in any way without prior permission of Dalton Maag Ltd.
</metadata>
<defs>
<font id="AktivGroteskCorp-BoldItalic" horiz-adv-x="592" >
  <font-face 
    font-family="Aktiv Grotesk Corp"
    font-weight="700"
    font-style="italic"
    font-stretch="normal"
    units-per-em="1000"
    panose-1="2 11 8 4 2 2 2 9 2 4"
    ascent="800"
    descent="-200"
    x-height="522"
    cap-height="714"
    bbox="-186 -227 1380 975"
    underline-thickness="92"
    underline-position="-225"
    slope="-12"
    unicode-range="U+0008-FB04"
  />
<missing-glyph horiz-adv-x="500" 
d="M50 0v750h400v-750h-400zM400 50v650h-300v-650h300z" />
    <glyph glyph-name="f_f" unicode="ff" horiz-adv-x="757" 
d="M696 522h120l-23 -109h-121l-87 -413h-140l87 413h-82l23 109h82l7 31q11 45 27 77t40 52.5t56 30t76 9.5q43 0 74.5 -9.5t41.5 -14.5l-38 -97q-11 5 -27 9t-36 4q-33 0 -50.5 -17t-25.5 -55zM317 522h120l-23 -109h-121l-87 -413h-140l87 413h-82l23 109h82l7 31
q11 45 27 77t40 52.5t56 30t76 9.5q43 0 74.5 -9.5t41.5 -14.5l-38 -97q-11 5 -27 9t-36 4q-33 0 -50.5 -17t-25.5 -55z" />
    <glyph glyph-name="f_i" unicode="fi" horiz-adv-x="645" 
d="M317 522h120l-23 -109h-121l-87 -413h-140l87 413h-82l23 109h82l7 31q11 45 27 77t40 52.5t56 30t76 9.5q43 0 74.5 -9.5t41.5 -14.5l-38 -97q-11 5 -27 9t-36 4q-33 0 -50.5 -17t-25.5 -55zM412 0l111 522h140l-111 -522h-140zM533 588l27 126h144l-27 -126h-144z" />
    <glyph glyph-name="f_l" unicode="fl" horiz-adv-x="645" 
d="M317 522h120l-23 -109h-121l-87 -413h-140l87 413h-82l23 109h82l7 31q11 45 27 77t40 52.5t56 30t76 9.5q43 0 74.5 -9.5t41.5 -14.5l-38 -97q-11 5 -27 9t-36 4q-33 0 -50.5 -17t-25.5 -55zM412 0l151 714h140l-151 -714h-140z" />
    <glyph glyph-name="f_f_i" unicode="ffi" horiz-adv-x="1023" 
d="M696 522h120l-23 -109h-121l-87 -413h-140l87 413h-82l23 109h82l7 31q11 45 27 77t40 52.5t56 30t76 9.5q43 0 74.5 -9.5t41.5 -14.5l-38 -97q-11 5 -27 9t-36 4q-33 0 -50.5 -17t-25.5 -55zM317 522h120l-23 -109h-121l-87 -413h-140l87 413h-82l23 109h82l7 31
q11 45 27 77t40 52.5t56 30t76 9.5q43 0 74.5 -9.5t41.5 -14.5l-38 -97q-11 5 -27 9t-36 4q-33 0 -50.5 -17t-25.5 -55zM790 0l111 522h140l-111 -522h-140zM911 588l27 126h144l-27 -126h-144z" />
    <glyph glyph-name="f_f_l" unicode="ffl" horiz-adv-x="1023" 
d="M696 522h120l-23 -109h-121l-87 -413h-140l87 413h-82l23 109h82l7 31q11 45 27 77t40 52.5t56 30t76 9.5q43 0 74.5 -9.5t41.5 -14.5l-38 -97q-11 5 -27 9t-36 4q-33 0 -50.5 -17t-25.5 -55zM317 522h120l-23 -109h-121l-87 -413h-140l87 413h-82l23 109h82l7 31
q11 45 27 77t40 52.5t56 30t76 9.5q43 0 74.5 -9.5t41.5 -14.5l-38 -97q-11 5 -27 9t-36 4q-33 0 -50.5 -17t-25.5 -55zM790 0l151 714h140l-151 -714h-140z" />
    <glyph glyph-name=".notdef" horiz-adv-x="500" 
d="M50 0v750h400v-750h-400zM400 50v650h-300v-650h300z" />
    <glyph glyph-name=".null" horiz-adv-x="0" 
 />
    <glyph glyph-name=".null" horiz-adv-x="0" 
 />
    <glyph glyph-name=".null" horiz-adv-x="0" 
 />
    <glyph glyph-name="nonmarkingreturn" unicode="&#x9;" horiz-adv-x="222" 
 />
    <glyph glyph-name="nonmarkingreturn" unicode="&#xd;" horiz-adv-x="222" 
 />
    <glyph glyph-name="space" unicode=" " horiz-adv-x="222" 
 />
    <glyph glyph-name="exclam" unicode="!" horiz-adv-x="274" 
d="M90 226l93 488h150l-113 -488h-130zM39 0l33 159h138l-33 -159h-138z" />
    <glyph glyph-name="quotedbl" unicode="&#x22;" horiz-adv-x="384" 
d="M209 440h-115l51 271h130zM396 440h-114l51 271h128z" />
    <glyph glyph-name="numbersign" unicode="#" 
d="M328 159h-103l-57 -159h-119l57 159h-77l20 103h95l55 154h-89l20 102h106l57 160h119l-58 -160h103l58 160h119l-58 -160h64l-20 -102h-80l-56 -154h72l-20 -103h-89l-57 -159h-119zM262 262h103l56 154h-103z" />
    <glyph glyph-name="dollar" unicode="$" 
d="M567 216q0 -62 -19 -106t-53.5 -72.5t-83.5 -42t-109 -13.5h-14l-21 -101h-65l23 108q-41 7 -75.5 23.5t-61 44t-42 68t-16.5 96.5h140q3 -48 20 -78t59 -42l41 196l-11 3q-48 12 -80.5 30.5t-52 42t-27.5 52t-8 61.5q0 103 69.5 162t195.5 59h1l20 92h65l-21 -98
q78 -14 124 -64.5t54 -139.5l-133 -14q-8 45 -23 72.5t-45 38.5l-39 -188l13 -3q95 -27 135 -74.5t40 -112.5zM423 198q0 12 -3 24t-11 23.5t-22 20.5t-35 15l-40 -187h1q33 0 54.5 8.5t33.5 23t17 33.5t5 39zM249 508q0 -35 15.5 -54t52.5 -30l38 178q-54 -3 -80 -29.5
t-26 -64.5z" />
    <glyph glyph-name="percent" unicode="%" horiz-adv-x="971" 
d="M315 708q33 0 61 -12t48.5 -34t32.5 -53.5t12 -69.5q0 -50 -13 -98t-41 -86t-70.5 -61t-102.5 -23q-33 0 -61 11.5t-48.5 33.5t-32.5 53t-12 69q0 49 14 97.5t42 87t71 62t100 23.5zM301 609q-27 0 -46 -18t-30.5 -44.5t-16.5 -56.5t-5 -54q0 -34 14.5 -50.5t38.5 -16.5
q27 0 46 18t30.5 44.5t16.5 56t5 53.5q0 34 -14.5 51t-38.5 17zM348 0h-136l494 691h136zM813 421q33 0 61 -12t48.5 -34t32.5 -53.5t12 -69.5q0 -50 -13 -98t-41 -86t-70.5 -61t-102.5 -23q-33 0 -61 11.5t-48.5 33.5t-32.5 53t-12 69q0 49 14 97.5t42 87t71 62t100 23.5z
M799 322q-27 0 -46 -18t-30.5 -44.5t-16.5 -56.5t-5 -54q0 -34 14.5 -50.5t38.5 -16.5q27 0 46 18t30.5 44.5t16.5 56t5 53.5q0 34 -14.5 51t-38.5 17z" />
    <glyph glyph-name="ampersand" unicode="&#x26;" horiz-adv-x="670" 
d="M291 -16q-51 0 -96 10t-78 31.5t-52.5 56.5t-19.5 86q0 40 11.5 71.5t35.5 58t60.5 50t85.5 46.5l-3 5q-17 25 -31 60t-14 70q0 43 12.5 78.5t38 61t64.5 39.5t91 14q43 0 74.5 -12t52.5 -32t31 -46t10 -54q0 -43 -13 -75.5t-34.5 -57.5t-51 -44.5t-62.5 -35.5l96 -146
q20 37 28.5 74t10.5 67h124q-4 -62 -27 -124.5t-69 -116.5l79 -119h-148l-25 38q-39 -26 -83.5 -40t-97.5 -14zM306 94q37 0 63 8.5t46 22.5l-124 189q-50 -25 -77.5 -52.5t-27.5 -74.5q0 -18 5 -35t18.5 -30t37 -20.5t59.5 -7.5zM313 538q0 -14 4.5 -28t10.5 -26.5
t12 -22.5l9 -15l1 -2q42 20 68 46.5t26 75.5q0 25 -15 40.5t-40 15.5q-32 0 -54 -19.5t-22 -64.5z" />
    <glyph glyph-name="quotesingle" unicode="'" horiz-adv-x="206" 
d="M218 440h-124l51 271h138z" />
    <glyph glyph-name="parenleft" unicode="(" horiz-adv-x="298" 
d="M419 734q-101 -132 -161 -286t-60 -326q0 -67 7.5 -124.5t30.5 -121.5h-132q-11 24 -20 56t-15.5 67t-10.5 71t-4 69q0 80 16.5 160.5t46.5 157t72.5 147t94.5 130.5h135z" />
    <glyph glyph-name="parenright" unicode=")" horiz-adv-x="298" 
d="M-52 -124q101 132 161 286t60 326q0 67 -7.5 124.5t-30.5 121.5h132q10 -24 19.5 -56t16 -67t10.5 -71t4 -69q0 -80 -16.5 -160.5t-46.5 -157t-72.5 -147t-94.5 -130.5h-135z" />
    <glyph glyph-name="asterisk" unicode="*" horiz-adv-x="416" 
d="M391 714l-51 -123l111 58l33 -109l-133 -26l82 -107l-94 -63l-60 113l-91 -110l-84 72l119 95l-112 32l54 107l97 -62l1 123h128z" />
    <glyph glyph-name="plus" unicode="+" 
d="M388 280l-40 -190h-126l40 190h-175l26 121h175l40 190h126l-40 -190h175l-26 -121h-175z" />
    <glyph glyph-name="comma" unicode="," horiz-adv-x="246" 
d="M-14 -94l87 255h136l-116 -255h-107z" />
    <glyph glyph-name="hyphen" unicode="-" horiz-adv-x="389" 
d="M63 230l30 138h299l-30 -138h-299z" />
    <glyph glyph-name="period" unicode="." horiz-adv-x="246" 
d="M22 0l34 161h143l-34 -161h-143z" />
    <glyph glyph-name="slash" unicode="/" horiz-adv-x="383" 
d="M117 0h-143l388 734h143z" />
    <glyph glyph-name="zero" unicode="0" 
d="M391 710q48 0 89 -17t70 -49t45.5 -79t16.5 -107q0 -49 -7 -103t-23 -107t-41.5 -101t-62 -84.5t-85 -58.5t-110.5 -22q-48 0 -89 17t-70 49t-45.5 79.5t-16.5 107.5q0 48 7.5 101.5t24 106.5t42.5 101t62.5 85t84.5 59t108 22zM383 588q-30 0 -55 -17t-44.5 -45
t-33.5 -64.5t-23.5 -76.5t-14 -80t-4.5 -74q0 -62 20.5 -94.5t62.5 -32.5q45 0 78 36t54.5 90t32 116t10.5 114q0 63 -20.5 95.5t-62.5 32.5z" />
    <glyph glyph-name="one" unicode="1" 
d="M245 0l112 531l-140 -72l-56 105l239 127h134l-146 -691h-143z" />
    <glyph glyph-name="two" unicode="2" 
d="M374 589q-24 0 -44 -4.5t-36.5 -16.5t-29.5 -33t-23 -54l-135 16q13 48 33.5 87t53 67t79 43.5t111.5 15.5q61 0 103 -16t68.5 -43t38.5 -62t12 -73q0 -49 -16.5 -88.5t-45 -74t-67.5 -66.5t-84 -66q-32 -25 -68 -50.5t-66 -48.5h279l-40 -122h-479l22 106q19 15 45 34.5
t54 39.5t55 40t48 37q45 35 84.5 65.5t69 59.5t46.5 59.5t17 65.5q0 40 -24 61t-61 21z" />
    <glyph glyph-name="three" unicode="3" 
d="M362 418q21 0 40.5 5t34.5 16t24 30t9 46q0 32 -23.5 54t-66.5 22q-54 0 -86.5 -21.5t-46.5 -78.5l-130 18q10 45 30 82t52.5 63.5t78.5 41t108 14.5q51 0 92 -12t70.5 -34.5t45.5 -55t16 -73.5q0 -30 -6.5 -57t-21.5 -50t-39 -41.5t-59 -30.5q42 -23 63.5 -60.5
t21.5 -78.5q0 -115 -65.5 -175t-196.5 -60q-61 0 -108.5 17t-80 47.5t-49.5 74.5t-17 98h143q0 -53 28 -85t88 -32q51 0 82.5 24.5t31.5 82.5q0 39 -24 62.5t-74 23.5h-72l26 123h81z" />
    <glyph glyph-name="four" unicode="4" 
d="M310 0l32 155h-308l22 102l398 434h135l-90 -424h88l-39 -112h-73l-32 -155h-133zM203 267h163l51 240z" />
    <glyph glyph-name="five" unicode="5" 
d="M205 201q3 -54 27 -76t74 -22q23 0 45 7.5t39 24.5t27 43t10 64q0 41 -23.5 69.5t-71.5 28.5q-39 0 -64 -12t-50 -35h-118l111 398h401l-25 -121h-281l-39 -147q55 31 114 31q44 0 78.5 -15.5t58 -42t36 -61.5t12.5 -75q0 -60 -16.5 -111t-50 -88t-84 -58t-117.5 -21
q-52 0 -95 14t-73.5 41.5t-47.5 68.5t-17 95h140z" />
    <glyph glyph-name="six" unicode="6" 
d="M492 515q-7 46 -28 63t-57 17q-58 0 -101 -51.5t-64 -144.5q32 32 70.5 44t74.5 12q42 0 76.5 -14.5t59 -40.5t37.5 -63.5t13 -82.5q0 -66 -19 -116.5t-54.5 -85t-85.5 -52.5t-113 -18q-59 0 -101 18.5t-70 52t-41 80t-13 101.5q0 46 8 99t25.5 106t44.5 102t65.5 86.5
t88 60t111.5 22.5q89 0 141 -42.5t62 -131.5zM342 342q-59 0 -96 -32.5t-37 -106.5q0 -48 24.5 -78.5t74.5 -30.5q28 0 51.5 8t40.5 25t26.5 45t9.5 69q0 44 -23.5 72.5t-70.5 28.5z" />
    <glyph glyph-name="seven" unicode="7" 
d="M624 583q-100 -132 -190.5 -280.5t-163.5 -302.5h-154q45 87 85 159.5t80 139t83.5 132t97.5 139.5h-328l25 121h488z" />
    <glyph glyph-name="eight" unicode="8" 
d="M572 215q0 -60 -22.5 -104t-61.5 -72.5t-91.5 -42.5t-112.5 -14q-63 0 -109 14t-75.5 38.5t-44 57t-14.5 69.5q0 79 40.5 126t108.5 73q-32 20 -49 52.5t-17 75.5q0 48 18 88.5t52.5 70t85 46.5t116.5 17q54 0 95 -14t69.5 -37t43 -54.5t14.5 -65.5q0 -70 -31.5 -113.5
t-96.5 -72.5q35 -19 58.5 -56.5t23.5 -81.5zM355 410q27 0 51 5.5t41.5 18t28 33.5t10.5 51q0 15 -6 30t-18 27t-31 19.5t-45 7.5q-38 0 -63 -9t-40 -24t-21.5 -34t-6.5 -40q0 -36 24.5 -60.5t75.5 -24.5zM291 93q28 0 54.5 5.5t47 19t32.5 35.5t12 55q0 18 -6 34t-19.5 28
t-34.5 19.5t-51 7.5q-80 0 -114 -33t-34 -86q0 -35 28 -60t85 -25z" />
    <glyph glyph-name="nine" unicode="9" 
d="M178 175q7 -47 32.5 -62t68.5 -15q32 0 58.5 14.5t47 41t35 63t22.5 80.5q-34 -32 -72 -45t-76 -13q-43 0 -79 15t-61.5 41.5t-40 63.5t-14.5 82q0 60 18 110t52 85t83.5 54.5t113.5 19.5q51 0 92.5 -15.5t71 -47.5t46 -81t16.5 -116q0 -42 -5 -93t-18.5 -103t-36.5 -101
t-59 -87t-86.5 -61t-117.5 -23q-46 0 -85.5 9.5t-69.5 32t-48 59.5t-21 92h133zM331 350q27 0 51 7.5t41.5 23.5t27.5 42t10 62q0 46 -25 79.5t-73 33.5q-54 0 -90.5 -32.5t-36.5 -103.5q0 -20 4.5 -40t15.5 -36t29 -26t46 -10z" />
    <glyph glyph-name="colon" unicode=":" horiz-adv-x="246" 
d="M99 361l34 161h143l-34 -161h-143zM22 0l34 161h143l-34 -161h-143z" />
    <glyph glyph-name="semicolon" unicode=";" horiz-adv-x="246" 
d="M-14 -94l87 255h136l-116 -255h-107zM104 361l34 161h143l-34 -161h-143z" />
    <glyph glyph-name="less" unicode="&#x3c;" 
d="M103 284l23 110l501 200l-28 -133l-328 -125l275 -129l-28 -123z" />
    <glyph glyph-name="equal" unicode="=" 
d="M85 170l25 121h438l-25 -121h-438zM128 391l25 121h438l-25 -121h-438z" />
    <glyph glyph-name="greater" unicode="&#x3e;" 
d="M572 394l-23 -110l-501 -200l28 136l328 123l-275 131l28 120z" />
    <glyph glyph-name="question" unicode="?" horiz-adv-x="513" 
d="M569 557q0 -38 -9.5 -65.5t-24.5 -49t-35 -39t-41 -35.5q-18 -15 -36.5 -29t-33.5 -28.5t-25.5 -31t-14.5 -37.5l-3 -16h-138l4 22q4 26 13.5 46t23.5 37.5t33 34t43 35.5q20 16 38 30t31.5 29.5t21.5 34.5t8 45q0 32 -20.5 50.5t-55.5 18.5q-21 0 -40 -4.5t-35 -16
t-28.5 -31.5t-20.5 -52l-126 16q11 46 30.5 84t50.5 65t75 41.5t106 14.5q45 0 83.5 -12t66.5 -34t43.5 -53t15.5 -70zM165 0l33 159h138l-33 -159h-138z" />
    <glyph glyph-name="at" unicode="@" horiz-adv-x="1004" 
d="M738 88q66 0 103.5 64.5t37.5 179.5q0 62 -21.5 111.5t-60.5 84t-95 52.5t-125 18q-90 0 -163 -30t-125 -84t-80.5 -129.5t-28.5 -167.5q0 -62 18.5 -118t56.5 -99t97 -68.5t140 -25.5q82 0 138 18.5t96 57.5h127q-55 -93 -145.5 -133t-224.5 -40q-93 0 -169.5 29.5
t-131 82.5t-84.5 127.5t-30 163.5q0 106 35.5 199t102.5 162.5t161.5 110t213.5 40.5q89 0 163 -26.5t127.5 -74t83 -113.5t29.5 -145q0 -75 -16.5 -137.5t-49.5 -107.5t-82 -69.5t-115 -24.5q-54 0 -82 17t-38 61q-32 -48 -70.5 -66.5t-81.5 -18.5q-41 0 -71 14t-50 39
t-30 58t-10 72q0 65 18 120t50 95t75.5 62.5t95.5 22.5q33 0 64 -15t53 -50l11 54h125l-68 -325q-1 -5 -1 -14q0 -13 5.5 -23.5t21.5 -10.5zM604 250q5 25 5 44q0 17 -4 31.5t-14 25.5q-9 9 -22 14.5t-31 5.5q-20 0 -40.5 -11t-37.5 -32.5t-28 -54.5t-11 -77q0 -51 15.5 -75
t46.5 -24q28 0 47 10t32.5 26.5t21.5 38.5t13 46z" />
    <glyph glyph-name="A" unicode="A" horiz-adv-x="698" 
d="M541 714l117 -714h-154l-22 165h-250l-92 -165h-160l419 714h142zM295 288h173l-33 256z" />
    <glyph glyph-name="B" unicode="B" horiz-adv-x="647" 
d="M677 548q0 -74 -36 -115t-96 -63q45 -25 65.5 -58.5t20.5 -78.5q0 -53 -18 -95.5t-55.5 -73.5t-96 -47.5t-138.5 -16.5h-280l151 714h242q66 0 112 -13t74.5 -35.5t41.5 -53t13 -64.5zM404 431q24 0 46.5 4t40 14.5t27.5 29t10 46.5q0 33 -24.5 52.5t-86.5 19.5h-104
l-35 -166h126zM211 117h121q82 0 117.5 29t35.5 86q0 38 -25.5 58.5t-84.5 20.5h-122z" />
    <glyph glyph-name="C" unicode="C" horiz-adv-x="713" 
d="M592 465q-4 33 -12 59t-24 43.5t-40 27t-59 9.5q-50 0 -89 -24t-66 -64t-41.5 -92.5t-14.5 -109.5q0 -42 7 -79t24.5 -64.5t45.5 -44t70 -16.5q73 0 110 35t49 102h160q-12 -61 -35.5 -110t-62 -83.5t-95.5 -53t-136 -18.5q-78 0 -133.5 25.5t-91.5 69.5t-52.5 102.5
t-16.5 124.5q0 84 26 161.5t74.5 137t117.5 94.5t155 35q70 0 121 -18t84.5 -50.5t51 -78t21.5 -100.5z" />
    <glyph glyph-name="D" unicode="D" horiz-adv-x="737" 
d="M43 0l151 714h238q72 0 128 -23.5t95 -63.5t59.5 -93.5t20.5 -114.5q0 -97 -28.5 -174.5t-84.5 -132t-139.5 -83.5t-192.5 -29h-247zM309 127q70 0 121 21t84 59.5t49 91t16 115.5q0 36 -9.5 67.5t-29 55t-50 37t-71.5 13.5h-103l-98 -460h91z" />
    <glyph glyph-name="E" unicode="E" horiz-adv-x="604" 
d="M316 587l-33 -156h318l-27 -128h-318l-38 -176h359l-41 -127h-493l151 714h487l-27 -127h-338z" />
    <glyph glyph-name="F" unicode="F" horiz-adv-x="584" 
d="M316 586l-36 -168h301l-27 -128h-301l-61 -290h-149l151 714h469l-27 -128h-320z" />
    <glyph glyph-name="G" unicode="G" horiz-adv-x="726" 
d="M591 491q-10 62 -40 88t-90 26q-52 0 -92.5 -24t-68 -64t-42 -93.5t-14.5 -111.5q0 -41 7.5 -78t25.5 -65t47.5 -44t72.5 -16t76.5 7.5t64.5 27.5l26 123h-136l27 124h274l-68 -313q-46 -42 -116 -69t-158 -27q-79 0 -135.5 25t-92.5 68.5t-53 102t-17 124.5q0 85 26 163
t75.5 137t121 94.5t161.5 35.5q124 0 189.5 -58.5t74.5 -162.5z" />
    <glyph glyph-name="H" unicode="H" horiz-adv-x="727" 
d="M475 0l63 300h-283l-63 -300h-149l151 714h149l-58 -276h283l58 276h149l-151 -714h-149z" />
    <glyph glyph-name="I" unicode="I" horiz-adv-x="295" 
d="M43 0l151 714h149l-151 -714h-149z" />
    <glyph glyph-name="J" unicode="J" horiz-adv-x="636" 
d="M591 232q-14 -67 -38.5 -114.5t-61 -77.5t-85 -44t-111.5 -14q-53 0 -97.5 13.5t-77 40.5t-51 66.5t-18.5 92.5q0 12 1 24.5t3 26.5h148q-1 -9 -1 -15.5v-14.5q0 -46 22 -76t82 -30q33 0 56 10.5t39.5 30t26.5 47.5t18 62l97 454h149z" />
    <glyph glyph-name="K" unicode="K" horiz-adv-x="675" 
d="M358 354l-110 -93l-55 -261h-150l151 714h150l-59 -277l314 277h171l-296 -273l171 -441h-159z" />
    <glyph glyph-name="L" unicode="L" horiz-adv-x="584" 
d="M43 0l151 714h149l-124 -586h338l-43 -128h-471z" />
    <glyph glyph-name="M" unicode="M" horiz-adv-x="860" 
d="M343 0l-66 475l-100 -475h-134l151 714h175l67 -533l294 533h178l-151 -714h-137l101 476l-262 -476h-116z" />
    <glyph glyph-name="N" unicode="N" horiz-adv-x="719" 
d="M491 0l-204 469l-99 -469h-145l151 714h127l201 -472l100 472h145l-151 -714h-125z" />
    <glyph glyph-name="O" unicode="O" horiz-adv-x="780" 
d="M490 732q69 0 122.5 -22.5t90 -62t55.5 -94.5t19 -120q0 -87 -25 -168.5t-74.5 -144.5t-124 -100.5t-172.5 -37.5q-69 0 -123 22t-91 62t-56.5 95t-19.5 121q0 86 26 167t76.5 144t125 101t171.5 38zM478 604q-60 0 -104 -28t-72.5 -73t-42.5 -101.5t-14 -112.5
q0 -83 36.5 -131t109.5 -48q60 0 103.5 28t72 73t42.5 101.5t14 113.5q0 81 -36 129.5t-109 48.5z" />
    <glyph glyph-name="P" unicode="P" horiz-adv-x="640" 
d="M681 517q0 -68 -22 -117.5t-64 -81.5t-101.5 -47.5t-134.5 -15.5h-115l-54 -255h-147l151 714h246q66 0 111.5 -18.5t74.5 -47t42 -63.5t13 -68zM372 379q34 0 63 5.5t50 20t33 39t12 62.5q0 35 -25.5 60t-88.5 25h-101l-45 -212h102z" />
    <glyph glyph-name="Q" unicode="Q" horiz-adv-x="780" 
d="M490 732q69 0 122.5 -22.5t90 -62t55.5 -94.5t19 -120q0 -107 -37 -203t-110 -160l61 -103l-99 -62l-62 104q-33 -13 -70 -20t-79 -7q-69 0 -123 22t-91 62t-56.5 95t-19.5 121q0 86 26 167t76.5 144t125 101t171.5 38zM556 195q34 47 50.5 107.5t16.5 123.5
q0 81 -36 129.5t-109 48.5q-60 0 -104 -28t-72.5 -73t-42.5 -101.5t-14 -112.5q0 -83 36.5 -131t109.5 -48q41 0 73 13l-68 116l98 62z" />
    <glyph glyph-name="R" unicode="R" horiz-adv-x="653" 
d="M190 0h-147l151 714h244q70 0 116.5 -17.5t74.5 -46t40 -65t12 -74.5q0 -87 -44.5 -139.5t-116.5 -75.5l89 -296h-156l-70 268h-24h-113zM393 392q29 0 54 5.5t43.5 19t29 36t10.5 55.5q0 16 -5.5 31t-19 26.5t-35 18.5t-54.5 7h-101l-42 -199h120z" />
    <glyph glyph-name="S" unicode="S" horiz-adv-x="645" 
d="M625 228q0 -65 -20 -111.5t-58.5 -76.5t-93.5 -44t-124 -14q-56 0 -108.5 12.5t-93 42t-65.5 77.5t-27 119h151q5 -63 42 -94.5t112 -31.5q69 0 97.5 29t28.5 72q0 27 -18.5 49.5t-64.5 32.5l-78 16q-100 20 -146.5 71t-46.5 120q0 61 21 105.5t60 73t93.5 42.5t122.5 14
q56 0 103 -12.5t81.5 -39t55.5 -67.5t25 -98l-144 -18q-8 60 -38.5 86.5t-90.5 26.5q-39 0 -64.5 -7.5t-40.5 -20t-21 -28t-6 -30.5q0 -38 21 -57.5t61 -28.5l80 -18q54 -12 91.5 -31.5t60 -44.5t32.5 -54t10 -62z" />
    <glyph glyph-name="T" unicode="T" horiz-adv-x="620" 
d="M479 585l-124 -585h-150l124 585h-215l27 129h580l-27 -129h-215z" />
    <glyph glyph-name="U" unicode="U" horiz-adv-x="693" 
d="M337 -18q-57 0 -105 14t-82 41.5t-53 70t-19 99.5q0 41 10 85l89 422h149l-90 -425q-9 -39 -9 -68q0 -59 31 -85t89 -26q37 0 63.5 11t46 33.5t33 56t23.5 78.5l90 425h149l-90 -425q-17 -81 -43.5 -139t-65.5 -95.5t-92.5 -55t-123.5 -17.5z" />
    <glyph glyph-name="V" unicode="V" horiz-adv-x="697" 
d="M389 0h-141l-117 714h160l70 -505l283 505h164z" />
    <glyph glyph-name="W" unicode="W" horiz-adv-x="968" 
d="M734 0h-145l-21 528l-241 -528h-141l-55 714h168l7 -496l220 492h158l19 -492l216 496h160z" />
    <glyph glyph-name="X" unicode="X" horiz-adv-x="684" 
d="M471 370l179 -370h-163l-120 262l-221 -262h-170l328 378l-162 336h163l101 -230l198 230h167z" />
    <glyph glyph-name="Y" unicode="Y" horiz-adv-x="657" 
d="M131 714h160l95 -289l218 289h164l-331 -423l-61 -291h-149l61 291z" />
    <glyph glyph-name="Z" unicode="Z" horiz-adv-x="587" 
d="M529 0h-536l23 109l452 477h-344l27 128h528l-23 -110l-451 -476h366z" />
    <glyph glyph-name="bracketleft" unicode="[" horiz-adv-x="334" 
d="M15 -124l183 858h252l-26 -120h-111l-131 -618h111l-26 -120h-252z" />
    <glyph glyph-name="backslash" unicode="\" horiz-adv-x="383" 
d="M344 0h-133l-76 734h133z" />
    <glyph glyph-name="bracketright" unicode="]" horiz-adv-x="334" 
d="M388 734l-183 -858h-251l25 120h111l131 618h-111l26 120h252z" />
    <glyph glyph-name="asciicircum" unicode="^" 
d="M445 296l-60 251l-168 -251h-149l292 418h113l114 -418h-142z" />
    <glyph glyph-name="underscore" unicode="_" horiz-adv-x="500" 
d="M-67 -175l11 52h499l-11 -52h-499z" />
    <glyph glyph-name="grave" unicode="`" horiz-adv-x="414" 
d="M307 594l-116 155h153l88 -155h-125z" />
    <glyph glyph-name="a" unicode="a" horiz-adv-x="561" 
d="M184 -13q-69 0 -110.5 36.5t-40.5 108.5q0 57 25.5 93t66 56t91.5 28.5t103 10.5l89 4l4 19q3 15 3 27q0 32 -20 48t-57 16q-44 0 -69.5 -13.5t-39.5 -49.5l-125 12q25 85 86.5 120t162.5 35q93 0 143.5 -41t51.5 -119q0 -31 -7 -62l-67 -316h-132l14 66q-19 -19 -37 -34
t-38 -25t-43.5 -15t-53.5 -5zM388 234l-68 -4q-43 -3 -71 -9.5t-44.5 -17.5t-23.5 -25.5t-7 -33.5q0 -23 15.5 -37.5t43.5 -14.5q27 0 49 6.5t42 20.5q45 29 58 87z" />
    <glyph glyph-name="b" unicode="b" horiz-adv-x="623" 
d="M356 -16q-60 0 -101.5 21t-70.5 72l-16 -77h-136l151 714h140l-54 -255q27 34 66 56.5t93 22.5q46 0 80.5 -17.5t57 -48.5t33.5 -72t11 -87q0 -71 -19.5 -131t-54 -104t-80.5 -69t-100 -25zM223 260q-5 -28 -5 -50q0 -20 4 -37.5t13 -32.5q12 -20 34.5 -31.5t54.5 -11.5
q34 0 60.5 18t44 48t26.5 69t9 81q0 53 -25 82t-63 29q-53 0 -93 -36q-20 -17 -33.5 -41.5t-18.5 -50.5z" />
    <glyph glyph-name="c" unicode="c" horiz-adv-x="569" 
d="M429 332q-4 46 -21.5 70t-61.5 24q-27 0 -51.5 -14t-43 -41.5t-29 -69t-10.5 -96.5q0 -48 23 -78.5t71 -30.5q88 0 106 93h142q-18 -102 -81 -153.5t-182 -51.5q-52 0 -93.5 16.5t-70.5 45.5t-44.5 70t-15.5 90q0 81 23 143t63 104t94 63.5t117 21.5q50 0 87.5 -14
t62.5 -38.5t39 -59t17 -76.5z" />
    <glyph glyph-name="d" unicode="d" horiz-adv-x="622" 
d="M319 538q56 0 95.5 -20.5t68.5 -68.5l57 265h140l-152 -714h-136l13 64q-30 -38 -68.5 -59t-86.5 -21q-47 0 -82.5 16.5t-59.5 46.5t-36 71t-12 90q0 71 20.5 131.5t55.5 104.5t82.5 69t100.5 25zM448 267q4 20 4 47q0 17 -4.5 34t-14.5 33q-12 20 -34 32t-54 12
q-35 0 -61 -17.5t-43 -47t-26 -69t-9 -83.5q0 -22 5.5 -42t16.5 -35t29 -24t42 -9q52 0 92 37q19 18 30.5 40t18.5 53z" />
    <glyph glyph-name="e" unicode="e" horiz-adv-x="589" 
d="M349 433q-20 0 -40 -5t-37 -18t-31 -35t-23 -56h216q11 54 -13.5 84t-71.5 30zM207 227q-5 -66 22.5 -100t78.5 -34q42 0 67 15t36 55h136q-21 -88 -82 -133.5t-172 -45.5q-52 0 -94 16t-71 45t-45 70t-16 91q0 79 22 141t61 104.5t93 64.5t119 22q49 0 88 -15t66 -41
t41 -63t14 -80q0 -19 -2 -43t-8 -51l-4 -18h-350z" />
    <glyph glyph-name="f" unicode="f" horiz-adv-x="379" 
d="M317 522h120l-23 -109h-121l-87 -413h-140l87 413h-82l23 109h82l7 31q11 45 27 77t40 52.5t56 30t76 9.5q43 0 74.5 -9.5t41.5 -14.5l-38 -97q-11 5 -27 9t-36 4q-33 0 -50.5 -17t-25.5 -55z" />
    <glyph glyph-name="g" unicode="g" horiz-adv-x="623" 
d="M450 272q4 17 4 37q0 25 -5 43.5t-13 29.5q-12 20 -33.5 31.5t-55.5 11.5q-35 0 -60.5 -18t-42.5 -46.5t-25.5 -64t-8.5 -69.5q0 -51 24.5 -76t65.5 -25q23 0 46.5 7.5t43.5 23.5t34.5 39.5t19.5 48.5zM545 73q-14 -65 -33 -116.5t-51 -87.5t-81 -55t-122 -19
q-63 0 -106.5 12.5t-71 35t-40.5 54t-14 70.5h142q6 -36 28 -49.5t74 -13.5q37 0 61 14.5t38.5 38.5t22.5 54.5t14 62.5l3 13q-32 -38 -69.5 -55t-87.5 -17q-91 0 -140 56.5t-48 155.5q0 66 21 123t55.5 99t80 65.5t96.5 23.5q60 0 102 -20.5t71 -68.5l16 73h135z" />
    <glyph glyph-name="h" unicode="h" 
d="M365 0l66 312q5 25 5 41q0 35 -16.5 51.5t-45.5 16.5q-27 0 -47 -7.5t-40 -23.5q-18 -14 -31 -33.5t-18 -42.5l-66 -314h-140l151 714h140l-55 -258q37 44 77 63t85 19q73 0 112 -39.5t39 -110.5q0 -32 -7 -64l-69 -324h-140z" />
    <glyph glyph-name="i" unicode="i" horiz-adv-x="266" 
d="M33 0l111 522h140l-111 -522h-140zM154 588l27 126h144l-27 -126h-144z" />
    <glyph glyph-name="j" unicode="j" horiz-adv-x="266" 
d="M154 588l27 126h144l-27 -126h-144zM144 522h140l-117 -545q-10 -45 -24.5 -76.5t-36.5 -50.5t-52.5 -27.5t-71.5 -8.5q-32 0 -61 6t-55 17l40 103q12 -5 27.5 -8.5t32.5 -3.5q26 0 41.5 14.5t24.5 55.5z" />
    <glyph glyph-name="k" unicode="k" horiz-adv-x="577" 
d="M32 0l151 714h137l-78 -371l230 179h170l-229 -185l131 -337h-143l-97 264l-94 -70l-41 -194h-137z" />
    <glyph glyph-name="l" unicode="l" horiz-adv-x="266" 
d="M33 0l151 714h140l-151 -714h-140z" />
    <glyph glyph-name="m" unicode="m" horiz-adv-x="875" 
d="M340 0l67 317q3 13 4 24t1 20q0 36 -17 48t-40 12q-40 0 -72 -29q-34 -31 -45 -78l-66 -314h-140l110 522h136l-14 -70q40 46 77.5 66t77.5 20q57 0 86.5 -21.5t42.5 -68.5q44 52 85.5 71t93.5 19q66 0 102 -37.5t36 -105.5q0 -29 -8 -69l-69 -326h-140l67 315q3 13 4 24
t1 20q0 37 -16 49.5t-38 12.5q-23 0 -40.5 -8t-34.5 -22q-15 -13 -27 -32t-16 -39l-68 -320h-140z" />
    <glyph glyph-name="n" unicode="n" 
d="M365 0l66 312q5 25 5 41q0 35 -16.5 51.5t-45.5 16.5q-27 0 -47 -7.5t-40 -23.5q-18 -14 -31 -33.5t-18 -42.5l-66 -314h-140l110 522h136l-15 -72q38 47 79.5 67.5t87.5 20.5q73 0 112 -39.5t39 -110.5q0 -32 -7 -64l-69 -324h-140z" />
    <glyph glyph-name="o" unicode="o" horiz-adv-x="616" 
d="M374 538q53 0 95.5 -17.5t72 -47.5t45.5 -70t16 -86q0 -80 -22.5 -142t-63 -104.5t-97 -64.5t-123.5 -22q-53 0 -95.5 17.5t-72.5 47.5t-46 70t-16 86q0 78 23 140t64.5 104.5t97.5 65.5t122 23zM364 426q-31 0 -58.5 -14t-48.5 -42t-33 -69t-12 -95q0 -52 24.5 -81
t69.5 -29q31 0 58.5 14t48.5 41.5t33 68.5t12 95q0 52 -24.5 81.5t-69.5 29.5z" />
    <glyph glyph-name="p" unicode="p" horiz-adv-x="623" 
d="M265 457q27 36 68 58.5t95 22.5q46 0 80 -17.5t56.5 -48t34 -72t11.5 -90.5q-1 -71 -20.5 -130.5t-54 -103t-80.5 -68t-99 -24.5q-60 0 -100 20.5t-69 67.5l-57 -266h-139l151 716h136zM223 260q-2 -13 -3.5 -25t-1.5 -24q0 -20 4 -38t13 -33q12 -20 34.5 -31.5
t54.5 -11.5q34 0 60.5 18t44 48t26.5 69t9 81q0 53 -25 82t-63 29q-53 0 -93 -36q-20 -17 -33.5 -41.5t-18.5 -50.5z" />
    <glyph glyph-name="q" unicode="q" horiz-adv-x="623" 
d="M505 522h135l-152 -716h-140l52 251q-30 -35 -65.5 -54t-83.5 -19t-83.5 17t-59 47t-35.5 72t-12 92q1 71 22 131t56 103.5t81.5 67.5t99.5 24q56 0 98.5 -21.5t69.5 -72.5zM449 267q4 20 4 47q0 17 -4.5 34t-14.5 33q-12 20 -34 32t-54 12q-35 0 -61 -17.5t-43 -47
t-26 -69t-9 -83.5q0 -22 5.5 -42t16.5 -35t29 -24t42 -9q52 0 92 37q19 18 30.5 40t18.5 53z" />
    <glyph glyph-name="r" unicode="r" horiz-adv-x="419" 
d="M430 398q-11 3 -23.5 5t-31.5 2q-25 0 -47.5 -6t-40.5 -20q-23 -17 -34.5 -35.5t-16.5 -41.5l-64 -302h-140l110 522h136l-15 -73q35 43 71 62.5t81 19.5q20 0 31 -2t20 -4z" />
    <glyph glyph-name="s" unicode="s" horiz-adv-x="537" 
d="M504 161q0 -52 -19.5 -86t-53 -54.5t-78.5 -28.5t-95 -8q-44 0 -84 9t-71 30t-50 55.5t-20 85.5h133q5 -42 31 -57t71 -15q47 0 69.5 13.5t22.5 45.5q0 19 -12.5 32.5t-45.5 20.5l-57 12q-43 9 -72.5 23.5t-47.5 33t-26 42t-8 50.5q0 44 17.5 76.5t48.5 54t74.5 32
t94.5 10.5q38 0 74.5 -8t65.5 -26.5t48.5 -49.5t23.5 -77l-128 -16q-2 16 -7.5 29t-15.5 23t-26 15.5t-40 5.5q-31 0 -49 -5.5t-27.5 -14t-12 -18.5t-2.5 -18q0 -22 15.5 -34t51.5 -20l53 -11q45 -9 74.5 -24t47.5 -34.5t25 -43t7 -50.5z" />
    <glyph glyph-name="t" unicode="t" horiz-adv-x="379" 
d="M241 177q-4 -16 -4 -30q0 -27 14 -36t35 -9q14 0 30.5 2.5t28.5 5.5l20 -103q-30 -10 -58 -13.5t-57 -3.5q-74 0 -114.5 33.5t-40.5 101.5q0 29 7 58l49 230h-82l23 109h82l30 139h140l-30 -139h120l-23 -109h-120z" />
    <glyph glyph-name="u" unicode="u" horiz-adv-x="587" 
d="M277 522l-67 -316q-2 -11 -3.5 -21t-1.5 -19q0 -33 15.5 -49t44.5 -16q27 0 45.5 7.5t38.5 23.5q17 13 31.5 34t19.5 47l65 309h140l-110 -522h-136l15 72q-38 -47 -78.5 -67.5t-86.5 -20.5q-73 0 -111 39t-38 109q0 28 8 66l69 324h140z" />
    <glyph glyph-name="v" unicode="v" horiz-adv-x="567" 
d="M183 0l-95 522h157l41 -363l193 363h160l-316 -522h-140z" />
    <glyph glyph-name="w" unicode="w" horiz-adv-x="773" 
d="M128 0l-42 522h152l-2 -346l170 342h122l25 -342l148 346h146l-262 -522h-136l-20 344l-167 -344h-134z" />
    <glyph glyph-name="x" unicode="x" horiz-adv-x="547" 
d="M383 270l126 -270h-155l-74 172l-141 -172h-161l245 275l-120 247h158l62 -153l128 153h155z" />
    <glyph glyph-name="y" unicode="y" horiz-adv-x="567" 
d="M88 522h156l53 -343l183 343h159l-324 -537q-27 -45 -50 -78.5t-48 -56t-55.5 -33.5t-72.5 -11q-26 0 -48 4.5t-45 13.5l36 104q12 -4 26.5 -7t31.5 -3q28 0 46.5 15t37.5 48l27 47z" />
    <glyph glyph-name="z" unicode="z" horiz-adv-x="500" 
d="M438 0h-431l20 95l316 318h-244l23 109h427l-20 -95l-315 -318h260z" />
    <glyph glyph-name="braceleft" unicode="{" horiz-adv-x="333" 
d="M69 363h9q31 0 51 19t27 51l32 153q17 82 62 115t109 33h95l-25 -117h-50q-29 0 -43.5 -11t-19.5 -36l-36 -168q-6 -28 -25 -55.5t-59 -41.5q26 -11 36 -29.5t10 -40.5q0 -14 -3 -27l-36 -168q-3 -11 -3 -18q0 -14 8.5 -21.5t29.5 -7.5h58l-25 -117h-90q-56 0 -86 29
t-30 80q0 20 4 39l32 153q2 6 2 11.5v10.5q0 23 -12 35.5t-38 12.5h-9z" />
    <glyph glyph-name="bar" unicode="|" horiz-adv-x="276" 
d="M15 -124l183 858h132l-183 -858h-132z" />
    <glyph glyph-name="braceright" unicode="}" horiz-adv-x="333" 
d="M333 247h-9q-31 0 -51 -19t-27 -51l-32 -153q-9 -41 -24.5 -69.5t-37.5 -46t-49.5 -25t-59.5 -7.5h-95l25 117h50q29 0 43.5 11t19.5 36l36 168q3 14 9 28t16 27t24.5 24t34.5 18q-26 11 -36 29.5t-10 40.5q0 13 3 27l36 168q3 10 3 18q0 14 -8.5 21.5t-29.5 7.5h-58
l25 117h90q56 0 86 -29t30 -80q0 -20 -4 -39l-32 -153q-2 -6 -2 -11.5v-10.5q0 -23 12 -35.5t38 -12.5h9z" />
    <glyph glyph-name="asciitilde" unicode="~" 
d="M611 434q-5 -62 -20 -102.5t-38 -64.5t-54 -33.5t-67 -9.5q-31 0 -56 11.5t-46 25.5t-40 25.5t-38 11.5q-27 0 -43 -14t-23 -58h-126q5 63 20 103.5t38.5 64t54 33t66.5 9.5q31 0 56 -11.5t46 -25t40 -24.5t39 -11q27 0 42.5 13.5t23.5 56.5h125z" />
    <glyph glyph-name="uni00A0" unicode="&#xa0;" horiz-adv-x="222" 
 />
    <glyph glyph-name="exclamdown" unicode="&#xa1;" horiz-adv-x="274" 
d="M285 522l-33 -159h-138l33 159h138zM234 296l-93 -490h-150l113 490h130z" />
    <glyph glyph-name="cent" unicode="&#xa2;" 
d="M449 425q-3 32 -12 52t-29 29l-66 -309q75 8 90 91h142q-18 -100 -79.5 -151t-176.5 -53l-20 -94h-65l21 99q-79 16 -123 72t-44 135q0 77 21 137.5t58.5 102.5t89 65t112.5 26l20 92h65l-21 -96q75 -13 113.5 -60.5t44.5 -119.5zM229 300q0 -33 11.5 -58t37.5 -37
l66 308q-52 -8 -83.5 -62t-31.5 -151z" />
    <glyph glyph-name="sterling" unicode="&#xa3;" 
d="M300 294q-2 -48 -20.5 -90t-63.5 -84h342l-41 -120h-472l22 99q55 48 78.5 95t25.5 100h-86l23 109h57q-2 11 -3.5 31.5t-1.5 37.5q0 120 63 179t176 59q88 0 141.5 -41.5t63.5 -139.5l-119 -16q-7 45 -30 63.5t-61 18.5q-34 0 -55 -10.5t-32 -27.5t-15 -40.5t-4 -48.5
q0 -17 1.5 -32.5t3.5 -32.5h218l-23 -109h-188z" />
    <glyph glyph-name="currency" unicode="&#xa4;" 
d="M370 588q31 0 58 -8.5t50 -22.5l66 60l70 -83l-67 -56q19 -40 19 -80q0 -60 -15 -108.5t-41 -85.5l55 -63l-88 -75l-53 64q-27 -14 -58 -21t-64 -7t-61.5 9t-51.5 25l-66 -61l-70 83l69 58q-16 35 -16 76q0 61 16 110.5t45 86.5l-53 63l88 75l53 -65q54 26 115 26z
M361 492q-27 0 -52.5 -11.5t-45 -35.5t-31.5 -61t-12 -88q0 -43 22.5 -70t65.5 -27q29 0 55 11.5t46 35t31.5 60.5t11.5 88q0 43 -23 70.5t-68 27.5z" />
    <glyph glyph-name="yen" unicode="&#xa5;" 
d="M359 135l-28 -135h-137l28 135h-167l21 97h167l13 63l1 6h-169l21 97h109l-96 293h141l84 -286l200 286h145l-219 -293h109l-21 -97h-167l-1 -6l-13 -63h169l-21 -97h-169z" />
    <glyph glyph-name="brokenbar" unicode="&#xa6;" horiz-adv-x="276" 
d="M126 398l72 336h132l-72 -336h-132zM15 -124l75 353h132l-75 -353h-132z" />
    <glyph glyph-name="section" unicode="&#xa7;" horiz-adv-x="558" 
d="M260 -121q-53 0 -96 11.5t-74 36t-49 63.5t-20 95h138q0 -19 5 -36.5t16.5 -30.5t31 -20.5t49.5 -7.5q58 0 78 17.5t20 52.5q0 20 -13.5 37.5t-48.5 25.5l-78 19q-73 18 -107.5 57t-34.5 90q0 54 26 90.5t87 57.5q-26 15 -42 44t-16 64q0 92 66.5 139.5t186.5 47.5
q60 0 99.5 -15t64.5 -38t38 -52t18 -57l-129 -30q-8 35 -31 58t-71 23q-59 0 -80.5 -19t-21.5 -47q0 -17 11 -33.5t45 -25.5l95 -25q37 -10 62 -24.5t40 -32.5t21.5 -39t6.5 -44q0 -53 -25 -90.5t-90 -59.5q27 -17 42.5 -46t15.5 -62q0 -102 -61.5 -148t-174.5 -46zM323 390
q-7 2 -18 3t-23 1q-33 -1 -59 -22t-26 -68q0 -17 11.5 -36.5t48.5 -28.5l37 -9q8 -2 22 -4t26 -2q17 0 33 4.5t29 15t20.5 27t7.5 40.5q0 17 -11.5 36.5t-48.5 29.5z" />
    <glyph glyph-name="dieresis" unicode="&#xa8;" horiz-adv-x="414" 
d="M129 608l26 125h130l-26 -125h-130zM331 608l26 125h130l-26 -125h-130z" />
    <glyph glyph-name="copyright" unicode="&#xa9;" horiz-adv-x="777" 
d="M428 714q76 0 139 -25.5t108 -72t70 -112.5t25 -147t-26.5 -147t-73 -112.5t-108.5 -72t-134 -25.5q-76 0 -139.5 25.5t-109 72t-70.5 112.5t-25 147t27 147t73.5 112.5t109 72t134.5 25.5zM428 641q-58 0 -106.5 -20t-83.5 -57t-54.5 -89.5t-19.5 -117.5t19.5 -118
t54.5 -90t83.5 -57t106.5 -20q57 0 105 20t83 57t54.5 90t19.5 118t-19.5 117.5t-54.5 89.5t-83 57t-105 20zM497 407q-5 29 -20 49t-46 20q-24 0 -40 -10t-25.5 -26.5t-13.5 -38t-4 -43.5q0 -24 4 -45.5t13 -38t25 -26.5t40 -10q63 0 69 70h108q-6 -71 -49 -112.5
t-128 -41.5q-49 0 -84.5 15t-59 42t-34.5 64t-11 81q0 45 13 82.5t38 64.5t61 42t82 15q79 0 119.5 -38t47.5 -98z" />
    <glyph glyph-name="ordfeminine" unicode="&#xaa;" horiz-adv-x="426" 
d="M98 435q0 46 20 73.5t52 42.5t72 20t80 7l50 2l2 11q1 5 1 8.5v7.5q0 46 -51 46q-35 0 -52.5 -11t-24.5 -34l-95 9q20 67 64 91t118 24q68 0 105.5 -30.5t37.5 -89.5q0 -22 -6 -46l-49 -228h-100l10 47q-24 -26 -50.5 -41.5t-71.5 -15.5q-50 0 -81 31t-31 76zM357 510
l-47 -2q-34 -2 -55 -6.5t-32.5 -12.5t-15.5 -18.5t-4 -23.5q0 -15 9 -27t35 -12q34 0 61 17q36 22 45 66z" />
    <glyph glyph-name="guillemotleft" unicode="&#xab;" horiz-adv-x="547" 
d="M235 482h146l-170 -231l68 -221h-142l-78 228zM455 482h146l-170 -231l68 -221h-142l-78 228z" />
    <glyph glyph-name="logicalnot" unicode="&#xac;" 
d="M516 171h-125l32 149h-313l25 121h438z" />
    <glyph glyph-name="uni00AD" unicode="&#xad;" horiz-adv-x="389" 
d="M63 230l30 138h299l-30 -138h-299z" />
    <glyph glyph-name="registered" unicode="&#xae;" horiz-adv-x="489" 
d="M289 485v-75h-53v212h82q29 0 47.5 -5.5t29 -14.5t14 -20.5t3.5 -23.5q0 -23 -7.5 -36.5t-26.5 -24.5l45 -87h-60l-36 75h-38zM357 555q0 12 -8.5 18.5t-31.5 6.5h-28v-52h34q21 0 27.5 7.5t6.5 19.5zM322 732q49 0 88.5 -15.5t67.5 -44t43.5 -69t15.5 -91.5t-16.5 -92
t-45.5 -69.5t-68.5 -43.5t-84.5 -15q-48 0 -87.5 15t-67.5 43.5t-43.5 69.5t-15.5 92t16.5 91.5t45.5 69t68 44t84 15.5zM322 683q-71 0 -114 -44t-43 -127t43 -127t114 -44t114.5 44t43.5 127t-43.5 127t-114.5 44z" />
    <glyph glyph-name="macron" unicode="&#xaf;" horiz-adv-x="414" 
d="M171 719h292l-22 -107h-292z" />
    <glyph glyph-name="degree" unicode="&#xb0;" horiz-adv-x="352" 
d="M93 566q0 30 11 56.5t30.5 46t46.5 30.5t59 11q31 0 58 -11t46 -30.5t30 -46t11 -56.5q0 -31 -11 -58t-30 -46.5t-46 -30.5t-58 -11q-32 0 -59 11t-46.5 30.5t-30.5 46.5t-11 58zM178 566q0 -30 16.5 -47.5t45.5 -17.5q27 0 43.5 17.5t16.5 47.5q0 29 -16.5 46.5
t-43.5 17.5q-29 0 -45.5 -17.5t-16.5 -46.5z" />
    <glyph glyph-name="plusminus" unicode="&#xb1;" 
d="M388 280l-34 -159h156l-25 -121h-438l25 121h156l34 159h-175l26 121h175l40 190h126l-40 -190h175l-26 -121h-175z" />
    <glyph glyph-name="twosuperior" unicode="&#xb2;" horiz-adv-x="412" 
d="M292 620q-12 0 -22.5 -2t-19.5 -9t-17 -20t-14 -35l-99 13q10 36 25 62.5t36.5 44t52.5 26t73 8.5q62 0 99.5 -33t37.5 -82q0 -27 -6.5 -48.5t-20 -40t-33 -36t-46.5 -36.5q-19 -14 -41 -28t-40 -27h154l-30 -89h-298l16 75q8 6 18 13t23.5 17t32.5 23t45 32q29 21 51 37
t37 31t22.5 30.5t7.5 34.5q0 15 -11 27t-33 12z" />
    <glyph glyph-name="threesuperior" unicode="&#xb3;" horiz-adv-x="412" 
d="M269 534q31 0 46.5 14t15.5 40q0 17 -12.5 28.5t-37.5 11.5q-27 0 -45 -11t-28 -49l-93 13q16 63 54.5 95t118.5 32q65 0 102 -31.5t37 -79.5q0 -34 -15.5 -59.5t-57.5 -43.5q26 -14 38.5 -38t12.5 -53q0 -62 -39.5 -97t-121.5 -35q-76 0 -118 39t-42 111h94
q0 -32 16.5 -51t51.5 -19q26 0 43.5 12t17.5 43q0 25 -15 36.5t-39 11.5h-42l17 80h41z" />
    <glyph glyph-name="acute" unicode="&#xb4;" horiz-adv-x="414" 
d="M155 594l152 155h165l-181 -155h-136z" />
    <glyph glyph-name="mu" unicode="&#xb5;" horiz-adv-x="587" 
d="M374 72q-23 -35 -53.5 -59.5t-80.5 -24.5q-46 0 -70 27l-45 -209h-140l152 716h140l-67 -316q-5 -23 -5 -37q-1 -68 60 -68q27 0 45.5 7.5t38.5 23.5q17 13 31.5 34t19.5 47l65 309h140l-110 -522h-136z" />
    <glyph glyph-name="paragraph" unicode="&#xb6;" horiz-adv-x="655" 
d="M398 -139l157 739h-86l-157 -739h-132l85 401q-50 4 -85 21.5t-57 43.5t-32 58t-10 64q0 55 18 103.5t59 84.5t107.5 56.5t164.5 20.5h281l-181 -853h-132z" />
    <glyph glyph-name="periodcentered" unicode="&#xb7;" horiz-adv-x="246" 
d="M84 292l34 161h143l-34 -161h-143z" />
    <glyph glyph-name="cedilla" unicode="&#xb8;" horiz-adv-x="414" 
d="M255 8h76l-27 -57q46 -7 63.5 -28.5t17.5 -45.5q0 -54 -41 -74t-108 -20q-14 0 -31 1.5t-38 5.5l10 68q23 -4 38.5 -5t28.5 -1q26 0 36.5 7.5t10.5 22.5q0 12 -11.5 19t-40.5 7h-34z" />
    <glyph glyph-name="onesuperior" unicode="&#xb9;" horiz-adv-x="412" 
d="M204 288l64 301l-96 -47l-34 73l149 76h107l-85 -403h-105z" />
    <glyph glyph-name="ordmasculine" unicode="&#xba;" horiz-adv-x="421" 
d="M318 732q39 0 71 -13t54.5 -35.5t34.5 -53t12 -64.5q0 -60 -16.5 -105.5t-46.5 -76.5t-71.5 -47t-90.5 -16q-40 0 -72 13.5t-54.5 36t-34.5 52.5t-12 64q0 58 17 103.5t47 77t71.5 48t90.5 16.5zM310 642q-44 0 -75.5 -36t-31.5 -115q0 -36 18 -58t50 -22q48 0 78 36
t30 115q0 36 -18.5 58t-50.5 22z" />
    <glyph glyph-name="guillemotright" unicode="&#xbb;" horiz-adv-x="547" 
d="M146 30h-148l172 231l-68 221h140l80 -228zM366 30h-148l172 231l-68 221h140l80 -228z" />
    <glyph glyph-name="onequarter" unicode="&#xbc;" horiz-adv-x="937" 
d="M302 0h-136l494 691h136zM155 288l64 301l-96 -47l-34 73l149 76h107l-85 -403h-105zM730 1l17 81h-193l13 65l245 257h97l-51 -242h52l-27 -80h-42l-17 -81h-94zM674 162h90l26 125z" />
    <glyph glyph-name="onehalf" unicode="&#xbd;" horiz-adv-x="937" 
d="M272 0h-136l494 691h136zM155 288l64 301l-96 -47l-34 73l149 76h107l-85 -403h-105zM767 333q-12 0 -22.5 -2t-19.5 -9t-17 -20t-14 -35l-99 13q10 36 25 62.5t36.5 44t52.5 26t73 8.5q62 0 99.5 -33t37.5 -82q0 -27 -6.5 -48.5t-20 -40t-33 -36t-46.5 -36.5
q-19 -14 -41 -28t-40 -27h154l-30 -89h-298l16 75q8 6 18 13t23.5 17t32.5 23t45 32q29 21 51 37t37 31t22.5 30.5t7.5 34.5q0 15 -11 27t-33 12z" />
    <glyph glyph-name="threequarters" unicode="&#xbe;" horiz-adv-x="937" 
d="M367 0h-136l494 691h136zM730 1l17 81h-193l13 65l245 257h97l-51 -242h52l-27 -80h-42l-17 -81h-94zM674 162h90l26 125zM279 534q31 0 46.5 14t15.5 40q0 17 -12.5 28.5t-37.5 11.5q-27 0 -45 -11t-28 -49l-93 13q16 63 54.5 95t118.5 32q65 0 102 -31.5t37 -79.5
q0 -34 -15.5 -59.5t-57.5 -43.5q26 -14 38.5 -38t12.5 -53q0 -62 -39.5 -97t-121.5 -35q-76 0 -118 39t-42 111h94q0 -32 16.5 -51t51.5 -19q26 0 43.5 12t17.5 43q0 25 -15 36.5t-39 11.5h-42l17 80h41z" />
    <glyph glyph-name="questiondown" unicode="&#xbf;" horiz-adv-x="499" 
d="M-5 -35q0 37 9.5 65t24.5 49.5t35 39t41 35.5q18 15 36.5 29t33.5 28.5t25.5 31t14.5 37.5l3 16h138l-4 -22q-5 -26 -14 -46t-23 -37.5t-33 -34t-43 -35.5q-20 -16 -38 -30t-31.5 -29.5t-21.5 -34.5t-8 -45q0 -32 20.5 -50.5t55.5 -18.5q21 0 40 4.5t35 16t28.5 31.5
t20.5 52l126 -16q-11 -47 -30.5 -84.5t-50.5 -64.5t-75.5 -41.5t-105.5 -14.5q-45 0 -83.5 12t-66.5 34t-43.5 53t-15.5 70zM399 522l-33 -159h-138l33 159h138z" />
    <glyph glyph-name="Agrave" unicode="&#xc0;" horiz-adv-x="698" 
d="M541 714l117 -714h-154l-22 165h-250l-92 -165h-160l419 714h142zM295 288h173l-33 256zM438 772l-128 145h156l98 -145h-126z" />
    <glyph glyph-name="Aacute" unicode="&#xc1;" horiz-adv-x="698" 
d="M541 714l117 -714h-154l-22 165h-250l-92 -165h-160l419 714h142zM295 288h173l-33 256zM395 772l157 145h169l-190 -145h-136z" />
    <glyph glyph-name="Acircumflex" unicode="&#xc2;" horiz-adv-x="698" 
d="M541 714l117 -714h-154l-22 165h-250l-92 -165h-160l419 714h142zM295 288h173l-33 256zM290 772l149 145h141l93 -145h-120l-54 72l-89 -72h-120z" />
    <glyph glyph-name="Atilde" unicode="&#xc3;" horiz-adv-x="698" 
d="M541 714l117 -714h-154l-22 165h-250l-92 -165h-160l419 714h142zM295 288h173l-33 256zM533 871q21 0 32.5 7.5t14.5 32.5h99q-6 -77 -39 -109t-88 -32q-20 0 -37 7t-32 15.5t-28 15.5t-25 7q-21 0 -33.5 -8.5t-15.5 -33.5h-99q6 77 39.5 109.5t88.5 32.5q19 0 36.5 -7
t32.5 -15t28.5 -15t25.5 -7z" />
    <glyph glyph-name="Adieresis" unicode="&#xc4;" horiz-adv-x="698" 
d="M541 714l117 -714h-154l-22 165h-250l-92 -165h-160l419 714h142zM295 288h173l-33 256zM308 782l27 129h134l-27 -129h-134zM516 782l27 129h134l-27 -129h-134z" />
    <glyph glyph-name="Aring" unicode="&#xc5;" horiz-adv-x="698" 
d="M351 795q0 30 9.5 52.5t26 37t38.5 22t46 7.5t46 -7.5t38.5 -22t26.5 -37t10 -52.5q0 -35 -13.5 -59t-35.5 -38l115 -698h-154l-22 165h-250l-92 -165h-160l412 702q-19 14 -30 37.5t-11 55.5zM295 288h173l-33 256zM426 795q0 -25 12 -36t33 -11q46 0 46 47
q0 26 -12 37.5t-34 11.5q-21 0 -33 -11.5t-12 -37.5z" />
    <glyph glyph-name="AE" unicode="&#xc6;" horiz-adv-x="1052" 
d="M560 214h-262l-164 -214h-171l554 714h612l-27 -127h-319l-33 -156h299l-27 -128h-299l-38 -176h340l-41 -127h-469zM387 337h199l53 250h-66z" />
    <glyph glyph-name="Ccedilla" unicode="&#xc7;" horiz-adv-x="713" 
d="M337 -15q-66 7 -113 35t-77 70.5t-44 97.5t-14 116q0 84 26 161.5t74.5 137t117.5 94.5t155 35q70 0 121 -18t84.5 -50.5t51 -78t21.5 -100.5l-148 -20q-4 33 -12 59t-24 43.5t-40 27t-59 9.5q-50 0 -89 -24t-66 -64t-41.5 -92.5t-14.5 -109.5q0 -42 7 -79t24.5 -64.5
t45.5 -44t70 -16.5q73 0 110 35t49 102h160q-12 -58 -33.5 -105t-56.5 -81t-86 -54t-121 -24l-16 -33q48 -8 67 -29.5t19 -46.5q0 -28 -11.5 -46.5t-32 -30t-49.5 -16t-63 -4.5q-14 0 -31.5 1.5t-38.5 5.5l10 68q24 -4 39.5 -5t29.5 -1q26 0 37 8.5t11 24.5q0 12 -12 18.5
t-41 6.5h-35z" />
    <glyph glyph-name="Egrave" unicode="&#xc8;" horiz-adv-x="604" 
d="M316 587l-33 -156h318l-27 -128h-318l-38 -176h359l-41 -127h-493l151 714h487l-27 -127h-338zM424 772l-128 145h156l98 -145h-126z" />
    <glyph glyph-name="Eacute" unicode="&#xc9;" horiz-adv-x="604" 
d="M316 587l-33 -156h318l-27 -128h-318l-38 -176h359l-41 -127h-493l151 714h487l-27 -127h-338zM341 772l157 145h169l-190 -145h-136z" />
    <glyph glyph-name="Ecircumflex" unicode="&#xca;" horiz-adv-x="604" 
d="M316 587l-33 -156h318l-27 -128h-318l-38 -176h359l-41 -127h-493l151 714h487l-27 -127h-338zM260 772l149 145h141l93 -145h-120l-54 72l-89 -72h-120z" />
    <glyph glyph-name="Edieresis" unicode="&#xcb;" horiz-adv-x="604" 
d="M316 587l-33 -156h318l-27 -128h-318l-38 -176h359l-41 -127h-493l151 714h487l-27 -127h-338zM278 782l27 129h134l-27 -129h-134zM486 782l27 129h134l-27 -129h-134z" />
    <glyph glyph-name="Igrave" unicode="&#xcc;" horiz-adv-x="295" 
d="M43 0l151 714h149l-151 -714h-149zM244 772l-128 145h156l98 -145h-126z" />
    <glyph glyph-name="Iacute" unicode="&#xcd;" horiz-adv-x="295" 
d="M43 0l151 714h149l-151 -714h-149zM188 772l157 145h169l-190 -145h-136z" />
    <glyph glyph-name="Icircumflex" unicode="&#xce;" horiz-adv-x="295" 
d="M43 0l151 714h149l-151 -714h-149zM87 772l149 145h141l93 -145h-120l-54 72l-89 -72h-120z" />
    <glyph glyph-name="Idieresis" unicode="&#xcf;" horiz-adv-x="295" 
d="M43 0l151 714h149l-151 -714h-149zM106 782l27 129h134l-27 -129h-134zM314 782l27 129h134l-27 -129h-134z" />
    <glyph glyph-name="Eth" unicode="&#xd0;" horiz-adv-x="755" 
d="M61 0l65 307h-77l26 123h77l60 284h238q72 0 128 -23.5t95 -63.5t59.5 -93.5t20.5 -114.5q0 -97 -28.5 -174.5t-84.5 -132t-139.5 -83.5t-192.5 -29h-247zM327 127q70 0 121 21t84 59.5t49 91t16 115.5q0 36 -9.5 67.5t-29 55t-50 37t-71.5 13.5h-103l-34 -157h153
l-26 -123h-153l-38 -180h91z" />
    <glyph glyph-name="Ntilde" unicode="&#xd1;" horiz-adv-x="719" 
d="M491 0l-204 469l-99 -469h-145l151 714h127l201 -472l100 472h145l-151 -714h-125zM551 871q21 0 32.5 7.5t14.5 32.5h99q-6 -77 -39 -109t-88 -32q-20 0 -37 7t-32 15.5t-28 15.5t-25 7q-21 0 -33.5 -8.5t-15.5 -33.5h-99q6 77 39.5 109.5t88.5 32.5q19 0 36.5 -7
t32.5 -15t28.5 -15t25.5 -7z" />
    <glyph glyph-name="Ograve" unicode="&#xd2;" horiz-adv-x="780" 
d="M490 732q69 0 122.5 -22.5t90 -62t55.5 -94.5t19 -120q0 -87 -25 -168.5t-74.5 -144.5t-124 -100.5t-172.5 -37.5q-69 0 -123 22t-91 62t-56.5 95t-19.5 121q0 86 26 167t76.5 144t125 101t171.5 38zM478 604q-60 0 -104 -28t-72.5 -73t-42.5 -101.5t-14 -112.5
q0 -83 36.5 -131t109.5 -48q60 0 103.5 28t72 73t42.5 101.5t14 113.5q0 81 -36 129.5t-109 48.5zM490 772l-128 145h156l98 -145h-126z" />
    <glyph glyph-name="Oacute" unicode="&#xd3;" horiz-adv-x="780" 
d="M490 732q69 0 122.5 -22.5t90 -62t55.5 -94.5t19 -120q0 -87 -25 -168.5t-74.5 -144.5t-124 -100.5t-172.5 -37.5q-69 0 -123 22t-91 62t-56.5 95t-19.5 121q0 86 26 167t76.5 144t125 101t171.5 38zM478 604q-60 0 -104 -28t-72.5 -73t-42.5 -101.5t-14 -112.5
q0 -83 36.5 -131t109.5 -48q60 0 103.5 28t72 73t42.5 101.5t14 113.5q0 81 -36 129.5t-109 48.5zM400 772l157 145h169l-190 -145h-136z" />
    <glyph glyph-name="Ocircumflex" unicode="&#xd4;" horiz-adv-x="780" 
d="M490 732q69 0 122.5 -22.5t90 -62t55.5 -94.5t19 -120q0 -87 -25 -168.5t-74.5 -144.5t-124 -100.5t-172.5 -37.5q-69 0 -123 22t-91 62t-56.5 95t-19.5 121q0 86 26 167t76.5 144t125 101t171.5 38zM478 604q-60 0 -104 -28t-72.5 -73t-42.5 -101.5t-14 -112.5
q0 -83 36.5 -131t109.5 -48q60 0 103.5 28t72 73t42.5 101.5t14 113.5q0 81 -36 129.5t-109 48.5zM315 772l149 145h141l93 -145h-120l-54 72l-89 -72h-120z" />
    <glyph glyph-name="Otilde" unicode="&#xd5;" horiz-adv-x="780" 
d="M490 732q69 0 122.5 -22.5t90 -62t55.5 -94.5t19 -120q0 -87 -25 -168.5t-74.5 -144.5t-124 -100.5t-172.5 -37.5q-69 0 -123 22t-91 62t-56.5 95t-19.5 121q0 86 26 167t76.5 144t125 101t171.5 38zM478 604q-60 0 -104 -28t-72.5 -73t-42.5 -101.5t-14 -112.5
q0 -83 36.5 -131t109.5 -48q60 0 103.5 28t72 73t42.5 101.5t14 113.5q0 81 -36 129.5t-109 48.5zM567 871q21 0 32.5 7.5t14.5 32.5h99q-6 -77 -39 -109t-88 -32q-20 0 -37 7t-32 15.5t-28 15.5t-25 7q-21 0 -33.5 -8.5t-15.5 -33.5h-99q6 77 39.5 109.5t88.5 32.5
q19 0 36.5 -7t32.5 -15t28.5 -15t25.5 -7z" />
    <glyph glyph-name="Odieresis" unicode="&#xd6;" horiz-adv-x="780" 
d="M490 732q69 0 122.5 -22.5t90 -62t55.5 -94.5t19 -120q0 -87 -25 -168.5t-74.5 -144.5t-124 -100.5t-172.5 -37.5q-69 0 -123 22t-91 62t-56.5 95t-19.5 121q0 86 26 167t76.5 144t125 101t171.5 38zM478 604q-60 0 -104 -28t-72.5 -73t-42.5 -101.5t-14 -112.5
q0 -83 36.5 -131t109.5 -48q60 0 103.5 28t72 73t42.5 101.5t14 113.5q0 81 -36 129.5t-109 48.5zM331 782l27 129h134l-27 -129h-134zM539 782l27 129h134l-27 -129h-134z" />
    <glyph glyph-name="multiply" unicode="&#xd7;" 
d="M541 193l-99 -79l-114 142l-165 -138l-72 85l166 140l-117 145l99 79l114 -142l165 138l72 -85l-166 -140z" />
    <glyph glyph-name="Oslash" unicode="&#xd8;" horiz-adv-x="780" 
d="M717 630q60 -80 60 -197q0 -87 -25 -168.5t-74.5 -144.5t-124 -100.5t-172.5 -37.5q-55 0 -100 13.5t-80 39.5l-68 -79l-60 51l73 84q-55 78 -55 191q0 86 26 167t76.5 144t125 101t171.5 38q51 0 93.5 -12.5t76.5 -35.5l65 75l60 -51zM623 426q0 46 -12 82l-316 -365
q38 -33 96 -33q60 0 103.5 28t72 73t42.5 101.5t14 113.5zM478 604q-60 0 -104 -28t-72.5 -73t-42.5 -101.5t-14 -112.5q0 -20 1.5 -38.5t6.5 -35.5l313 361q-34 28 -88 28z" />
    <glyph glyph-name="Ugrave" unicode="&#xd9;" horiz-adv-x="693" 
d="M337 -18q-57 0 -105 14t-82 41.5t-53 70t-19 99.5q0 41 10 85l89 422h149l-90 -425q-9 -39 -9 -68q0 -59 31 -85t89 -26q37 0 63.5 11t46 33.5t33 56t23.5 78.5l90 425h149l-90 -425q-17 -81 -43.5 -139t-65.5 -95.5t-92.5 -55t-123.5 -17.5zM435 772l-128 145h156
l98 -145h-126z" />
    <glyph glyph-name="Uacute" unicode="&#xda;" horiz-adv-x="693" 
d="M337 -18q-57 0 -105 14t-82 41.5t-53 70t-19 99.5q0 41 10 85l89 422h149l-90 -425q-9 -39 -9 -68q0 -59 31 -85t89 -26q37 0 63.5 11t46 33.5t33 56t23.5 78.5l90 425h149l-90 -425q-17 -81 -43.5 -139t-65.5 -95.5t-92.5 -55t-123.5 -17.5zM380 772l157 145h169
l-190 -145h-136z" />
    <glyph glyph-name="Ucircumflex" unicode="&#xdb;" horiz-adv-x="693" 
d="M337 -18q-57 0 -105 14t-82 41.5t-53 70t-19 99.5q0 41 10 85l89 422h149l-90 -425q-9 -39 -9 -68q0 -59 31 -85t89 -26q37 0 63.5 11t46 33.5t33 56t23.5 78.5l90 425h149l-90 -425q-17 -81 -43.5 -139t-65.5 -95.5t-92.5 -55t-123.5 -17.5zM285 772l149 145h141
l93 -145h-120l-54 72l-89 -72h-120z" />
    <glyph glyph-name="Udieresis" unicode="&#xdc;" horiz-adv-x="693" 
d="M337 -18q-57 0 -105 14t-82 41.5t-53 70t-19 99.5q0 41 10 85l89 422h149l-90 -425q-9 -39 -9 -68q0 -59 31 -85t89 -26q37 0 63.5 11t46 33.5t33 56t23.5 78.5l90 425h149l-90 -425q-17 -81 -43.5 -139t-65.5 -95.5t-92.5 -55t-123.5 -17.5zM303 782l27 129h134
l-27 -129h-134zM511 782l27 129h134l-27 -129h-134z" />
    <glyph glyph-name="Yacute" unicode="&#xdd;" horiz-adv-x="657" 
d="M131 714h160l95 -289l218 289h164l-331 -423l-61 -291h-149l61 291zM362 772l157 145h169l-190 -145h-136z" />
    <glyph glyph-name="Thorn" unicode="&#xde;" horiz-adv-x="640" 
d="M655 394q0 -68 -22 -117.5t-64 -81.5t-101.5 -47.5t-134.5 -15.5h-115l-28 -132h-147l151 714h147l-26 -123h99q66 0 111.5 -18.5t74.5 -47t42 -63.5t13 -68zM346 256q34 0 63 5.5t50 20t33 39t12 62.5q0 35 -25.5 60t-88.5 25h-101l-45 -212h102z" />
    <glyph glyph-name="germandbls" unicode="&#xdf;" horiz-adv-x="604" 
d="M343 -9q-67 0 -116 20l34 101q14 -4 32.5 -8t48.5 -4q52 0 79.5 32t27.5 95q0 42 -28 68t-88 26h-33l22 107h35q20 0 39.5 5t34.5 18t24 34.5t9 54.5q0 35 -20 55.5t-57 20.5q-49 0 -76 -27.5t-41 -91.5l-105 -497h-133l108 511q22 104 84 157.5t166 53.5q53 0 92 -12.5
t65 -35t39 -53.5t13 -68q0 -63 -31 -106t-87 -60q27 -12 47 -29.5t32.5 -38.5t18.5 -44.5t6 -46.5q0 -49 -13 -92t-41.5 -75.5t-74.5 -51t-113 -18.5z" />
    <glyph glyph-name="agrave" unicode="&#xe0;" horiz-adv-x="561" 
d="M184 -13q-69 0 -110.5 36.5t-40.5 108.5q0 57 25.5 93t66 56t91.5 28.5t103 10.5l89 4l4 19q3 15 3 27q0 32 -20 48t-57 16q-44 0 -69.5 -13.5t-39.5 -49.5l-125 12q25 85 86.5 120t162.5 35q93 0 143.5 -41t51.5 -119q0 -31 -7 -62l-67 -316h-132l14 66q-19 -19 -37 -34
t-38 -25t-43.5 -15t-53.5 -5zM388 234l-68 -4q-43 -3 -71 -9.5t-44.5 -17.5t-23.5 -25.5t-7 -33.5q0 -23 15.5 -37.5t43.5 -14.5q27 0 49 6.5t42 20.5q45 29 58 87zM346 594l-116 155h153l88 -155h-125z" />
    <glyph glyph-name="aacute" unicode="&#xe1;" horiz-adv-x="561" 
d="M184 -13q-69 0 -110.5 36.5t-40.5 108.5q0 57 25.5 93t66 56t91.5 28.5t103 10.5l89 4l4 19q3 15 3 27q0 32 -20 48t-57 16q-44 0 -69.5 -13.5t-39.5 -49.5l-125 12q25 85 86.5 120t162.5 35q93 0 143.5 -41t51.5 -119q0 -31 -7 -62l-67 -316h-132l14 66q-19 -19 -37 -34
t-38 -25t-43.5 -15t-53.5 -5zM388 234l-68 -4q-43 -3 -71 -9.5t-44.5 -17.5t-23.5 -25.5t-7 -33.5q0 -23 15.5 -37.5t43.5 -14.5q27 0 49 6.5t42 20.5q45 29 58 87zM272 594l152 155h165l-181 -155h-136z" />
    <glyph glyph-name="acircumflex" unicode="&#xe2;" horiz-adv-x="561" 
d="M184 -13q-69 0 -110.5 36.5t-40.5 108.5q0 57 25.5 93t66 56t91.5 28.5t103 10.5l89 4l4 19q3 15 3 27q0 32 -20 48t-57 16q-44 0 -69.5 -13.5t-39.5 -49.5l-125 12q25 85 86.5 120t162.5 35q93 0 143.5 -41t51.5 -119q0 -31 -7 -62l-67 -316h-132l14 66q-19 -19 -37 -34
t-38 -25t-43.5 -15t-53.5 -5zM388 234l-68 -4q-43 -3 -71 -9.5t-44.5 -17.5t-23.5 -25.5t-7 -33.5q0 -23 15.5 -37.5t43.5 -14.5q27 0 49 6.5t42 20.5q45 29 58 87zM178 594l149 155h141l91 -155h-120l-52 83l-89 -83h-120z" />
    <glyph glyph-name="atilde" unicode="&#xe3;" horiz-adv-x="561" 
d="M184 -13q-69 0 -110.5 36.5t-40.5 108.5q0 57 25.5 93t66 56t91.5 28.5t103 10.5l89 4l4 19q3 15 3 27q0 32 -20 48t-57 16q-44 0 -69.5 -13.5t-39.5 -49.5l-125 12q25 85 86.5 120t162.5 35q93 0 143.5 -41t51.5 -119q0 -31 -7 -62l-67 -316h-132l14 66q-19 -19 -37 -34
t-38 -25t-43.5 -15t-53.5 -5zM388 234l-68 -4q-43 -3 -71 -9.5t-44.5 -17.5t-23.5 -25.5t-7 -33.5q0 -23 15.5 -37.5t43.5 -14.5q27 0 49 6.5t42 20.5q45 29 58 87zM423 700q21 0 33 7.5t15 32.5h94q-6 -77 -38 -109t-87 -32q-20 0 -37 7t-31.5 15.5t-27.5 15.5t-25 7
q-21 0 -33.5 -8.5t-15.5 -33.5h-94q6 77 38 109.5t87 32.5q19 0 36 -7t32 -15t28.5 -15t25.5 -7z" />
    <glyph glyph-name="adieresis" unicode="&#xe4;" horiz-adv-x="561" 
d="M184 -13q-69 0 -110.5 36.5t-40.5 108.5q0 57 25.5 93t66 56t91.5 28.5t103 10.5l89 4l4 19q3 15 3 27q0 32 -20 48t-57 16q-44 0 -69.5 -13.5t-39.5 -49.5l-125 12q25 85 86.5 120t162.5 35q93 0 143.5 -41t51.5 -119q0 -31 -7 -62l-67 -316h-132l14 66q-19 -19 -37 -34
t-38 -25t-43.5 -15t-53.5 -5zM388 234l-68 -4q-43 -3 -71 -9.5t-44.5 -17.5t-23.5 -25.5t-7 -33.5q0 -23 15.5 -37.5t43.5 -14.5q27 0 49 6.5t42 20.5q45 29 58 87zM203 608l26 125h130l-26 -125h-130zM405 608l26 125h130l-26 -125h-130z" />
    <glyph glyph-name="aring" unicode="&#xe5;" horiz-adv-x="561" 
d="M184 -13q-69 0 -110.5 36.5t-40.5 108.5q0 57 25.5 93t66 56t91.5 28.5t103 10.5l89 4l4 19q3 15 3 27q0 32 -20 48t-57 16q-44 0 -69.5 -13.5t-39.5 -49.5l-125 12q25 85 86.5 120t162.5 35q93 0 143.5 -41t51.5 -119q0 -31 -7 -62l-67 -316h-132l14 66q-19 -19 -37 -34
t-38 -25t-43.5 -15t-53.5 -5zM388 234l-68 -4q-43 -3 -71 -9.5t-44.5 -17.5t-23.5 -25.5t-7 -33.5q0 -23 15.5 -37.5t43.5 -14.5q27 0 49 6.5t42 20.5q45 29 58 87zM256 701q0 28 9.5 49.5t25 35.5t36.5 21t44 7t44 -7t37 -21t25.5 -35.5t9.5 -49.5q0 -29 -9.5 -50
t-25.5 -34.5t-37 -20.5t-44 -7t-44 7t-36.5 20.5t-25 34.5t-9.5 50zM328 701q0 -23 11.5 -34.5t31.5 -11.5t32 11.5t12 34.5q0 24 -12 35t-32 11t-31.5 -11t-11.5 -35z" />
    <glyph glyph-name="ae" unicode="&#xe6;" horiz-adv-x="897" 
d="M855 163q-21 -91 -84 -135t-167 -44q-69 0 -111 27.5t-68 78.5q-18 -21 -37.5 -39.5t-45 -33t-59 -22.5t-79.5 -8q-84 0 -128 36.5t-43 108.5q0 57 25 93t65 56t90.5 28.5t102.5 10.5l86 4l4 19q3 13 3 25q0 29 -18 47.5t-57 18.5q-42 0 -67 -13.5t-39 -49.5l-125 12
q25 85 84.5 120t151.5 35q65 0 100.5 -20.5t55.5 -60.5q35 42 78 61.5t100 19.5q48 0 86.5 -15t65 -41t40.5 -63t14 -80q0 -19 -1.5 -40t-6.5 -45l-6 -27h-347v-17q0 -54 27 -85.5t71 -31.5q40 0 66 15t37 55h136zM382 234l-65 -4q-43 -3 -70.5 -9.5t-43.5 -17.5
t-22.5 -25.5t-6.5 -33.5q0 -23 16 -37.5t46 -14.5q27 0 48 7t41 21q22 16 33 36.5t18 49.5zM659 433q-19 0 -38.5 -5t-36.5 -18t-31.5 -35t-23.5 -56h213q10 54 -14.5 84t-68.5 30z" />
    <glyph glyph-name="ccedilla" unicode="&#xe7;" horiz-adv-x="569" 
d="M244 -12q-84 13 -130.5 71.5t-46.5 146.5q0 81 23 143t63 104t94 63.5t117 21.5q50 0 87.5 -14t62.5 -38.5t39 -59t17 -76.5l-141 -18q-4 46 -21.5 70t-61.5 24q-27 0 -51.5 -14t-43 -41.5t-29 -69t-10.5 -96.5q0 -48 23 -78.5t71 -30.5q88 0 106 93h142
q-17 -96 -73 -146.5t-161 -57.5l-16 -34q46 -7 63.5 -28.5t17.5 -45.5q0 -54 -41 -74t-108 -20q-14 0 -31 1.5t-38 5.5l10 68q23 -4 38.5 -5t28.5 -1q26 0 36.5 7.5t10.5 22.5q0 12 -11.5 19t-40.5 7h-34z" />
    <glyph glyph-name="egrave" unicode="&#xe8;" horiz-adv-x="589" 
d="M349 433q-20 0 -40 -5t-37 -18t-31 -35t-23 -56h216q11 54 -13.5 84t-71.5 30zM207 227q-5 -66 22.5 -100t78.5 -34q42 0 67 15t36 55h136q-21 -88 -82 -133.5t-172 -45.5q-52 0 -94 16t-71 45t-45 70t-16 91q0 79 22 141t61 104.5t93 64.5t119 22q49 0 88 -15t66 -41
t41 -63t14 -80q0 -19 -2 -43t-8 -51l-4 -18h-350zM354 594l-116 155h153l88 -155h-125z" />
    <glyph glyph-name="eacute" unicode="&#xe9;" horiz-adv-x="589" 
d="M349 433q-20 0 -40 -5t-37 -18t-31 -35t-23 -56h216q11 54 -13.5 84t-71.5 30zM207 227q-5 -66 22.5 -100t78.5 -34q42 0 67 15t36 55h136q-21 -88 -82 -133.5t-172 -45.5q-52 0 -94 16t-71 45t-45 70t-16 91q0 79 22 141t61 104.5t93 64.5t119 22q49 0 88 -15t66 -41
t41 -63t14 -80q0 -19 -2 -43t-8 -51l-4 -18h-350zM275 594l152 155h165l-181 -155h-136z" />
    <glyph glyph-name="ecircumflex" unicode="&#xea;" horiz-adv-x="589" 
d="M349 433q-20 0 -40 -5t-37 -18t-31 -35t-23 -56h216q11 54 -13.5 84t-71.5 30zM207 227q-5 -66 22.5 -100t78.5 -34q42 0 67 15t36 55h136q-21 -88 -82 -133.5t-172 -45.5q-52 0 -94 16t-71 45t-45 70t-16 91q0 79 22 141t61 104.5t93 64.5t119 22q49 0 88 -15t66 -41
t41 -63t14 -80q0 -19 -2 -43t-8 -51l-4 -18h-350zM184 594l149 155h141l91 -155h-120l-52 83l-89 -83h-120z" />
    <glyph glyph-name="edieresis" unicode="&#xeb;" horiz-adv-x="589" 
d="M349 433q-20 0 -40 -5t-37 -18t-31 -35t-23 -56h216q11 54 -13.5 84t-71.5 30zM207 227q-5 -66 22.5 -100t78.5 -34q42 0 67 15t36 55h136q-21 -88 -82 -133.5t-172 -45.5q-52 0 -94 16t-71 45t-45 70t-16 91q0 79 22 141t61 104.5t93 64.5t119 22q49 0 88 -15t66 -41
t41 -63t14 -80q0 -19 -2 -43t-8 -51l-4 -18h-350zM209 608l26 125h130l-26 -125h-130zM411 608l26 125h130l-26 -125h-130z" />
    <glyph glyph-name="igrave" unicode="&#xec;" horiz-adv-x="266" 
d="M183 594l-116 155h153l88 -155h-125zM33 0l111 522h140l-111 -522h-140z" />
    <glyph glyph-name="iacute" unicode="&#xed;" horiz-adv-x="266" 
d="M137 594l152 155h165l-181 -155h-136zM33 0l111 522h140l-111 -522h-140z" />
    <glyph glyph-name="icircumflex" unicode="&#xee;" horiz-adv-x="266" 
d="M33 0l111 522h140l-111 -522h-140zM38 594l149 155h141l91 -155h-120l-52 83l-89 -83h-120z" />
    <glyph glyph-name="idieresis" unicode="&#xef;" horiz-adv-x="266" 
d="M55 608l26 125h130l-26 -125h-130zM257 608l26 125h130l-26 -125h-130zM33 0l111 522h140l-111 -522h-140z" />
    <glyph glyph-name="eth" unicode="&#xf0;" horiz-adv-x="616" 
d="M278 577l48 42q-22 7 -44 10.5t-42 5.5l37 103q40 -5 75 -15t67 -24l71 62l51 -57l-55 -47q58 -47 88.5 -116.5t30.5 -160.5q0 -203 -80 -299.5t-230 -96.5q-60 0 -104.5 18.5t-74 49t-43.5 69.5t-14 80q0 73 22.5 127.5t59 91t83.5 54.5t96 18q54 0 93.5 -19t60.5 -52
q0 59 -21 98t-53 63l-71 -61zM307 96q35 0 61.5 13t44 36.5t26.5 55.5t9 70q0 24 -7.5 46t-24.5 37q-29 26 -80 26q-66 0 -99.5 -47t-33.5 -119q0 -25 6 -46.5t18.5 -37.5t32 -25t47.5 -9z" />
    <glyph glyph-name="ntilde" unicode="&#xf1;" 
d="M365 0l66 312q5 25 5 41q0 35 -16.5 51.5t-45.5 16.5q-27 0 -47 -7.5t-40 -23.5q-18 -14 -31 -33.5t-18 -42.5l-66 -314h-140l110 522h136l-15 -72q38 47 79.5 67.5t87.5 20.5q73 0 112 -39.5t39 -110.5q0 -32 -7 -64l-69 -324h-140zM444 700q21 0 33 7.5t15 32.5h94
q-6 -77 -38 -109t-87 -32q-20 0 -37 7t-31.5 15.5t-27.5 15.5t-25 7q-21 0 -33.5 -8.5t-15.5 -33.5h-94q6 77 38 109.5t87 32.5q19 0 36 -7t32 -15t28.5 -15t25.5 -7z" />
    <glyph glyph-name="ograve" unicode="&#xf2;" horiz-adv-x="616" 
d="M374 538q53 0 95.5 -17.5t72 -47.5t45.5 -70t16 -86q0 -80 -22.5 -142t-63 -104.5t-97 -64.5t-123.5 -22q-53 0 -95.5 17.5t-72.5 47.5t-46 70t-16 86q0 78 23 140t64.5 104.5t97.5 65.5t122 23zM364 426q-31 0 -58.5 -14t-48.5 -42t-33 -69t-12 -95q0 -52 24.5 -81
t69.5 -29q31 0 58.5 14t48.5 41.5t33 68.5t12 95q0 52 -24.5 81.5t-69.5 29.5zM371 594l-116 155h153l88 -155h-125z" />
    <glyph glyph-name="oacute" unicode="&#xf3;" horiz-adv-x="616" 
d="M374 538q53 0 95.5 -17.5t72 -47.5t45.5 -70t16 -86q0 -80 -22.5 -142t-63 -104.5t-97 -64.5t-123.5 -22q-53 0 -95.5 17.5t-72.5 47.5t-46 70t-16 86q0 78 23 140t64.5 104.5t97.5 65.5t122 23zM364 426q-31 0 -58.5 -14t-48.5 -42t-33 -69t-12 -95q0 -52 24.5 -81
t69.5 -29q31 0 58.5 14t48.5 41.5t33 68.5t12 95q0 52 -24.5 81.5t-69.5 29.5zM279 594l152 155h165l-181 -155h-136z" />
    <glyph glyph-name="ocircumflex" unicode="&#xf4;" horiz-adv-x="616" 
d="M374 538q53 0 95.5 -17.5t72 -47.5t45.5 -70t16 -86q0 -80 -22.5 -142t-63 -104.5t-97 -64.5t-123.5 -22q-53 0 -95.5 17.5t-72.5 47.5t-46 70t-16 86q0 78 23 140t64.5 104.5t97.5 65.5t122 23zM364 426q-31 0 -58.5 -14t-48.5 -42t-33 -69t-12 -95q0 -52 24.5 -81
t69.5 -29q31 0 58.5 14t48.5 41.5t33 68.5t12 95q0 52 -24.5 81.5t-69.5 29.5zM198 594l149 155h141l91 -155h-120l-52 83l-89 -83h-120z" />
    <glyph glyph-name="otilde" unicode="&#xf5;" horiz-adv-x="616" 
d="M374 538q53 0 95.5 -17.5t72 -47.5t45.5 -70t16 -86q0 -80 -22.5 -142t-63 -104.5t-97 -64.5t-123.5 -22q-53 0 -95.5 17.5t-72.5 47.5t-46 70t-16 86q0 78 23 140t64.5 104.5t97.5 65.5t122 23zM364 426q-31 0 -58.5 -14t-48.5 -42t-33 -69t-12 -95q0 -52 24.5 -81
t69.5 -29q31 0 58.5 14t48.5 41.5t33 68.5t12 95q0 52 -24.5 81.5t-69.5 29.5zM441 700q21 0 33 7.5t15 32.5h94q-6 -77 -38 -109t-87 -32q-20 0 -37 7t-31.5 15.5t-27.5 15.5t-25 7q-21 0 -33.5 -8.5t-15.5 -33.5h-94q6 77 38 109.5t87 32.5q19 0 36 -7t32 -15t28.5 -15
t25.5 -7z" />
    <glyph glyph-name="odieresis" unicode="&#xf6;" horiz-adv-x="616" 
d="M374 538q53 0 95.5 -17.5t72 -47.5t45.5 -70t16 -86q0 -80 -22.5 -142t-63 -104.5t-97 -64.5t-123.5 -22q-53 0 -95.5 17.5t-72.5 47.5t-46 70t-16 86q0 78 23 140t64.5 104.5t97.5 65.5t122 23zM364 426q-31 0 -58.5 -14t-48.5 -42t-33 -69t-12 -95q0 -52 24.5 -81
t69.5 -29q31 0 58.5 14t48.5 41.5t33 68.5t12 95q0 52 -24.5 81.5t-69.5 29.5zM220 608l26 125h130l-26 -125h-130zM422 608l26 125h130l-26 -125h-130z" />
    <glyph glyph-name="divide" unicode="&#xf7;" 
d="M298 456l29 135h126l-29 -135h-126zM219 83l29 135h126l-29 -135h-126zM106 280l26 121h438l-26 -121h-438z" />
    <glyph glyph-name="oslash" unicode="&#xf8;" horiz-adv-x="616" 
d="M555 458q48 -59 48 -141q0 -80 -22.5 -142t-63 -104.5t-97 -64.5t-123.5 -22q-38 0 -71.5 9t-59.5 26l-64 -72l-56 50l64 72q-43 58 -43 136t23 140t64.5 104.5t97.5 65.5t122 23q37 0 68 -8.5t57 -23.5l55 61l55 -49zM458 315q0 15 -3 30l-206 -232q21 -17 57 -17
q31 0 58.5 14t48.5 41.5t33 68.5t12 95zM364 426q-31 0 -58.5 -14t-48.5 -42t-33 -69t-12 -95v-11.5t1 -10.5l202 227q-23 15 -51 15z" />
    <glyph glyph-name="ugrave" unicode="&#xf9;" horiz-adv-x="587" 
d="M277 522l-67 -316q-2 -11 -3.5 -21t-1.5 -19q0 -33 15.5 -49t44.5 -16q27 0 45.5 7.5t38.5 23.5q17 13 31.5 34t19.5 47l65 309h140l-110 -522h-136l15 72q-38 -47 -78.5 -67.5t-86.5 -20.5q-73 0 -111 39t-38 109q0 28 8 66l69 324h140zM354 594l-116 155h153l88 -155
h-125z" />
    <glyph glyph-name="uacute" unicode="&#xfa;" horiz-adv-x="587" 
d="M277 522l-67 -316q-2 -11 -3.5 -21t-1.5 -19q0 -33 15.5 -49t44.5 -16q27 0 45.5 7.5t38.5 23.5q17 13 31.5 34t19.5 47l65 309h140l-110 -522h-136l15 72q-38 -47 -78.5 -67.5t-86.5 -20.5q-73 0 -111 39t-38 109q0 28 8 66l69 324h140zM279 594l152 155h165l-181 -155
h-136z" />
    <glyph glyph-name="ucircumflex" unicode="&#xfb;" horiz-adv-x="587" 
d="M277 522l-67 -316q-2 -11 -3.5 -21t-1.5 -19q0 -33 15.5 -49t44.5 -16q27 0 45.5 7.5t38.5 23.5q17 13 31.5 34t19.5 47l65 309h140l-110 -522h-136l15 72q-38 -47 -78.5 -67.5t-86.5 -20.5q-73 0 -111 39t-38 109q0 28 8 66l69 324h140zM198 594l149 155h141l91 -155
h-120l-52 83l-89 -83h-120z" />
    <glyph glyph-name="udieresis" unicode="&#xfc;" horiz-adv-x="587" 
d="M277 522l-67 -316q-2 -11 -3.5 -21t-1.5 -19q0 -33 15.5 -49t44.5 -16q27 0 45.5 7.5t38.5 23.5q17 13 31.5 34t19.5 47l65 309h140l-110 -522h-136l15 72q-38 -47 -78.5 -67.5t-86.5 -20.5q-73 0 -111 39t-38 109q0 28 8 66l69 324h140zM215 608l26 125h130l-26 -125
h-130zM417 608l26 125h130l-26 -125h-130z" />
    <glyph glyph-name="yacute" unicode="&#xfd;" horiz-adv-x="567" 
d="M88 522h156l53 -343l183 343h159l-324 -537q-27 -45 -50 -78.5t-48 -56t-55.5 -33.5t-72.5 -11q-26 0 -48 4.5t-45 13.5l36 104q12 -4 26.5 -7t31.5 -3q28 0 46.5 15t37.5 48l27 47zM272 594l152 155h165l-181 -155h-136z" />
    <glyph glyph-name="thorn" unicode="&#xfe;" horiz-adv-x="623" 
d="M268 457q27 36 68 58.5t92 22.5q46 0 80.5 -17.5t57 -48.5t33.5 -72t11 -88q0 -71 -20 -131.5t-54 -104t-80 -68t-100 -24.5q-60 0 -100 20.5t-69 67.5l-57 -266h-139l192 908h140zM223 260q-3 -14 -4 -26.5t-1 -25.5q0 -19 4 -36.5t13 -31.5q12 -20 34.5 -31.5
t54.5 -11.5q34 0 60.5 18t44 48t26.5 69t9 81q0 53 -25 82t-63 29q-53 0 -93 -36q-20 -17 -33.5 -41.5t-18.5 -50.5z" />
    <glyph glyph-name="ydieresis" unicode="&#xff;" horiz-adv-x="567" 
d="M88 522h156l53 -343l183 343h159l-324 -537q-27 -45 -50 -78.5t-48 -56t-55.5 -33.5t-72.5 -11q-26 0 -48 4.5t-45 13.5l36 104q12 -4 26.5 -7t31.5 -3q28 0 46.5 15t37.5 48l27 47zM204 608l26 125h130l-26 -125h-130zM406 608l26 125h130l-26 -125h-130z" />
    <glyph glyph-name="Amacron" unicode="&#x100;" horiz-adv-x="698" 
d="M541 714l117 -714h-154l-22 165h-250l-92 -165h-160l419 714h142zM295 288h173l-33 256zM349 901h310l-24 -111h-310z" />
    <glyph glyph-name="amacron" unicode="&#x101;" horiz-adv-x="561" 
d="M184 -13q-69 0 -110.5 36.5t-40.5 108.5q0 57 25.5 93t66 56t91.5 28.5t103 10.5l89 4l4 19q3 15 3 27q0 32 -20 48t-57 16q-44 0 -69.5 -13.5t-39.5 -49.5l-125 12q25 85 86.5 120t162.5 35q93 0 143.5 -41t51.5 -119q0 -31 -7 -62l-67 -316h-132l14 66q-19 -19 -37 -34
t-38 -25t-43.5 -15t-53.5 -5zM388 234l-68 -4q-43 -3 -71 -9.5t-44.5 -17.5t-23.5 -25.5t-7 -33.5q0 -23 15.5 -37.5t43.5 -14.5q27 0 49 6.5t42 20.5q45 29 58 87zM236 719h292l-22 -107h-292z" />
    <glyph glyph-name="Abreve" unicode="&#x102;" horiz-adv-x="698" 
d="M541 714l117 -714h-154l-22 165h-250l-92 -165h-160l419 714h142zM295 288h173l-33 256zM473 772q-64 0 -102 30.5t-38 83.5q0 21 4 41h102q-1 -5 -1.5 -11.5t-0.5 -11.5q0 -20 11.5 -33t34.5 -13q29 0 45.5 15.5t22.5 53.5h102q-12 -79 -54.5 -117t-125.5 -38z" />
    <glyph glyph-name="abreve" unicode="&#x103;" horiz-adv-x="561" 
d="M184 -13q-69 0 -110.5 36.5t-40.5 108.5q0 57 25.5 93t66 56t91.5 28.5t103 10.5l89 4l4 19q3 15 3 27q0 32 -20 48t-57 16q-44 0 -69.5 -13.5t-39.5 -49.5l-125 12q25 85 86.5 120t162.5 35q93 0 143.5 -41t51.5 -119q0 -31 -7 -62l-67 -316h-132l14 66q-19 -19 -37 -34
t-38 -25t-43.5 -15t-53.5 -5zM388 234l-68 -4q-43 -3 -71 -9.5t-44.5 -17.5t-23.5 -25.5t-7 -33.5q0 -23 15.5 -37.5t43.5 -14.5q27 0 49 6.5t42 20.5q45 29 58 87zM369 591q-64 0 -101 31.5t-37 82.5q0 21 4 41h98q-2 -7 -2 -12.5v-10.5q0 -23 13.5 -34t34.5 -11
q26 0 43.5 14t23.5 54h100q-12 -81 -57.5 -118t-119.5 -37z" />
    <glyph glyph-name="Aogonek" unicode="&#x104;" horiz-adv-x="698" 
d="M613 -198q-23 -3 -50 -3q-20 0 -41 3.5t-38 12.5t-28 24t-11 38q0 40 24 68.5t73 54.5h-38l-22 165h-250l-92 -165h-160l419 714h142l117 -714q-18 -9 -35.5 -19.5t-30.5 -22t-21 -23t-8 -23.5q0 -16 11.5 -21t26.5 -5q8 0 14.5 0.5t15.5 1.5zM295 288h173l-33 256z" />
    <glyph glyph-name="aogonek" unicode="&#x105;" horiz-adv-x="561" 
d="M430 -192q-21 -3 -48 -3q-20 0 -39.5 3t-36 11t-26.5 22.5t-10 37.5q0 38 24 67t71 54h-23l14 66q-19 -19 -37 -34t-38 -25t-43.5 -15t-53.5 -5q-69 0 -110.5 36.5t-40.5 108.5q0 57 25.5 93t66 56t91.5 28.5t103 10.5l89 4l4 19q3 15 3 27q0 32 -20 48t-57 16
q-44 0 -69.5 -13.5t-39.5 -49.5l-125 12q25 85 86.5 120t162.5 35q93 0 143.5 -41t51.5 -119q0 -31 -7 -62l-67 -316q-38 -20 -65.5 -40t-27.5 -45q0 -16 12 -20.5t27 -4.5h13.5t14.5 1zM388 234l-68 -4q-43 -3 -71 -9.5t-44.5 -17.5t-23.5 -25.5t-7 -33.5q0 -23 15.5 -37.5
t43.5 -14.5q27 0 49 6.5t42 20.5q45 29 58 87z" />
    <glyph glyph-name="Cacute" unicode="&#x106;" horiz-adv-x="713" 
d="M592 465q-4 33 -12 59t-24 43.5t-40 27t-59 9.5q-50 0 -89 -24t-66 -64t-41.5 -92.5t-14.5 -109.5q0 -42 7 -79t24.5 -64.5t45.5 -44t70 -16.5q73 0 110 35t49 102h160q-12 -61 -35.5 -110t-62 -83.5t-95.5 -53t-136 -18.5q-78 0 -133.5 25.5t-91.5 69.5t-52.5 102.5
t-16.5 124.5q0 84 26 161.5t74.5 137t117.5 94.5t155 35q70 0 121 -18t84.5 -50.5t51 -78t21.5 -100.5zM380 772l157 145h169l-190 -145h-136z" />
    <glyph glyph-name="cacute" unicode="&#x107;" horiz-adv-x="569" 
d="M429 332q-4 46 -21.5 70t-61.5 24q-27 0 -51.5 -14t-43 -41.5t-29 -69t-10.5 -96.5q0 -48 23 -78.5t71 -30.5q88 0 106 93h142q-18 -102 -81 -153.5t-182 -51.5q-52 0 -93.5 16.5t-70.5 45.5t-44.5 70t-15.5 90q0 81 23 143t63 104t94 63.5t117 21.5q50 0 87.5 -14
t62.5 -38.5t39 -59t17 -76.5zM269 594l152 155h165l-181 -155h-136z" />
    <glyph glyph-name="Ccircumflex" unicode="&#x108;" horiz-adv-x="713" 
d="M592 465q-4 33 -12 59t-24 43.5t-40 27t-59 9.5q-50 0 -89 -24t-66 -64t-41.5 -92.5t-14.5 -109.5q0 -42 7 -79t24.5 -64.5t45.5 -44t70 -16.5q73 0 110 35t49 102h160q-12 -61 -35.5 -110t-62 -83.5t-95.5 -53t-136 -18.5q-78 0 -133.5 25.5t-91.5 69.5t-52.5 102.5
t-16.5 124.5q0 84 26 161.5t74.5 137t117.5 94.5t155 35q70 0 121 -18t84.5 -50.5t51 -78t21.5 -100.5zM294 772l149 145h141l93 -145h-120l-54 72l-89 -72h-120z" />
    <glyph glyph-name="ccircumflex" unicode="&#x109;" horiz-adv-x="569" 
d="M429 332q-4 46 -21.5 70t-61.5 24q-27 0 -51.5 -14t-43 -41.5t-29 -69t-10.5 -96.5q0 -48 23 -78.5t71 -30.5q88 0 106 93h142q-18 -102 -81 -153.5t-182 -51.5q-52 0 -93.5 16.5t-70.5 45.5t-44.5 70t-15.5 90q0 81 23 143t63 104t94 63.5t117 21.5q50 0 87.5 -14
t62.5 -38.5t39 -59t17 -76.5zM185 594l149 155h141l91 -155h-120l-52 83l-89 -83h-120z" />
    <glyph glyph-name="Cdotaccent" unicode="&#x10a;" horiz-adv-x="713" 
d="M592 465q-4 33 -12 59t-24 43.5t-40 27t-59 9.5q-50 0 -89 -24t-66 -64t-41.5 -92.5t-14.5 -109.5q0 -42 7 -79t24.5 -64.5t45.5 -44t70 -16.5q73 0 110 35t49 102h160q-12 -61 -35.5 -110t-62 -83.5t-95.5 -53t-136 -18.5q-78 0 -133.5 25.5t-91.5 69.5t-52.5 102.5
t-16.5 124.5q0 84 26 161.5t74.5 137t117.5 94.5t155 35q70 0 121 -18t84.5 -50.5t51 -78t21.5 -100.5zM405 779l29 135h140l-29 -135h-140z" />
    <glyph glyph-name="cdotaccent" unicode="&#x10b;" horiz-adv-x="569" 
d="M429 332q-4 46 -21.5 70t-61.5 24q-27 0 -51.5 -14t-43 -41.5t-29 -69t-10.5 -96.5q0 -48 23 -78.5t71 -30.5q88 0 106 93h142q-18 -102 -81 -153.5t-182 -51.5q-52 0 -93.5 16.5t-70.5 45.5t-44.5 70t-15.5 90q0 81 23 143t63 104t94 63.5t117 21.5q50 0 87.5 -14
t62.5 -38.5t39 -59t17 -76.5zM304 607l27 127h132l-27 -127h-132z" />
    <glyph glyph-name="Ccaron" unicode="&#x10c;" horiz-adv-x="713" 
d="M592 465q-4 33 -12 59t-24 43.5t-40 27t-59 9.5q-50 0 -89 -24t-66 -64t-41.5 -92.5t-14.5 -109.5q0 -42 7 -79t24.5 -64.5t45.5 -44t70 -16.5q73 0 110 35t49 102h160q-12 -61 -35.5 -110t-62 -83.5t-95.5 -53t-136 -18.5q-78 0 -133.5 25.5t-91.5 69.5t-52.5 102.5
t-16.5 124.5q0 84 26 161.5t74.5 137t117.5 94.5t155 35q70 0 121 -18t84.5 -50.5t51 -78t21.5 -100.5zM705 921l-149 -145h-141l-93 145h120l54 -72l89 72h120z" />
    <glyph glyph-name="ccaron" unicode="&#x10d;" horiz-adv-x="569" 
d="M429 332q-4 46 -21.5 70t-61.5 24q-27 0 -51.5 -14t-43 -41.5t-29 -69t-10.5 -96.5q0 -48 23 -78.5t71 -30.5q88 0 106 93h142q-18 -102 -81 -153.5t-182 -51.5q-52 0 -93.5 16.5t-70.5 45.5t-44.5 70t-15.5 90q0 81 23 143t63 104t94 63.5t117 21.5q50 0 87.5 -14
t62.5 -38.5t39 -59t17 -76.5zM589 749l-149 -155h-141l-91 155h120l52 -83l89 83h120z" />
    <glyph glyph-name="Dcaron" unicode="&#x10e;" horiz-adv-x="737" 
d="M43 0l151 714h238q72 0 128 -23.5t95 -63.5t59.5 -93.5t20.5 -114.5q0 -97 -28.5 -174.5t-84.5 -132t-139.5 -83.5t-192.5 -29h-247zM309 127q70 0 121 21t84 59.5t49 91t16 115.5q0 36 -9.5 67.5t-29 55t-50 37t-71.5 13.5h-103l-98 -460h91zM644 921l-149 -145h-141
l-93 145h120l54 -72l89 72h120z" />
    <glyph glyph-name="dcaron" unicode="&#x10f;" horiz-adv-x="622" 
d="M319 538q56 0 95.5 -20.5t68.5 -68.5l57 265h140l-152 -714h-136l13 64q-30 -38 -68.5 -59t-86.5 -21q-47 0 -82.5 16.5t-59.5 46.5t-36 71t-12 90q0 71 20.5 131.5t55.5 104.5t82.5 69t100.5 25zM448 267q4 20 4 47q0 17 -4.5 34t-14.5 33q-12 20 -34 32t-54 12
q-35 0 -61 -17.5t-43 -47t-26 -69t-9 -83.5q0 -22 5.5 -42t16.5 -35t29 -24t42 -9q52 0 92 37q19 18 30.5 40t18.5 53zM701 470l80 244h131l-108 -244h-103z" />
    <glyph glyph-name="Dcroat" unicode="&#x110;" horiz-adv-x="755" 
d="M61 0l65 307h-77l26 123h77l60 284h238q72 0 128 -23.5t95 -63.5t59.5 -93.5t20.5 -114.5q0 -97 -28.5 -174.5t-84.5 -132t-139.5 -83.5t-192.5 -29h-247zM327 127q70 0 121 21t84 59.5t49 91t16 115.5q0 36 -9.5 67.5t-29 55t-50 37t-71.5 13.5h-103l-34 -157h153
l-26 -123h-153l-38 -180h91z" />
    <glyph glyph-name="dcroat" unicode="&#x111;" horiz-adv-x="628" 
d="M319 508q56 0 92.5 -19t65.5 -67l30 138h-156l18 86h156l15 68h140l-15 -68h67l-18 -86h-67l-119 -560h-136l13 64q-30 -38 -68.5 -59t-86.5 -21q-44 0 -79.5 16t-60 44t-37.5 66.5t-13 84.5q0 70 20 128t55.5 99t82.5 63.5t101 22.5zM448 257q3 18 3 35q-1 15 -5 30
t-13 29q-12 20 -34 32t-54 12q-35 0 -61 -15t-43 -41t-26 -62t-9 -79q0 -17 5.5 -35t16.5 -32.5t29 -23.5t42 -9q52 0 92 37q19 18 30.5 35t18.5 48z" />
    <glyph glyph-name="Emacron" unicode="&#x112;" horiz-adv-x="604" 
d="M316 587l-33 -156h318l-27 -128h-318l-38 -176h359l-41 -127h-493l151 714h487l-27 -127h-338zM314 901h310l-24 -111h-310z" />
    <glyph glyph-name="emacron" unicode="&#x113;" horiz-adv-x="589" 
d="M349 433q-20 0 -40 -5t-37 -18t-31 -35t-23 -56h216q11 54 -13.5 84t-71.5 30zM207 227q-5 -66 22.5 -100t78.5 -34q42 0 67 15t36 55h136q-21 -88 -82 -133.5t-172 -45.5q-52 0 -94 16t-71 45t-45 70t-16 91q0 79 22 141t61 104.5t93 64.5t119 22q49 0 88 -15t66 -41
t41 -63t14 -80q0 -19 -2 -43t-8 -51l-4 -18h-350zM247 719h292l-22 -107h-292z" />
    <glyph glyph-name="Ebreve" unicode="&#x114;" horiz-adv-x="604" 
d="M316 587l-33 -156h318l-27 -128h-318l-38 -176h359l-41 -127h-493l151 714h487l-27 -127h-338zM441 772q-64 0 -102 30.5t-38 83.5q0 21 4 41h102q-1 -5 -1.5 -11.5t-0.5 -11.5q0 -20 11.5 -33t34.5 -13q29 0 45.5 15.5t22.5 53.5h102q-12 -79 -54.5 -117t-125.5 -38z
" />
    <glyph glyph-name="ebreve" unicode="&#x115;" horiz-adv-x="589" 
d="M349 433q-20 0 -40 -5t-37 -18t-31 -35t-23 -56h216q11 54 -13.5 84t-71.5 30zM207 227q-5 -66 22.5 -100t78.5 -34q42 0 67 15t36 55h136q-21 -88 -82 -133.5t-172 -45.5q-52 0 -94 16t-71 45t-45 70t-16 91q0 79 22 141t61 104.5t93 64.5t119 22q49 0 88 -15t66 -41
t41 -63t14 -80q0 -19 -2 -43t-8 -51l-4 -18h-350zM374 591q-64 0 -101 31.5t-37 82.5q0 21 4 41h98q-2 -7 -2 -12.5v-10.5q0 -23 13.5 -34t34.5 -11q26 0 43.5 14t23.5 54h100q-12 -81 -57.5 -118t-119.5 -37z" />
    <glyph glyph-name="Edotaccent" unicode="&#x116;" horiz-adv-x="604" 
d="M316 587l-33 -156h318l-27 -128h-318l-38 -176h359l-41 -127h-493l151 714h487l-27 -127h-338zM374 779l29 135h140l-29 -135h-140z" />
    <glyph glyph-name="edotaccent" unicode="&#x117;" horiz-adv-x="589" 
d="M349 433q-20 0 -40 -5t-37 -18t-31 -35t-23 -56h216q11 54 -13.5 84t-71.5 30zM207 227q-5 -66 22.5 -100t78.5 -34q42 0 67 15t36 55h136q-21 -88 -82 -133.5t-172 -45.5q-52 0 -94 16t-71 45t-45 70t-16 91q0 79 22 141t61 104.5t93 64.5t119 22q49 0 88 -15t66 -41
t41 -63t14 -80q0 -19 -2 -43t-8 -51l-4 -18h-350zM301 607l27 127h132l-27 -127h-132z" />
    <glyph glyph-name="Eogonek" unicode="&#x118;" horiz-adv-x="604" 
d="M491 -198q-23 -3 -50 -3q-20 0 -41 3.5t-38 12.5t-28 24t-11 38q0 40 24 68.5t73 54.5h-377l151 714h487l-27 -127h-338l-33 -156h318l-27 -128h-318l-38 -176h359l-41 -127q-18 -9 -35.5 -19.5t-30.5 -22t-21 -23t-8 -23.5q0 -16 11.5 -21t26.5 -5q8 0 14.5 0.5
t15.5 1.5z" />
    <glyph glyph-name="eogonek" unicode="&#x119;" horiz-adv-x="589" 
d="M362 -192q-21 -3 -48 -3q-20 0 -39.5 3t-36 11t-26.5 22.5t-10 37.5q0 62 68 106q-95 7 -149 66.5t-54 154.5q0 79 22 141t61 104.5t93 64.5t119 22q49 0 88 -15t66 -41t41 -63t14 -80q0 -19 -2 -43t-8 -51l-4 -18h-350q-5 -66 22.5 -100t78.5 -34q42 0 67 15t36 55h136
q-15 -62 -49.5 -103t-91.5 -60q-38 -20 -65.5 -40t-27.5 -45q0 -16 12 -20.5t27 -4.5h13.5t14.5 1zM349 433q-20 0 -40 -5t-37 -18t-31 -35t-23 -56h216q11 54 -13.5 84t-71.5 30z" />
    <glyph glyph-name="Ecaron" unicode="&#x11a;" horiz-adv-x="604" 
d="M316 587l-33 -156h318l-27 -128h-318l-38 -176h359l-41 -127h-493l151 714h487l-27 -127h-338zM667 921l-149 -145h-141l-93 145h120l54 -72l89 72h120z" />
    <glyph glyph-name="ecaron" unicode="&#x11b;" horiz-adv-x="589" 
d="M349 433q-20 0 -40 -5t-37 -18t-31 -35t-23 -56h216q11 54 -13.5 84t-71.5 30zM207 227q-5 -66 22.5 -100t78.5 -34q42 0 67 15t36 55h136q-21 -88 -82 -133.5t-172 -45.5q-52 0 -94 16t-71 45t-45 70t-16 91q0 79 22 141t61 104.5t93 64.5t119 22q49 0 88 -15t66 -41
t41 -63t14 -80q0 -19 -2 -43t-8 -51l-4 -18h-350zM591 749l-149 -155h-141l-91 155h120l52 -83l89 83h120z" />
    <glyph glyph-name="Gcircumflex" unicode="&#x11c;" horiz-adv-x="726" 
d="M591 491q-10 62 -40 88t-90 26q-52 0 -92.5 -24t-68 -64t-42 -93.5t-14.5 -111.5q0 -41 7.5 -78t25.5 -65t47.5 -44t72.5 -16t76.5 7.5t64.5 27.5l26 123h-136l27 124h274l-68 -313q-46 -42 -116 -69t-158 -27q-79 0 -135.5 25t-92.5 68.5t-53 102t-17 124.5q0 85 26 163
t75.5 137t121 94.5t161.5 35.5q124 0 189.5 -58.5t74.5 -162.5zM296 772l149 145h141l93 -145h-120l-54 72l-89 -72h-120z" />
    <glyph glyph-name="gcircumflex" unicode="&#x11d;" horiz-adv-x="623" 
d="M450 272q4 17 4 37q0 25 -5 43.5t-13 29.5q-12 20 -33.5 31.5t-55.5 11.5q-35 0 -60.5 -18t-42.5 -46.5t-25.5 -64t-8.5 -69.5q0 -51 24.5 -76t65.5 -25q23 0 46.5 7.5t43.5 23.5t34.5 39.5t19.5 48.5zM545 73q-14 -65 -33 -116.5t-51 -87.5t-81 -55t-122 -19
q-63 0 -106.5 12.5t-71 35t-40.5 54t-14 70.5h142q6 -36 28 -49.5t74 -13.5q37 0 61 14.5t38.5 38.5t22.5 54.5t14 62.5l3 13q-32 -38 -69.5 -55t-87.5 -17q-91 0 -140 56.5t-48 155.5q0 66 21 123t55.5 99t80 65.5t96.5 23.5q60 0 102 -20.5t71 -68.5l16 73h135zM226 594
l149 155h141l91 -155h-120l-52 83l-89 -83h-120z" />
    <glyph glyph-name="Gbreve" unicode="&#x11e;" horiz-adv-x="726" 
d="M591 491q-10 62 -40 88t-90 26q-52 0 -92.5 -24t-68 -64t-42 -93.5t-14.5 -111.5q0 -41 7.5 -78t25.5 -65t47.5 -44t72.5 -16t76.5 7.5t64.5 27.5l26 123h-136l27 124h274l-68 -313q-46 -42 -116 -69t-158 -27q-79 0 -135.5 25t-92.5 68.5t-53 102t-17 124.5q0 85 26 163
t75.5 137t121 94.5t161.5 35.5q124 0 189.5 -58.5t74.5 -162.5zM478 772q-64 0 -102 30.5t-38 83.5q0 21 4 41h102q-1 -5 -1.5 -11.5t-0.5 -11.5q0 -20 11.5 -33t34.5 -13q29 0 45.5 15.5t22.5 53.5h102q-12 -79 -54.5 -117t-125.5 -38z" />
    <glyph glyph-name="gbreve" unicode="&#x11f;" horiz-adv-x="623" 
d="M450 272q4 17 4 37q0 25 -5 43.5t-13 29.5q-12 20 -33.5 31.5t-55.5 11.5q-35 0 -60.5 -18t-42.5 -46.5t-25.5 -64t-8.5 -69.5q0 -51 24.5 -76t65.5 -25q23 0 46.5 7.5t43.5 23.5t34.5 39.5t19.5 48.5zM545 73q-14 -65 -33 -116.5t-51 -87.5t-81 -55t-122 -19
q-63 0 -106.5 12.5t-71 35t-40.5 54t-14 70.5h142q6 -36 28 -49.5t74 -13.5q37 0 61 14.5t38.5 38.5t22.5 54.5t14 62.5l3 13q-32 -38 -69.5 -55t-87.5 -17q-91 0 -140 56.5t-48 155.5q0 66 21 123t55.5 99t80 65.5t96.5 23.5q60 0 102 -20.5t71 -68.5l16 73h135zM398 591
q-64 0 -101 31.5t-37 82.5q0 21 4 41h98q-2 -7 -2 -12.5v-10.5q0 -23 13.5 -34t34.5 -11q26 0 43.5 14t23.5 54h100q-12 -81 -57.5 -118t-119.5 -37z" />
    <glyph glyph-name="Gdotaccent" unicode="&#x120;" horiz-adv-x="726" 
d="M591 491q-10 62 -40 88t-90 26q-52 0 -92.5 -24t-68 -64t-42 -93.5t-14.5 -111.5q0 -41 7.5 -78t25.5 -65t47.5 -44t72.5 -16t76.5 7.5t64.5 27.5l26 123h-136l27 124h274l-68 -313q-46 -42 -116 -69t-158 -27q-79 0 -135.5 25t-92.5 68.5t-53 102t-17 124.5q0 85 26 163
t75.5 137t121 94.5t161.5 35.5q124 0 189.5 -58.5t74.5 -162.5zM402 779l29 135h140l-29 -135h-140z" />
    <glyph glyph-name="gdotaccent" unicode="&#x121;" horiz-adv-x="623" 
d="M450 272q4 17 4 37q0 25 -5 43.5t-13 29.5q-12 20 -33.5 31.5t-55.5 11.5q-35 0 -60.5 -18t-42.5 -46.5t-25.5 -64t-8.5 -69.5q0 -51 24.5 -76t65.5 -25q23 0 46.5 7.5t43.5 23.5t34.5 39.5t19.5 48.5zM545 73q-14 -65 -33 -116.5t-51 -87.5t-81 -55t-122 -19
q-63 0 -106.5 12.5t-71 35t-40.5 54t-14 70.5h142q6 -36 28 -49.5t74 -13.5q37 0 61 14.5t38.5 38.5t22.5 54.5t14 62.5l3 13q-32 -38 -69.5 -55t-87.5 -17q-91 0 -140 56.5t-48 155.5q0 66 21 123t55.5 99t80 65.5t96.5 23.5q60 0 102 -20.5t71 -68.5l16 73h135zM318 607
l27 127h132l-27 -127h-132z" />
    <glyph glyph-name="Gcommaaccent" unicode="&#x122;" horiz-adv-x="726" 
d="M591 491q-10 62 -40 88t-90 26q-52 0 -92.5 -24t-68 -64t-42 -93.5t-14.5 -111.5q0 -41 7.5 -78t25.5 -65t47.5 -44t72.5 -16t76.5 7.5t64.5 27.5l26 123h-136l27 124h274l-68 -313q-46 -42 -116 -69t-158 -27q-79 0 -135.5 25t-92.5 68.5t-53 102t-17 124.5q0 85 26 163
t75.5 137t121 94.5t161.5 35.5q124 0 189.5 -58.5t74.5 -162.5zM176 -227l115 161h157l-144 -161h-128z" />
    <glyph glyph-name="gcommaaccent" unicode="&#x123;" horiz-adv-x="623" 
d="M450 272q4 17 4 37q0 25 -5 43.5t-13 29.5q-12 20 -33.5 31.5t-55.5 11.5q-35 0 -60.5 -18t-42.5 -46.5t-25.5 -64t-8.5 -69.5q0 -51 24.5 -76t65.5 -25q23 0 46.5 7.5t43.5 23.5t34.5 39.5t19.5 48.5zM545 73q-14 -65 -33 -116.5t-51 -87.5t-81 -55t-122 -19
q-63 0 -106.5 12.5t-71 35t-40.5 54t-14 70.5h142q6 -36 28 -49.5t74 -13.5q37 0 61 14.5t38.5 38.5t22.5 54.5t14 62.5l3 13q-32 -38 -69.5 -55t-87.5 -17q-91 0 -140 56.5t-48 155.5q0 66 21 123t55.5 99t80 65.5t96.5 23.5q60 0 102 -20.5t71 -68.5l16 73h135zM571 749
l-108 -155h-149l137 155h120z" />
    <glyph glyph-name="Hcircumflex" unicode="&#x124;" horiz-adv-x="727" 
d="M446 0l63 300h-283l-63 -300h-149l151 714h149l-58 -276h283l58 276h149l-151 -714h-149zM306 772l149 145h141l93 -145h-120l-54 72l-89 -72h-120z" />
    <glyph glyph-name="hcircumflex" unicode="&#x125;" 
d="M365 0l66 312q5 25 5 41q0 35 -16.5 51.5t-45.5 16.5q-27 0 -47 -7.5t-40 -23.5q-18 -14 -31 -33.5t-18 -42.5l-66 -314h-140l151 714h140l-55 -258q37 44 77 63t85 19q73 0 112 -39.5t39 -110.5q0 -32 -7 -64l-69 -324h-140zM204 772l149 145h141l93 -145h-120l-54 72
l-89 -72h-120z" />
    <glyph glyph-name="Hbar" unicode="&#x126;" horiz-adv-x="763" 
d="M493 0l60 285h-283l-60 -285h-149l108 514h-77l24 113h77l19 87h149l-19 -87h283l19 87h149l-19 -87h79l-24 -113h-79l-108 -514h-149zM582 423l19 91h-283l-19 -91h283z" />
    <glyph glyph-name="hbar" unicode="&#x127;" horiz-adv-x="596" 
d="M294 560l-28 -134q37 44 77 63t85 19q73 0 112 -39.5t39 -110.5q0 -32 -7 -64l-63 -294h-140l60 282q4 19 4 39q0 35 -16 52.5t-45 17.5q-27 0 -47 -7.5t-40 -23.5q-18 -14 -31 -33.5t-18 -42.5l-60 -284h-140l118 560h-65l18 86h65l15 68h140l-15 -68h159l-18 -86h-159z
" />
    <glyph glyph-name="Itilde" unicode="&#x128;" horiz-adv-x="295" 
d="M43 0l151 714h149l-151 -714h-149zM337 871q21 0 32.5 7.5t14.5 32.5h99q-6 -77 -39 -109t-88 -32q-20 0 -37 7t-32 15.5t-28 15.5t-25 7q-21 0 -33.5 -8.5t-15.5 -33.5h-99q6 77 39.5 109.5t88.5 32.5q19 0 36.5 -7t32.5 -15t28.5 -15t25.5 -7z" />
    <glyph glyph-name="itilde" unicode="&#x129;" horiz-adv-x="266" 
d="M281 700q21 0 33 7.5t15 32.5h94q-6 -77 -38 -109t-87 -32q-20 0 -37 7t-31.5 15.5t-27.5 15.5t-25 7q-21 0 -33.5 -8.5t-15.5 -33.5h-94q6 77 38 109.5t87 32.5q19 0 36 -7t32 -15t28.5 -15t25.5 -7zM33 0l111 522h140l-111 -522h-140z" />
    <glyph glyph-name="Imacron" unicode="&#x12a;" horiz-adv-x="295" 
d="M43 0l151 714h149l-151 -714h-149zM147 901h310l-24 -111h-310z" />
    <glyph glyph-name="imacron" unicode="&#x12b;" horiz-adv-x="266" 
d="M97 719h292l-22 -107h-292zM33 0l111 522h140l-111 -522h-140z" />
    <glyph glyph-name="Ibreve" unicode="&#x12c;" horiz-adv-x="295" 
d="M43 0l151 714h149l-151 -714h-149zM273 772q-64 0 -102 30.5t-38 83.5q0 21 4 41h102q-1 -5 -1.5 -11.5t-0.5 -11.5q0 -20 11.5 -33t34.5 -13q29 0 45.5 15.5t22.5 53.5h102q-12 -79 -54.5 -117t-125.5 -38z" />
    <glyph glyph-name="ibreve" unicode="&#x12d;" horiz-adv-x="266" 
d="M222 591q-64 0 -101 31.5t-37 82.5q0 21 4 41h98q-2 -7 -2 -12.5v-10.5q0 -23 13.5 -34t34.5 -11q26 0 43.5 14t23.5 54h100q-12 -81 -57.5 -118t-119.5 -37zM33 0l111 522h140l-111 -522h-140z" />
    <glyph glyph-name="Iogonek" unicode="&#x12e;" horiz-adv-x="295" 
d="M147 -198q-23 -3 -50 -3q-20 0 -41 3.5t-38 12.5t-28 24t-11 38q0 40 24 68.5t73 54.5h-33l151 714h149l-151 -714q-18 -9 -35.5 -19.5t-30.5 -22t-21 -23t-8 -23.5q0 -16 11.5 -21t26.5 -5q8 0 14.5 0.5t15.5 1.5z" />
    <glyph glyph-name="iogonek" unicode="&#x12f;" horiz-adv-x="266" 
d="M129 -192q-21 -3 -48 -3q-20 0 -39.5 3t-36 11t-26.5 22.5t-10 37.5q0 38 24 67t71 54h-31l111 522h140l-111 -522q-38 -20 -65.5 -40t-27.5 -45q0 -16 12 -20.5t27 -4.5h13.5t14.5 1zM154 588l27 126h144l-27 -126h-144z" />
    <glyph glyph-name="Idotaccent" unicode="&#x130;" horiz-adv-x="295" 
d="M43 0l151 714h149l-151 -714h-149zM209 779l29 135h140l-29 -135h-140z" />
    <glyph glyph-name="dotlessi" unicode="&#x131;" horiz-adv-x="266" 
d="M33 0l111 522h140l-111 -522h-140z" />
    <glyph glyph-name="IJ" unicode="&#x132;" horiz-adv-x="934" 
d="M43 0l151 714h149l-151 -714h-149zM889 232q-14 -67 -38.5 -114.5t-61 -77.5t-85 -44t-111.5 -14q-53 0 -97.5 13.5t-77 40.5t-51 66.5t-18.5 92.5q0 12 1 24.5t3 26.5h148q-1 -9 -1 -15.5v-14.5q0 -46 22 -76t82 -30q33 0 56 10.5t39.5 30t26.5 47.5t18 62l97 454h149z
" />
    <glyph glyph-name="ij" unicode="&#x133;" horiz-adv-x="532" 
d="M33 0l111 522h140l-111 -522h-140zM154 588l27 126h144l-27 -126h-144zM420 588l27 126h144l-27 -126h-144zM410 522h140l-117 -545q-10 -45 -24.5 -76.5t-36.5 -50.5t-52.5 -27.5t-71.5 -8.5q-32 0 -61 6t-55 17l40 103q12 -5 27.5 -8.5t32.5 -3.5q26 0 41.5 14.5
t24.5 55.5z" />
    <glyph glyph-name="Jcircumflex" unicode="&#x134;" horiz-adv-x="636" 
d="M591 232q-14 -67 -38.5 -114.5t-61 -77.5t-85 -44t-111.5 -14q-53 0 -97.5 13.5t-77 40.5t-51 66.5t-18.5 92.5q0 12 1 24.5t3 26.5h148q-1 -9 -1 -15.5v-14.5q0 -46 22 -76t82 -30q33 0 56 10.5t39.5 30t26.5 47.5t18 62l97 454h149zM432 772l149 145h141l93 -145h-120
l-54 72l-89 -72h-120z" />
    <glyph glyph-name="jcircumflex" unicode="&#x135;" horiz-adv-x="266" 
d="M144 522h140l-117 -545q-10 -45 -24.5 -76.5t-36.5 -50.5t-52.5 -27.5t-71.5 -8.5q-32 0 -61 6t-55 17l40 103q12 -5 27.5 -8.5t32.5 -3.5q26 0 41.5 14.5t24.5 55.5zM38 594l149 155h141l91 -155h-120l-52 83l-89 -83h-120z" />
    <glyph glyph-name="Kcommaaccent" unicode="&#x136;" horiz-adv-x="675" 
d="M358 354l-110 -93l-55 -261h-150l151 714h150l-59 -277l314 277h171l-296 -273l171 -441h-159zM139 -227l115 161h157l-144 -161h-128z" />
    <glyph glyph-name="kcommaaccent" unicode="&#x137;" horiz-adv-x="577" 
d="M32 0l151 714h137l-78 -371l230 179h170l-229 -185l131 -337h-143l-97 264l-94 -70l-41 -194h-137zM82 -221l108 155h149l-137 -155h-120z" />
    <glyph glyph-name="kgreenlandic" unicode="&#x138;" horiz-adv-x="577" 
d="M32 0l110 522h137l-43 -202l243 202h163l-233 -202l137 -320h-148l-95 246l-98 -76l-36 -170h-137z" />
    <glyph glyph-name="Lacute" unicode="&#x139;" horiz-adv-x="584" 
d="M43 0l151 714h149l-124 -586h338l-43 -128h-471zM193 772l157 145h169l-190 -145h-136z" />
    <glyph glyph-name="lacute" unicode="&#x13a;" horiz-adv-x="266" 
d="M33 0l151 714h140l-151 -714h-140zM180 772l157 145h169l-190 -145h-136z" />
    <glyph glyph-name="Lcommaaccent" unicode="&#x13b;" horiz-adv-x="584" 
d="M43 0l151 714h149l-124 -586h338l-43 -128h-471zM81 -227l115 161h157l-144 -161h-128z" />
    <glyph glyph-name="lcommaaccent" unicode="&#x13c;" horiz-adv-x="266" 
d="M33 0l151 714h140l-151 -714h-140zM-92 -221l108 155h149l-137 -155h-120z" />
    <glyph glyph-name="Lcaron" unicode="&#x13d;" horiz-adv-x="584" 
d="M43 0l151 714h149l-124 -586h338l-43 -128h-471zM413 470l80 244h131l-108 -244h-103z" />
    <glyph glyph-name="lcaron" unicode="&#x13e;" horiz-adv-x="266" 
d="M33 0l151 714h140l-151 -714h-140zM339 470l80 244h131l-108 -244h-103z" />
    <glyph glyph-name="Ldot" unicode="&#x13f;" horiz-adv-x="584" 
d="M43 0l151 714h149l-124 -586h338l-43 -128h-471zM395 322l34 161h143l-34 -161h-143z" />
    <glyph glyph-name="ldot" unicode="&#x140;" horiz-adv-x="436" 
d="M33 0l151 714h140l-151 -714h-140zM315 292l34 161h143l-34 -161h-143z" />
    <glyph glyph-name="Lslash" unicode="&#x141;" horiz-adv-x="602" 
d="M43 302l93 54l76 358h149l-56 -263l184 108l-27 -133l-185 -108l-40 -190h338l-43 -128h-471l47 222l-93 -54z" />
    <glyph glyph-name="lslash" unicode="&#x142;" horiz-adv-x="321" 
d="M44 356l104 54l64 304h140l-48 -227l101 54l-24 -118l-102 -55l-78 -368h-140l62 292l-103 -55z" />
    <glyph glyph-name="Nacute" unicode="&#x143;" horiz-adv-x="719" 
d="M491 0l-204 469l-99 -469h-145l151 714h127l201 -472l100 472h145l-151 -714h-125zM379 772l157 145h169l-190 -145h-136z" />
    <glyph glyph-name="nacute" unicode="&#x144;" 
d="M365 0l66 312q5 25 5 41q0 35 -16.5 51.5t-45.5 16.5q-27 0 -47 -7.5t-40 -23.5q-18 -14 -31 -33.5t-18 -42.5l-66 -314h-140l110 522h136l-15 -72q38 47 79.5 67.5t87.5 20.5q73 0 112 -39.5t39 -110.5q0 -32 -7 -64l-69 -324h-140zM288 594l152 155h165l-181 -155h-136
z" />
    <glyph glyph-name="Ncommaaccent" unicode="&#x145;" horiz-adv-x="719" 
d="M491 0l-204 469l-99 -469h-145l151 714h127l201 -472l100 472h145l-151 -714h-125zM146 -227l115 161h157l-144 -161h-128z" />
    <glyph glyph-name="ncommaaccent" unicode="&#x146;" 
d="M365 0l66 312q5 25 5 41q0 35 -16.5 51.5t-45.5 16.5q-27 0 -47 -7.5t-40 -23.5q-18 -14 -31 -33.5t-18 -42.5l-66 -314h-140l110 522h136l-15 -72q38 47 79.5 67.5t87.5 20.5q73 0 112 -39.5t39 -110.5q0 -32 -7 -64l-69 -324h-140zM81 -221l108 155h149l-137 -155h-120
z" />
    <glyph glyph-name="Ncaron" unicode="&#x147;" horiz-adv-x="719" 
d="M491 0l-204 469l-99 -469h-145l151 714h127l201 -472l100 472h145l-151 -714h-125zM694 921l-149 -145h-141l-93 145h120l54 -72l89 72h120z" />
    <glyph glyph-name="ncaron" unicode="&#x148;" 
d="M365 0l66 312q5 25 5 41q0 35 -16.5 51.5t-45.5 16.5q-27 0 -47 -7.5t-40 -23.5q-18 -14 -31 -33.5t-18 -42.5l-66 -314h-140l110 522h136l-15 -72q38 47 79.5 67.5t87.5 20.5q73 0 112 -39.5t39 -110.5q0 -32 -7 -64l-69 -324h-140zM602 749l-149 -155h-141l-91 155h120
l52 -83l89 83h120z" />
    <glyph glyph-name="napostrophe" unicode="&#x149;" horiz-adv-x="710" 
d="M483 0l66 312q5 25 5 41q0 35 -16.5 51.5t-45.5 16.5q-27 0 -47 -7.5t-40 -23.5q-18 -14 -31 -33.5t-18 -42.5l-66 -314h-140l110 522h136l-15 -72q38 47 79.5 67.5t87.5 20.5q73 0 112 -39.5t39 -110.5q0 -32 -7 -64l-69 -324h-140zM68 460l87 254h136l-116 -254h-107z
" />
    <glyph glyph-name="Eng" unicode="&#x14a;" horiz-adv-x="719" 
d="M255 -59q24 -8 45.5 -13t56.5 -5q44 0 73 23.5t44 91.5l-187 431l-99 -469h-145l151 714h127l201 -472l100 472h145l-146 -687q-15 -68 -38.5 -113t-57 -71.5t-76.5 -37t-96 -10.5q-41 0 -78 8.5t-65 19.5z" />
    <glyph glyph-name="eng" unicode="&#x14b;" 
d="M431 312q5 25 5 41q0 35 -16.5 51.5t-45.5 16.5q-27 0 -47 -7.5t-40 -23.5q-18 -14 -31 -33.5t-18 -42.5l-66 -314h-140l110 522h136l-15 -72q38 47 79.5 67.5t87.5 20.5q73 0 112 -39.5t39 -110.5q0 -32 -7 -64l-74 -347q-10 -45 -24.5 -76.5t-36.5 -50.5t-52.5 -27.5
t-71.5 -8.5q-32 0 -61 6t-55 17l40 103q12 -5 27.5 -8.5t32.5 -3.5q26 0 42 14.5t24 55.5z" />
    <glyph glyph-name="Omacron" unicode="&#x14c;" horiz-adv-x="780" 
d="M490 732q69 0 122.5 -22.5t90 -62t55.5 -94.5t19 -120q0 -87 -25 -168.5t-74.5 -144.5t-124 -100.5t-172.5 -37.5q-69 0 -123 22t-91 62t-56.5 95t-19.5 121q0 86 26 167t76.5 144t125 101t171.5 38zM478 604q-60 0 -104 -28t-72.5 -73t-42.5 -101.5t-14 -112.5
q0 -83 36.5 -131t109.5 -48q60 0 103.5 28t72 73t42.5 101.5t14 113.5q0 81 -36 129.5t-109 48.5zM391 901h310l-24 -111h-310z" />
    <glyph glyph-name="omacron" unicode="&#x14d;" horiz-adv-x="616" 
d="M374 538q53 0 95.5 -17.5t72 -47.5t45.5 -70t16 -86q0 -80 -22.5 -142t-63 -104.5t-97 -64.5t-123.5 -22q-53 0 -95.5 17.5t-72.5 47.5t-46 70t-16 86q0 78 23 140t64.5 104.5t97.5 65.5t122 23zM364 426q-31 0 -58.5 -14t-48.5 -42t-33 -69t-12 -95q0 -52 24.5 -81
t69.5 -29q31 0 58.5 14t48.5 41.5t33 68.5t12 95q0 52 -24.5 81.5t-69.5 29.5zM265 719h292l-22 -107h-292z" />
    <glyph glyph-name="Obreve" unicode="&#x14e;" horiz-adv-x="780" 
d="M490 732q69 0 122.5 -22.5t90 -62t55.5 -94.5t19 -120q0 -87 -25 -168.5t-74.5 -144.5t-124 -100.5t-172.5 -37.5q-69 0 -123 22t-91 62t-56.5 95t-19.5 121q0 86 26 167t76.5 144t125 101t171.5 38zM478 604q-60 0 -104 -28t-72.5 -73t-42.5 -101.5t-14 -112.5
q0 -83 36.5 -131t109.5 -48q60 0 103.5 28t72 73t42.5 101.5t14 113.5q0 81 -36 129.5t-109 48.5zM494 772q-64 0 -102 30.5t-38 83.5q0 21 4 41h102q-1 -5 -1.5 -11.5t-0.5 -11.5q0 -20 11.5 -33t34.5 -13q29 0 45.5 15.5t22.5 53.5h102q-12 -79 -54.5 -117t-125.5 -38z
" />
    <glyph glyph-name="obreve" unicode="&#x14f;" horiz-adv-x="616" 
d="M374 538q53 0 95.5 -17.5t72 -47.5t45.5 -70t16 -86q0 -80 -22.5 -142t-63 -104.5t-97 -64.5t-123.5 -22q-53 0 -95.5 17.5t-72.5 47.5t-46 70t-16 86q0 78 23 140t64.5 104.5t97.5 65.5t122 23zM364 426q-31 0 -58.5 -14t-48.5 -42t-33 -69t-12 -95q0 -52 24.5 -81
t69.5 -29q31 0 58.5 14t48.5 41.5t33 68.5t12 95q0 52 -24.5 81.5t-69.5 29.5zM388 591q-64 0 -101 31.5t-37 82.5q0 21 4 41h98q-2 -7 -2 -12.5v-10.5q0 -23 13.5 -34t34.5 -11q26 0 43.5 14t23.5 54h100q-12 -81 -57.5 -118t-119.5 -37z" />
    <glyph glyph-name="Ohungarumlaut" unicode="&#x150;" horiz-adv-x="780" 
d="M490 732q69 0 122.5 -22.5t90 -62t55.5 -94.5t19 -120q0 -87 -25 -168.5t-74.5 -144.5t-124 -100.5t-172.5 -37.5q-69 0 -123 22t-91 62t-56.5 95t-19.5 121q0 86 26 167t76.5 144t125 101t171.5 38zM478 604q-60 0 -104 -28t-72.5 -73t-42.5 -101.5t-14 -112.5
q0 -83 36.5 -131t109.5 -48q60 0 103.5 28t72 73t42.5 101.5t14 113.5q0 81 -36 129.5t-109 48.5zM543 772l151 145h158l-182 -145h-127zM327 772l151 145h158l-182 -145h-127z" />
    <glyph glyph-name="ohungarumlaut" unicode="&#x151;" horiz-adv-x="616" 
d="M374 538q53 0 95.5 -17.5t72 -47.5t45.5 -70t16 -86q0 -80 -22.5 -142t-63 -104.5t-97 -64.5t-123.5 -22q-53 0 -95.5 17.5t-72.5 47.5t-46 70t-16 86q0 78 23 140t64.5 104.5t97.5 65.5t122 23zM364 426q-31 0 -58.5 -14t-48.5 -42t-33 -69t-12 -95q0 -52 24.5 -81
t69.5 -29q31 0 58.5 14t48.5 41.5t33 68.5t12 95q0 52 -24.5 81.5t-69.5 29.5zM226 594l147 155h145l-176 -155h-116zM422 594l147 155h145l-176 -155h-116z" />
    <glyph glyph-name="OE" unicode="&#x152;" horiz-adv-x="1062" 
d="M793 587l-33 -156h299l-27 -128h-299l-38 -176h340l-41 -127h-469l13 61q-32 -35 -75.5 -57t-106.5 -22q-58 0 -106.5 22t-84 62t-55 95t-19.5 121q0 86 26.5 167t76 144t118.5 101t155 38q40 0 70.5 -8.5t53 -22.5t38.5 -32.5t29 -39.5l18 85h463l-27 -127h-319z
M468 604q-56 0 -97.5 -28t-69.5 -73t-42 -101.5t-14 -112.5q0 -83 36 -131t100 -48q54 0 95.5 26.5t69.5 71t42.5 101.5t14.5 117q0 84 -36.5 131t-98.5 47z" />
    <glyph glyph-name="oe" unicode="&#x153;" horiz-adv-x="960" 
d="M358 538q36 0 64 -8t49 -21.5t36.5 -32.5t27.5 -40q38 50 85 76t117 26q47 0 85 -15t64.5 -41t41 -63t14.5 -80q0 -19 -1.5 -40t-6.5 -45l-6 -27h-347v-17q0 -54 27 -85.5t71 -31.5q40 0 66 15t37 55h136q-21 -91 -83 -135t-159 -44q-42 0 -71.5 8.5t-50.5 23t-35.5 32
t-26.5 35.5q-40 -53 -89 -76t-115 -23q-51 0 -92 17.5t-69.5 47.5t-44 70t-15.5 86q0 78 23 140t63 104.5t93 65.5t112 23zM361 426q-30 0 -57 -14t-47.5 -42t-32.5 -69t-12 -95q0 -52 24.5 -81t66.5 -29q31 0 58.5 14t48.5 41.5t33 68.5t12 95q0 52 -24.5 81.5t-69.5 29.5z
M722 433q-19 0 -38.5 -5t-36.5 -18t-31.5 -35t-23.5 -56h213q10 54 -14.5 84t-68.5 30z" />
    <glyph glyph-name="Racute" unicode="&#x154;" horiz-adv-x="653" 
d="M190 0h-147l151 714h244q70 0 116.5 -17.5t74.5 -46t40 -65t12 -74.5q0 -87 -44.5 -139.5t-116.5 -75.5l89 -296h-156l-70 268h-24h-113zM393 392q29 0 54 5.5t43.5 19t29 36t10.5 55.5q0 16 -5.5 31t-19 26.5t-35 18.5t-54.5 7h-101l-42 -199h120zM325 772l157 145h169
l-190 -145h-136z" />
    <glyph glyph-name="racute" unicode="&#x155;" horiz-adv-x="419" 
d="M430 398q-11 3 -23.5 5t-31.5 2q-25 0 -47.5 -6t-40.5 -20q-23 -17 -34.5 -35.5t-16.5 -41.5l-64 -302h-140l110 522h136l-15 -73q35 43 71 62.5t81 19.5q20 0 31 -2t20 -4zM228 594l152 155h165l-181 -155h-136z" />
    <glyph glyph-name="Rcommaaccent" unicode="&#x156;" horiz-adv-x="653" 
d="M190 0h-147l151 714h244q70 0 116.5 -17.5t74.5 -46t40 -65t12 -74.5q0 -87 -44.5 -139.5t-116.5 -75.5l89 -296h-156l-70 268h-24h-113zM393 392q29 0 54 5.5t43.5 19t29 36t10.5 55.5q0 16 -5.5 31t-19 26.5t-35 18.5t-54.5 7h-101l-42 -199h120zM120 -227l115 161h157
l-144 -161h-128z" />
    <glyph glyph-name="rcommaaccent" unicode="&#x157;" horiz-adv-x="419" 
d="M430 398q-11 3 -23.5 5t-31.5 2q-25 0 -47.5 -6t-40.5 -20q-23 -17 -34.5 -35.5t-16.5 -41.5l-64 -302h-140l110 522h136l-15 -73q35 43 71 62.5t81 19.5q20 0 31 -2t20 -4zM-88 -221l108 155h149l-137 -155h-120z" />
    <glyph glyph-name="Rcaron" unicode="&#x158;" horiz-adv-x="653" 
d="M190 0h-147l151 714h244q70 0 116.5 -17.5t74.5 -46t40 -65t12 -74.5q0 -87 -44.5 -139.5t-116.5 -75.5l89 -296h-156l-70 268h-24h-113zM393 392q29 0 54 5.5t43.5 19t29 36t10.5 55.5q0 16 -5.5 31t-19 26.5t-35 18.5t-54.5 7h-101l-42 -199h120zM635 921l-149 -145
h-141l-93 145h120l54 -72l89 72h120z" />
    <glyph glyph-name="rcaron" unicode="&#x159;" horiz-adv-x="419" 
d="M430 398q-11 3 -23.5 5t-31.5 2q-25 0 -47.5 -6t-40.5 -20q-23 -17 -34.5 -35.5t-16.5 -41.5l-64 -302h-140l110 522h136l-15 -73q35 43 71 62.5t81 19.5q20 0 31 -2t20 -4zM511 749l-149 -155h-141l-91 155h120l52 -83l89 83h120z" />
    <glyph glyph-name="Sacute" unicode="&#x15a;" horiz-adv-x="645" 
d="M625 228q0 -65 -20 -111.5t-58.5 -76.5t-93.5 -44t-124 -14q-56 0 -108.5 12.5t-93 42t-65.5 77.5t-27 119h151q5 -63 42 -94.5t112 -31.5q69 0 97.5 29t28.5 72q0 27 -18.5 49.5t-64.5 32.5l-78 16q-100 20 -146.5 71t-46.5 120q0 61 21 105.5t60 73t93.5 42.5t122.5 14
q56 0 103 -12.5t81.5 -39t55.5 -67.5t25 -98l-144 -18q-8 60 -38.5 86.5t-90.5 26.5q-39 0 -64.5 -7.5t-40.5 -20t-21 -28t-6 -30.5q0 -38 21 -57.5t61 -28.5l80 -18q54 -12 91.5 -31.5t60 -44.5t32.5 -54t10 -62zM327 772l157 145h169l-190 -145h-136z" />
    <glyph glyph-name="sacute" unicode="&#x15b;" horiz-adv-x="537" 
d="M504 161q0 -52 -19.5 -86t-53 -54.5t-78.5 -28.5t-95 -8q-44 0 -84 9t-71 30t-50 55.5t-20 85.5h133q5 -42 31 -57t71 -15q47 0 69.5 13.5t22.5 45.5q0 19 -12.5 32.5t-45.5 20.5l-57 12q-43 9 -72.5 23.5t-47.5 33t-26 42t-8 50.5q0 44 17.5 76.5t48.5 54t74.5 32
t94.5 10.5q38 0 74.5 -8t65.5 -26.5t48.5 -49.5t23.5 -77l-128 -16q-2 16 -7.5 29t-15.5 23t-26 15.5t-40 5.5q-31 0 -49 -5.5t-27.5 -14t-12 -18.5t-2.5 -18q0 -22 15.5 -34t51.5 -20l53 -11q45 -9 74.5 -24t47.5 -34.5t25 -43t7 -50.5zM249 594l152 155h165l-181 -155
h-136z" />
    <glyph glyph-name="Scircumflex" unicode="&#x15c;" horiz-adv-x="645" 
d="M625 228q0 -65 -20 -111.5t-58.5 -76.5t-93.5 -44t-124 -14q-56 0 -108.5 12.5t-93 42t-65.5 77.5t-27 119h151q5 -63 42 -94.5t112 -31.5q69 0 97.5 29t28.5 72q0 27 -18.5 49.5t-64.5 32.5l-78 16q-100 20 -146.5 71t-46.5 120q0 61 21 105.5t60 73t93.5 42.5t122.5 14
q56 0 103 -12.5t81.5 -39t55.5 -67.5t25 -98l-144 -18q-8 60 -38.5 86.5t-90.5 26.5q-39 0 -64.5 -7.5t-40.5 -20t-21 -28t-6 -30.5q0 -38 21 -57.5t61 -28.5l80 -18q54 -12 91.5 -31.5t60 -44.5t32.5 -54t10 -62zM233 772l149 145h141l93 -145h-120l-54 72l-89 -72h-120z
" />
    <glyph glyph-name="scircumflex" unicode="&#x15d;" horiz-adv-x="537" 
d="M504 161q0 -52 -19.5 -86t-53 -54.5t-78.5 -28.5t-95 -8q-44 0 -84 9t-71 30t-50 55.5t-20 85.5h133q5 -42 31 -57t71 -15q47 0 69.5 13.5t22.5 45.5q0 19 -12.5 32.5t-45.5 20.5l-57 12q-43 9 -72.5 23.5t-47.5 33t-26 42t-8 50.5q0 44 17.5 76.5t48.5 54t74.5 32
t94.5 10.5q38 0 74.5 -8t65.5 -26.5t48.5 -49.5t23.5 -77l-128 -16q-2 16 -7.5 29t-15.5 23t-26 15.5t-40 5.5q-31 0 -49 -5.5t-27.5 -14t-12 -18.5t-2.5 -18q0 -22 15.5 -34t51.5 -20l53 -11q45 -9 74.5 -24t47.5 -34.5t25 -43t7 -50.5zM146 594l149 155h141l91 -155h-120
l-52 83l-89 -83h-120z" />
    <glyph glyph-name="Scedilla" unicode="&#x15e;" horiz-adv-x="645" 
d="M272 -15q-48 6 -90 22t-74.5 45.5t-52 74t-20.5 106.5h151q5 -63 42 -94.5t112 -31.5q69 0 97.5 29t28.5 72q0 27 -18.5 49.5t-64.5 32.5l-78 16q-100 20 -146.5 71t-46.5 120q0 61 21 105.5t60 73t93.5 42.5t122.5 14q56 0 103 -12.5t81.5 -39t55.5 -67.5t25 -98
l-144 -18q-8 60 -38.5 86.5t-90.5 26.5q-39 0 -64.5 -7.5t-40.5 -20t-21 -28t-6 -30.5q0 -38 21 -57.5t61 -28.5l80 -18q54 -12 91.5 -31.5t60 -44.5t32.5 -54t10 -62q0 -62 -19 -107.5t-54.5 -75.5t-87 -45.5t-116.5 -17.5l-15 -32q48 -8 67 -29.5t19 -46.5
q0 -28 -11.5 -46.5t-32 -30t-49.5 -16t-63 -4.5q-14 0 -31.5 1.5t-38.5 5.5l10 68q24 -4 39.5 -5t29.5 -1q26 0 37 8.5t11 24.5q0 12 -12 18.5t-41 6.5h-35z" />
    <glyph glyph-name="scedilla" unicode="&#x15f;" horiz-adv-x="537" 
d="M214 -14q-37 4 -69.5 16t-57 33t-39 53t-15.5 76h133q5 -42 31 -57t71 -15q47 0 69.5 13.5t22.5 45.5q0 19 -12.5 32.5t-45.5 20.5l-57 12q-43 9 -72.5 23.5t-47.5 33t-26 42t-8 50.5q0 44 17.5 76.5t48.5 54t74.5 32t94.5 10.5q38 0 74.5 -8t65.5 -26.5t48.5 -49.5
t23.5 -77l-128 -16q-2 16 -7.5 29t-15.5 23t-26 15.5t-40 5.5q-31 0 -49 -5.5t-27.5 -14t-12 -18.5t-2.5 -18q0 -22 15.5 -34t51.5 -20l53 -11q45 -9 74.5 -24t47.5 -34.5t25 -43t7 -50.5q0 -48 -16.5 -80.5t-45.5 -53t-68 -30.5t-84 -12l-16 -34q46 -7 63.5 -28.5
t17.5 -45.5q0 -54 -41 -74t-108 -20q-14 0 -31 1.5t-38 5.5l10 68q23 -4 38.5 -5t28.5 -1q26 0 36.5 7.5t10.5 22.5q0 12 -11.5 19t-40.5 7h-34z" />
    <glyph glyph-name="Scaron" unicode="&#x160;" horiz-adv-x="645" 
d="M625 228q0 -65 -20 -111.5t-58.5 -76.5t-93.5 -44t-124 -14q-56 0 -108.5 12.5t-93 42t-65.5 77.5t-27 119h151q5 -63 42 -94.5t112 -31.5q69 0 97.5 29t28.5 72q0 27 -18.5 49.5t-64.5 32.5l-78 16q-100 20 -146.5 71t-46.5 120q0 61 21 105.5t60 73t93.5 42.5t122.5 14
q56 0 103 -12.5t81.5 -39t55.5 -67.5t25 -98l-144 -18q-8 60 -38.5 86.5t-90.5 26.5q-39 0 -64.5 -7.5t-40.5 -20t-21 -28t-6 -30.5q0 -38 21 -57.5t61 -28.5l80 -18q54 -12 91.5 -31.5t60 -44.5t32.5 -54t10 -62zM641 921l-149 -145h-141l-93 145h120l54 -72l89 72h120z
" />
    <glyph glyph-name="scaron" unicode="&#x161;" horiz-adv-x="537" 
d="M504 161q0 -52 -19.5 -86t-53 -54.5t-78.5 -28.5t-95 -8q-44 0 -84 9t-71 30t-50 55.5t-20 85.5h133q5 -42 31 -57t71 -15q47 0 69.5 13.5t22.5 45.5q0 19 -12.5 32.5t-45.5 20.5l-57 12q-43 9 -72.5 23.5t-47.5 33t-26 42t-8 50.5q0 44 17.5 76.5t48.5 54t74.5 32
t94.5 10.5q38 0 74.5 -8t65.5 -26.5t48.5 -49.5t23.5 -77l-128 -16q-2 16 -7.5 29t-15.5 23t-26 15.5t-40 5.5q-31 0 -49 -5.5t-27.5 -14t-12 -18.5t-2.5 -18q0 -22 15.5 -34t51.5 -20l53 -11q45 -9 74.5 -24t47.5 -34.5t25 -43t7 -50.5zM560 749l-149 -155h-141l-91 155
h120l52 -83l89 83h120z" />
    <glyph glyph-name="uni0162" unicode="&#x162;" horiz-adv-x="620" 
d="M239 0h-34l124 585h-215l27 129h580l-27 -129h-215l-124 -585h-40l-23 -49q46 -7 63.5 -28.5t17.5 -45.5q0 -54 -41 -74t-108 -20q-14 0 -31 1.5t-38 5.5l10 68q23 -4 38.5 -5t28.5 -1q26 0 36.5 7.5t10.5 22.5q0 12 -11.5 19t-40.5 7h-34z" />
    <glyph glyph-name="uni0163" unicode="&#x163;" horiz-adv-x="379" 
d="M181 0q-42 13 -64 43.5t-22 81.5q0 29 7 58l49 230h-82l23 109h82l30 139h140l-30 -139h120l-23 -109h-120l-50 -236q-4 -16 -4 -30q0 -27 14 -36t35 -9q14 0 30.5 2.5t28.5 5.5l20 -103q-29 -9 -56 -13t-56 -4l-18 -39q46 -7 63.5 -28.5t17.5 -45.5q0 -54 -41 -74
t-108 -20q-14 0 -31 1.5t-38 5.5l10 68q23 -4 38.5 -5t28.5 -1q26 0 36.5 7.5t10.5 22.5q0 12 -11.5 19t-40.5 7h-34z" />
    <glyph glyph-name="Tcaron" unicode="&#x164;" horiz-adv-x="620" 
d="M479 585l-124 -585h-150l124 585h-215l27 129h580l-27 -129h-215zM651 921l-149 -145h-141l-93 145h120l54 -72l89 72h120z" />
    <glyph glyph-name="tcaron" unicode="&#x165;" horiz-adv-x="379" 
d="M376 580l64 170h118l-90 -170h-92zM241 177q-4 -16 -4 -30q0 -27 14 -36t35 -9q14 0 30.5 2.5t28.5 5.5l20 -103q-30 -10 -58 -13.5t-57 -3.5q-74 0 -114.5 33.5t-40.5 101.5q0 29 7 58l49 230h-82l23 109h82l30 139h140l-30 -139h120l-23 -109h-120z" />
    <glyph glyph-name="Tbar" unicode="&#x166;" horiz-adv-x="620" 
d="M154 400h136l39 185h-215l27 129h580l-27 -129h-215l-39 -185h136l-27 -123h-136l-58 -277h-150l58 277h-136z" />
    <glyph glyph-name="tbar" unicode="&#x167;" horiz-adv-x="379" 
d="M272 325h121l-24 -109h-120l-8 -39q-4 -16 -4 -30q0 -27 14 -36t35 -9q14 0 30.5 2.5t28.5 5.5l20 -103q-30 -10 -58 -13.5t-57 -3.5q-74 0 -114.5 33.5t-40.5 101.5q0 29 7 58l7 33h-82l24 109h81l19 88h-82l23 109h82l30 139h140l-30 -139h120l-23 -109h-120z" />
    <glyph glyph-name="Utilde" unicode="&#x168;" horiz-adv-x="693" 
d="M337 -18q-57 0 -105 14t-82 41.5t-53 70t-19 99.5q0 41 10 85l89 422h149l-90 -425q-9 -39 -9 -68q0 -59 31 -85t89 -26q37 0 63.5 11t46 33.5t33 56t23.5 78.5l90 425h149l-90 -425q-17 -81 -43.5 -139t-65.5 -95.5t-92.5 -55t-123.5 -17.5zM540 871q21 0 32.5 7.5
t14.5 32.5h99q-6 -77 -39 -109t-88 -32q-20 0 -37 7t-32 15.5t-28 15.5t-25 7q-21 0 -33.5 -8.5t-15.5 -33.5h-99q6 77 39.5 109.5t88.5 32.5q19 0 36.5 -7t32.5 -15t28.5 -15t25.5 -7z" />
    <glyph glyph-name="utilde" unicode="&#x169;" horiz-adv-x="587" 
d="M277 522l-67 -316q-2 -11 -3.5 -21t-1.5 -19q0 -33 15.5 -49t44.5 -16q27 0 45.5 7.5t38.5 23.5q17 13 31.5 34t19.5 47l65 309h140l-110 -522h-136l15 72q-38 -47 -78.5 -67.5t-86.5 -20.5q-73 0 -111 39t-38 109q0 28 8 66l69 324h140zM443 700q21 0 33 7.5t15 32.5h94
q-6 -77 -38 -109t-87 -32q-20 0 -37 7t-31.5 15.5t-27.5 15.5t-25 7q-21 0 -33.5 -8.5t-15.5 -33.5h-94q6 77 38 109.5t87 32.5q19 0 36 -7t32 -15t28.5 -15t25.5 -7z" />
    <glyph glyph-name="Umacron" unicode="&#x16a;" horiz-adv-x="693" 
d="M337 -18q-57 0 -105 14t-82 41.5t-53 70t-19 99.5q0 41 10 85l89 422h149l-90 -425q-9 -39 -9 -68q0 -59 31 -85t89 -26q37 0 63.5 11t46 33.5t33 56t23.5 78.5l90 425h149l-90 -425q-17 -81 -43.5 -139t-65.5 -95.5t-92.5 -55t-123.5 -17.5zM344 901h310l-24 -111h-310z
" />
    <glyph glyph-name="umacron" unicode="&#x16b;" horiz-adv-x="587" 
d="M277 522l-67 -316q-2 -11 -3.5 -21t-1.5 -19q0 -33 15.5 -49t44.5 -16q27 0 45.5 7.5t38.5 23.5q17 13 31.5 34t19.5 47l65 309h140l-110 -522h-136l15 72q-38 -47 -78.5 -67.5t-86.5 -20.5q-73 0 -111 39t-38 109q0 28 8 66l69 324h140zM257 719h292l-22 -107h-292z" />
    <glyph glyph-name="Ubreve" unicode="&#x16c;" horiz-adv-x="693" 
d="M337 -18q-57 0 -105 14t-82 41.5t-53 70t-19 99.5q0 41 10 85l89 422h149l-90 -425q-9 -39 -9 -68q0 -59 31 -85t89 -26q37 0 63.5 11t46 33.5t33 56t23.5 78.5l90 425h149l-90 -425q-17 -81 -43.5 -139t-65.5 -95.5t-92.5 -55t-123.5 -17.5zM472 772q-64 0 -102 30.5
t-38 83.5q0 21 4 41h102q-1 -5 -1.5 -11.5t-0.5 -11.5q0 -20 11.5 -33t34.5 -13q29 0 45.5 15.5t22.5 53.5h102q-12 -79 -54.5 -117t-125.5 -38z" />
    <glyph glyph-name="ubreve" unicode="&#x16d;" horiz-adv-x="587" 
d="M277 522l-67 -316q-2 -11 -3.5 -21t-1.5 -19q0 -33 15.5 -49t44.5 -16q27 0 45.5 7.5t38.5 23.5q17 13 31.5 34t19.5 47l65 309h140l-110 -522h-136l15 72q-38 -47 -78.5 -67.5t-86.5 -20.5q-73 0 -111 39t-38 109q0 28 8 66l69 324h140zM380 591q-64 0 -101 31.5
t-37 82.5q0 21 4 41h98q-2 -7 -2 -12.5v-10.5q0 -23 13.5 -34t34.5 -11q26 0 43.5 14t23.5 54h100q-12 -81 -57.5 -118t-119.5 -37z" />
    <glyph glyph-name="Uring" unicode="&#x16e;" horiz-adv-x="693" 
d="M337 -18q-57 0 -105 14t-82 41.5t-53 70t-19 99.5q0 41 10 85l89 422h149l-90 -425q-9 -39 -9 -68q0 -59 31 -85t89 -26q37 0 63.5 11t46 33.5t33 56t23.5 78.5l90 425h149l-90 -425q-17 -81 -43.5 -139t-65.5 -95.5t-92.5 -55t-123.5 -17.5zM350 856q0 30 9.5 52.5
t26 37t38.5 22t46 7.5t46 -7.5t38.5 -22t26.5 -37t10 -52.5t-10 -52t-26.5 -36.5t-38.5 -21.5t-46 -7t-46 7t-38.5 21.5t-26 36.5t-9.5 52zM425 856q0 -25 12 -36t33 -11q46 0 46 47q0 26 -12 37.5t-34 11.5q-21 0 -33 -11.5t-12 -37.5z" />
    <glyph glyph-name="uring" unicode="&#x16f;" horiz-adv-x="587" 
d="M277 522l-67 -316q-2 -11 -3.5 -21t-1.5 -19q0 -33 15.5 -49t44.5 -16q27 0 45.5 7.5t38.5 23.5q17 13 31.5 34t19.5 47l65 309h140l-110 -522h-136l15 72q-38 -47 -78.5 -67.5t-86.5 -20.5q-73 0 -111 39t-38 109q0 28 8 66l69 324h140zM272 701q0 28 9.5 49.5t25 35.5
t36.5 21t44 7t44 -7t37 -21t25.5 -35.5t9.5 -49.5q0 -29 -9.5 -50t-25.5 -34.5t-37 -20.5t-44 -7t-44 7t-36.5 20.5t-25 34.5t-9.5 50zM344 701q0 -23 11.5 -34.5t31.5 -11.5t32 11.5t12 34.5q0 24 -12 35t-32 11t-31.5 -11t-11.5 -35z" />
    <glyph glyph-name="Uhungarumlaut" unicode="&#x170;" horiz-adv-x="693" 
d="M337 -18q-57 0 -105 14t-82 41.5t-53 70t-19 99.5q0 41 10 85l89 422h149l-90 -425q-9 -39 -9 -68q0 -59 31 -85t89 -26q37 0 63.5 11t46 33.5t33 56t23.5 78.5l90 425h149l-90 -425q-17 -81 -43.5 -139t-65.5 -95.5t-92.5 -55t-123.5 -17.5zM491 772l151 145h158
l-182 -145h-127zM275 772l151 145h158l-182 -145h-127z" />
    <glyph glyph-name="uhungarumlaut" unicode="&#x171;" horiz-adv-x="587" 
d="M277 522l-67 -316q-2 -11 -3.5 -21t-1.5 -19q0 -33 15.5 -49t44.5 -16q27 0 45.5 7.5t38.5 23.5q17 13 31.5 34t19.5 47l65 309h140l-110 -522h-136l15 72q-38 -47 -78.5 -67.5t-86.5 -20.5q-73 0 -111 39t-38 109q0 28 8 66l69 324h140zM215 594l147 155h145l-176 -155
h-116zM411 594l147 155h145l-176 -155h-116z" />
    <glyph glyph-name="Uogonek" unicode="&#x172;" horiz-adv-x="693" 
d="M415 -198q-23 -3 -50 -3q-20 0 -41 3.5t-38 12.5t-28 24t-11 38q0 33 16.5 58.5t50.5 47.5q-53 3 -96.5 18t-74.5 42.5t-48 68.5t-17 95q0 41 10 85l89 422h149l-90 -425q-9 -39 -9 -68q0 -59 31 -85t89 -26q37 0 63.5 11t46 33.5t33 56t23.5 78.5l90 425h149l-90 -425
q-26 -123 -74.5 -193.5t-130.5 -96.5q-36 -19 -64 -41t-28 -46q0 -16 11.5 -21t26.5 -5q8 0 14.5 0.5t15.5 1.5z" />
    <glyph glyph-name="uogonek" unicode="&#x173;" horiz-adv-x="587" 
d="M451 -192q-21 -3 -48 -3q-20 0 -39.5 3t-36 11t-26.5 22.5t-10 37.5q0 38 24 67t71 54h-27l15 72q-38 -47 -78.5 -67.5t-86.5 -20.5q-73 0 -111 39t-38 109q0 28 8 66l69 324h140l-67 -316q-2 -11 -3.5 -21t-1.5 -19q0 -33 15.5 -49t44.5 -16q27 0 45.5 7.5t38.5 23.5
q17 13 31.5 34t19.5 47l65 309h140l-110 -522q-38 -20 -65.5 -40t-27.5 -45q0 -16 12 -20.5t27 -4.5h13.5t14.5 1z" />
    <glyph glyph-name="Wcircumflex" unicode="&#x174;" horiz-adv-x="968" 
d="M734 0h-145l-21 528l-241 -528h-141l-55 714h168l7 -496l220 492h158l19 -492l216 496h160zM426 772l149 145h141l93 -145h-120l-54 72l-89 -72h-120z" />
    <glyph glyph-name="wcircumflex" unicode="&#x175;" horiz-adv-x="773" 
d="M128 0l-42 522h152l-2 -346l170 342h122l25 -342l148 346h146l-262 -522h-136l-20 344l-167 -344h-134zM289 594l149 155h141l91 -155h-120l-52 83l-89 -83h-120z" />
    <glyph glyph-name="Ycircumflex" unicode="&#x176;" horiz-adv-x="657" 
d="M131 714h160l95 -289l218 289h164l-331 -423l-61 -291h-149l61 291zM262 772l149 145h141l93 -145h-120l-54 72l-89 -72h-120z" />
    <glyph glyph-name="ycircumflex" unicode="&#x177;" horiz-adv-x="567" 
d="M88 522h156l53 -343l183 343h159l-324 -537q-27 -45 -50 -78.5t-48 -56t-55.5 -33.5t-72.5 -11q-26 0 -48 4.5t-45 13.5l36 104q12 -4 26.5 -7t31.5 -3q28 0 46.5 15t37.5 48l27 47zM179 594l149 155h141l91 -155h-120l-52 83l-89 -83h-120z" />
    <glyph glyph-name="Ydieresis" unicode="&#x178;" horiz-adv-x="657" 
d="M131 714h160l95 -289l218 289h164l-331 -423l-61 -291h-149l61 291zM282 782l27 129h134l-27 -129h-134zM490 782l27 129h134l-27 -129h-134z" />
    <glyph glyph-name="Zacute" unicode="&#x179;" horiz-adv-x="587" 
d="M529 0h-536l23 109l452 477h-344l27 128h528l-23 -110l-451 -476h366zM309 772l157 145h169l-190 -145h-136z" />
    <glyph glyph-name="zacute" unicode="&#x17a;" horiz-adv-x="500" 
d="M438 0h-431l20 95l316 318h-244l23 109h427l-20 -95l-315 -318h260zM253 594l152 155h165l-181 -155h-136z" />
    <glyph glyph-name="Zdotaccent" unicode="&#x17b;" horiz-adv-x="587" 
d="M529 0h-536l23 109l452 477h-344l27 128h528l-23 -110l-451 -476h366zM330 779l29 135h140l-29 -135h-140z" />
    <glyph glyph-name="zdotaccent" unicode="&#x17c;" horiz-adv-x="500" 
d="M438 0h-431l20 95l316 318h-244l23 109h427l-20 -95l-315 -318h260zM269 607l27 127h132l-27 -127h-132z" />
    <glyph glyph-name="Zcaron" unicode="&#x17d;" horiz-adv-x="587" 
d="M529 0h-536l23 109l452 477h-344l27 128h528l-23 -110l-451 -476h366zM634 921l-149 -145h-141l-93 145h120l54 -72l89 72h120z" />
    <glyph glyph-name="zcaron" unicode="&#x17e;" horiz-adv-x="500" 
d="M438 0h-431l20 95l316 318h-244l23 109h427l-20 -95l-315 -318h260zM554 749l-149 -155h-141l-91 155h120l52 -83l89 83h120z" />
    <glyph glyph-name="longs" unicode="&#x17f;" horiz-adv-x="273" 
d="M173 0h-140l117 553q11 45 27 77t40 52.5t56 30t76 9.5q43 0 74.5 -9.5t41.5 -14.5l-38 -97q-11 5 -27 9t-36 4q-33 0 -50.5 -17t-25.5 -55z" />
    <glyph glyph-name="florin" unicode="&#x192;" 
d="M251 -19q-14 -39 -30.5 -68.5t-40 -49t-55 -29t-76.5 -9.5q-38 0 -67.5 9t-46.5 18l43 101q14 -6 29 -10.5t34 -4.5q34 0 48.5 14.5t27.5 49.5l139 389h-77l31 114h86l16 45q28 79 78 119t139 40q32 0 61 -9t46 -18l-43 -101q-14 6 -29 10.5t-34 4.5q-34 0 -51.5 -14
t-31.5 -52l-9 -25h119l-31 -114h-128z" />
    <glyph glyph-name="Scommaaccent" unicode="&#x218;" horiz-adv-x="645" 
d="M625 228q0 -65 -20 -111.5t-58.5 -76.5t-93.5 -44t-124 -14q-56 0 -108.5 12.5t-93 42t-65.5 77.5t-27 119h151q5 -63 42 -94.5t112 -31.5q69 0 97.5 29t28.5 72q0 27 -18.5 49.5t-64.5 32.5l-78 16q-100 20 -146.5 71t-46.5 120q0 61 21 105.5t60 73t93.5 42.5t122.5 14
q56 0 103 -12.5t81.5 -39t55.5 -67.5t25 -98l-144 -18q-8 60 -38.5 86.5t-90.5 26.5q-39 0 -64.5 -7.5t-40.5 -20t-21 -28t-6 -30.5q0 -38 21 -57.5t61 -28.5l80 -18q54 -12 91.5 -31.5t60 -44.5t32.5 -54t10 -62zM113 -227l115 161h157l-144 -161h-128z" />
    <glyph glyph-name="scommaaccent" unicode="&#x219;" horiz-adv-x="537" 
d="M504 161q0 -52 -19.5 -86t-53 -54.5t-78.5 -28.5t-95 -8q-44 0 -84 9t-71 30t-50 55.5t-20 85.5h133q5 -42 31 -57t71 -15q47 0 69.5 13.5t22.5 45.5q0 19 -12.5 32.5t-45.5 20.5l-57 12q-43 9 -72.5 23.5t-47.5 33t-26 42t-8 50.5q0 44 17.5 76.5t48.5 54t74.5 32
t94.5 10.5q38 0 74.5 -8t65.5 -26.5t48.5 -49.5t23.5 -77l-128 -16q-2 16 -7.5 29t-15.5 23t-26 15.5t-40 5.5q-31 0 -49 -5.5t-27.5 -14t-12 -18.5t-2.5 -18q0 -22 15.5 -34t51.5 -20l53 -11q45 -9 74.5 -24t47.5 -34.5t25 -43t7 -50.5zM75 -221l108 155h149l-137 -155
h-120z" />
    <glyph glyph-name="uni021A" unicode="&#x21a;" horiz-adv-x="620" 
d="M479 585l-124 -585h-150l124 585h-215l27 129h580l-27 -129h-215zM75 -227l115 161h157l-144 -161h-128z" />
    <glyph glyph-name="uni021B" unicode="&#x21b;" horiz-adv-x="379" 
d="M241 177q-4 -16 -4 -30q0 -27 14 -36t35 -9q14 0 30.5 2.5t28.5 5.5l20 -103q-30 -10 -58 -13.5t-57 -3.5q-74 0 -114.5 33.5t-40.5 101.5q0 29 7 58l49 230h-82l23 109h82l30 139h140l-30 -139h120l-23 -109h-120zM12 -221l108 155h149l-137 -155h-120z" />
    <glyph glyph-name="dotlessj" unicode="&#x237;" horiz-adv-x="266" 
d="M144 522h140l-117 -545q-10 -45 -24.5 -76.5t-36.5 -50.5t-52.5 -27.5t-71.5 -8.5q-32 0 -61 6t-55 17l40 103q12 -5 27.5 -8.5t32.5 -3.5q26 0 41.5 14.5t24.5 55.5z" />
    <glyph glyph-name="apostrophe" unicode="&#x2bc;" horiz-adv-x="414" 
d="M97 460l87 254h136l-116 -254h-107z" />
    <glyph glyph-name="circumflex" unicode="&#x2c6;" horiz-adv-x="414" 
d="M112 594l149 155h141l91 -155h-120l-52 83l-89 -83h-120z" />
    <glyph glyph-name="caron" unicode="&#x2c7;" horiz-adv-x="414" 
d="M499 749l-149 -155h-141l-91 155h120l52 -83l89 83h120z" />
    <glyph glyph-name="uni02C9" unicode="&#x2c9;" horiz-adv-x="414" 
d="M171 719h292l-22 -107h-292z" />
    <glyph glyph-name="breve" unicode="&#x2d8;" horiz-adv-x="414" 
d="M294 591q-64 0 -101 31.5t-37 82.5q0 21 4 41h98q-2 -7 -2 -12.5v-10.5q0 -23 13.5 -34t34.5 -11q26 0 43.5 14t23.5 54h100q-12 -81 -57.5 -118t-119.5 -37z" />
    <glyph glyph-name="dotaccent" unicode="&#x2d9;" horiz-adv-x="414" 
d="M214 607l27 127h132l-27 -127h-132z" />
    <glyph glyph-name="ring" unicode="&#x2da;" horiz-adv-x="414" 
d="M183 701q0 28 9.5 49.5t25 35.5t36.5 21t44 7t44 -7t37 -21t25.5 -35.5t9.5 -49.5q0 -29 -9.5 -50t-25.5 -34.5t-37 -20.5t-44 -7t-44 7t-36.5 20.5t-25 34.5t-9.5 50zM255 701q0 -23 11.5 -34.5t31.5 -11.5t32 11.5t12 34.5q0 24 -12 35t-32 11t-31.5 -11t-11.5 -35z
" />
    <glyph glyph-name="ogonek" unicode="&#x2db;" horiz-adv-x="414" 
d="M431 -192q-21 -3 -48 -3q-20 0 -39.5 3t-36 11t-26.5 22.5t-10 37.5q0 38 24 67t71 54h109q-38 -20 -65.5 -40t-27.5 -45q0 -16 12 -20.5t27 -4.5h13.5t14.5 1z" />
    <glyph glyph-name="tilde" unicode="&#x2dc;" horiz-adv-x="414" 
d="M355 700q21 0 33 7.5t15 32.5h94q-6 -77 -38 -109t-87 -32q-20 0 -37 7t-31.5 15.5t-27.5 15.5t-25 7q-21 0 -33.5 -8.5t-15.5 -33.5h-94q6 77 38 109.5t87 32.5q19 0 36 -7t32 -15t28.5 -15t25.5 -7z" />
    <glyph glyph-name="hungarumlaut" unicode="&#x2dd;" horiz-adv-x="414" 
d="M79 594l147 155h145l-176 -155h-116zM275 594l147 155h145l-176 -155h-116z" />
    <glyph glyph-name="tonos" unicode="&#x384;" horiz-adv-x="414" 
d="M220 764h140l-140 -170h-115z" />
    <glyph glyph-name="dieresistonos" unicode="&#x385;" horiz-adv-x="414" 
d="M64 617l22 107h107l-22 -107h-107zM410 617l22 107h107l-22 -107h-107zM281 764h133l-111 -170h-104z" />
    <glyph glyph-name="Alphatonos" unicode="&#x386;" horiz-adv-x="709" 
d="M552 714l117 -714h-154l-22 165h-250l-92 -165h-160l419 714h142zM306 288h173l-33 256zM182 714h136l-117 -154h-111z" />
    <glyph glyph-name="Epsilontonos" unicode="&#x388;" horiz-adv-x="800" 
d="M512 587l-33 -156h318l-27 -128h-318l-38 -176h359l-41 -127h-493l151 714h487l-27 -127h-338zM183 714h136l-117 -154h-111z" />
    <glyph glyph-name="Etatonos" unicode="&#x389;" horiz-adv-x="923" 
d="M671 0l63 300h-283l-63 -300h-149l151 714h149l-58 -276h283l58 276h149l-151 -714h-149zM183 714h136l-117 -154h-111z" />
    <glyph glyph-name="Iotatonos" unicode="&#x38a;" horiz-adv-x="491" 
d="M219 0l151 714h149l-151 -714h-149zM183 714h136l-117 -154h-111z" />
    <glyph glyph-name="Omicrontonos" unicode="&#x38c;" horiz-adv-x="916" 
d="M626 732q69 0 122.5 -22.5t90 -62t55.5 -94.5t19 -120q0 -87 -25 -168.5t-74.5 -144.5t-124 -100.5t-172.5 -37.5q-69 0 -123 22t-91 62t-56.5 95t-19.5 121q0 86 26 167t76.5 144t125 101t171.5 38zM614 604q-60 0 -104 -28t-72.5 -73t-42.5 -101.5t-14 -112.5
q0 -83 36.5 -131t109.5 -48q60 0 103.5 28t72 73t42.5 101.5t14 113.5q0 81 -36 129.5t-109 48.5zM185 714h136l-117 -154h-111z" />
    <glyph glyph-name="Upsilontonos" unicode="&#x38e;" horiz-adv-x="883" 
d="M357 714h160l95 -289l218 289h164l-331 -423l-61 -291h-149l61 291zM190 714h136l-117 -154h-111z" />
    <glyph glyph-name="Omegatonos" unicode="&#x38f;" horiz-adv-x="863" 
d="M557 113q40 29 71 67.5t52.5 83.5t32.5 94.5t11 99.5q0 71 -33.5 113t-94.5 42q-66 0 -109.5 -28t-69.5 -73t-37 -101t-11 -111q0 -24 5.5 -50.5t14.5 -51.5t20.5 -47t24.5 -38l-24 -113h-270l25 120h125q-28 39 -46.5 89.5t-18.5 100.5q0 84 25 160.5t74 134.5
t120.5 92.5t164.5 34.5q60 0 109 -20t83.5 -55t53.5 -83.5t19 -106.5q0 -64 -13 -115t-35 -93t-52 -76t-63 -63h132l-39 -120h-271zM168 714h136l-117 -154h-111z" />
    <glyph glyph-name="iotadieresistonos" unicode="&#x390;" horiz-adv-x="318" 
d="M141 522h138l-76 -354q-3 -15 -3 -24q0 -19 9 -30.5t36 -11.5q12 0 25 2t23 4l10 -102q-17 -7 -42 -11.5t-68 -4.5q-38 0 -64 10t-41.5 27t-22 41t-6.5 53q0 26 6.5 53.5t13.5 59.5zM26 617l22 107h107l-22 -107h-107zM372 617l22 107h107l-22 -107h-107zM243 764h133
l-111 -170h-104z" />
    <glyph glyph-name="Alpha" unicode="&#x391;" horiz-adv-x="698" 
d="M541 714l117 -714h-154l-22 165h-250l-92 -165h-160l419 714h142zM295 288h173l-33 256z" />
    <glyph glyph-name="Beta" unicode="&#x392;" horiz-adv-x="647" 
d="M677 548q0 -74 -36 -115t-96 -63q45 -25 65.5 -58.5t20.5 -78.5q0 -53 -18 -95.5t-55.5 -73.5t-96 -47.5t-138.5 -16.5h-280l151 714h242q66 0 112 -13t74.5 -35.5t41.5 -53t13 -64.5zM404 431q24 0 46.5 4t40 14.5t27.5 29t10 46.5q0 33 -24.5 52.5t-86.5 19.5h-104
l-35 -166h126zM211 117h121q82 0 117.5 29t35.5 86q0 38 -25.5 58.5t-84.5 20.5h-122z" />
    <glyph glyph-name="Gamma" unicode="&#x393;" horiz-adv-x="541" 
d="M193 714h452l-28 -129h-303l-123 -585h-148z" />
    <glyph glyph-name="uni0394" unicode="&#x394;" horiz-adv-x="686" 
d="M394 714h141l111 -714h-666zM197 127h288l-50 424z" />
    <glyph glyph-name="Epsilon" unicode="&#x395;" horiz-adv-x="604" 
d="M316 587l-33 -156h318l-27 -128h-318l-38 -176h359l-41 -127h-493l151 714h487l-27 -127h-338z" />
    <glyph glyph-name="Zeta" unicode="&#x396;" horiz-adv-x="587" 
d="M529 0h-536l23 109l452 477h-344l27 128h528l-23 -110l-451 -476h366z" />
    <glyph glyph-name="Eta" unicode="&#x397;" horiz-adv-x="727" 
d="M475 0l63 300h-283l-63 -300h-149l151 714h149l-58 -276h283l58 276h149l-151 -714h-149z" />
    <glyph glyph-name="Theta" unicode="&#x398;" horiz-adv-x="780" 
d="M545 299h-243l27 139h243zM490 732q69 0 122.5 -22.5t90 -62t55.5 -94.5t19 -120q0 -87 -25 -168.5t-74.5 -144.5t-124 -100.5t-172.5 -37.5q-69 0 -123 22t-91 62t-56.5 95t-19.5 121q0 86 26 167t76.5 144t125 101t171.5 38zM478 604q-60 0 -104 -28t-72.5 -73
t-42.5 -101.5t-14 -112.5q0 -83 36.5 -131t109.5 -48q60 0 103.5 28t72 73t42.5 101.5t14 113.5q0 81 -36 129.5t-109 48.5z" />
    <glyph glyph-name="Iota" unicode="&#x399;" horiz-adv-x="295" 
d="M43 0l151 714h149l-151 -714h-149z" />
    <glyph glyph-name="Kappa" unicode="&#x39a;" horiz-adv-x="675" 
d="M358 354l-110 -93l-55 -261h-150l151 714h150l-59 -277l314 277h171l-296 -273l171 -441h-159z" />
    <glyph glyph-name="Lambda" unicode="&#x39b;" horiz-adv-x="697" 
d="M400 714h141l116 -714h-160l-68 505l-285 -505h-164z" />
    <glyph glyph-name="Mu" unicode="&#x39c;" horiz-adv-x="860" 
d="M343 0l-66 475l-100 -475h-134l151 714h175l67 -533l294 533h178l-151 -714h-137l101 476l-262 -476h-116z" />
    <glyph glyph-name="Nu" unicode="&#x39d;" horiz-adv-x="719" 
d="M491 0l-204 469l-99 -469h-145l151 714h127l201 -472l100 472h145l-151 -714h-125z" />
    <glyph glyph-name="Xi" unicode="&#x39e;" horiz-adv-x="580" 
d="M546 135l-42 -135h-493l27 135h508zM104 299l27 136h450l-27 -136h-450zM139 579l28 135h490l-29 -135h-489z" />
    <glyph glyph-name="Omicron" unicode="&#x39f;" horiz-adv-x="780" 
d="M490 732q69 0 122.5 -22.5t90 -62t55.5 -94.5t19 -120q0 -87 -25 -168.5t-74.5 -144.5t-124 -100.5t-172.5 -37.5q-69 0 -123 22t-91 62t-56.5 95t-19.5 121q0 86 26 167t76.5 144t125 101t171.5 38zM478 604q-60 0 -104 -28t-72.5 -73t-42.5 -101.5t-14 -112.5
q0 -83 36.5 -131t109.5 -48q60 0 103.5 28t72 73t42.5 101.5t14 113.5q0 81 -36 129.5t-109 48.5z" />
    <glyph glyph-name="Pi" unicode="&#x3a0;" horiz-adv-x="710" 
d="M582 585h-267l-123 -585h-149l151 714h564l-151 -714h-149z" />
    <glyph glyph-name="Rho" unicode="&#x3a1;" horiz-adv-x="640" 
d="M681 517q0 -68 -22 -117.5t-64 -81.5t-101.5 -47.5t-134.5 -15.5h-115l-54 -255h-147l151 714h246q66 0 111.5 -18.5t74.5 -47t42 -63.5t13 -68zM372 379q34 0 63 5.5t50 20t33 39t12 62.5q0 35 -25.5 60t-88.5 25h-101l-45 -212h102z" />
    <glyph glyph-name="Sigma" unicode="&#x3a3;" horiz-adv-x="587" 
d="M201 128h371l-41 -128h-530l22 109l255 265l-154 231l22 109h528l-27 -128h-355l145 -222z" />
    <glyph glyph-name="Tau" unicode="&#x3a4;" horiz-adv-x="620" 
d="M479 585l-124 -585h-150l124 585h-215l27 129h580l-27 -129h-215z" />
    <glyph glyph-name="Upsilon" unicode="&#x3a5;" horiz-adv-x="657" 
d="M131 714h160l95 -289l218 289h164l-331 -423l-61 -291h-149l61 291z" />
    <glyph glyph-name="Phi" unicode="&#x3a6;" horiz-adv-x="871" 
d="M324 0l19 92q-57 9 -104 28.5t-80 51t-51.5 75.5t-18.5 101q0 84 31.5 147t85 106t122.5 67t144 29l16 76h144l-17 -81q57 -8 104 -28t80.5 -52.5t52 -77.5t18.5 -104q0 -80 -32 -141.5t-85 -104.5t-123 -67.5t-145 -30.5l-18 -86h-143zM723 434q0 56 -31.5 94t-101.5 49
l-79 -372q110 13 161 74t51 155zM236 351q0 -60 32 -96.5t100 -47.5l78 370q-54 -6 -94 -25t-65.5 -48.5t-38 -68.5t-12.5 -84z" />
    <glyph glyph-name="Chi" unicode="&#x3a7;" horiz-adv-x="684" 
d="M471 370l179 -370h-163l-120 262l-221 -262h-170l328 378l-162 336h163l101 -230l198 230h167z" />
    <glyph glyph-name="Psi" unicode="&#x3a8;" horiz-adv-x="849" 
d="M323 0l38 180q-54 6 -98.5 24t-77 48t-50 72t-17.5 96q0 37 9 81l45 213h147l-46 -205q-5 -20 -7.5 -38.5t-2.5 -35.5q0 -26 6 -48.5t20.5 -40t38 -28.5t59.5 -15l87 411h149l-87 -412q37 3 67 14.5t54.5 35.5t43 63t31.5 96l46 203h147l-47 -216q-19 -85 -51 -144.5
t-78 -97t-106 -56.5t-134 -23l-37 -177h-149z" />
    <glyph glyph-name="Omega" unicode="&#x3a9;" horiz-adv-x="737" 
d="M431 113q40 29 71 67.5t52.5 83.5t32.5 94.5t11 99.5q0 71 -33.5 113t-94.5 42q-66 0 -109.5 -28t-69.5 -73t-37 -101t-11 -111q0 -24 5.5 -50.5t14.5 -51.5t20.5 -47t24.5 -38l-24 -113h-270l25 120h125q-28 39 -46.5 89.5t-18.5 100.5q0 84 25 160.5t74 134.5
t120.5 92.5t164.5 34.5q60 0 109 -20t83.5 -55t53.5 -83.5t19 -106.5q0 -64 -13 -115t-35 -93t-52 -76t-63 -63h132l-39 -120h-271z" />
    <glyph glyph-name="Iotadieresis" unicode="&#x3aa;" horiz-adv-x="295" 
d="M43 0l151 714h149l-151 -714h-149zM106 782l27 129h134l-27 -129h-134zM314 782l27 129h134l-27 -129h-134z" />
    <glyph glyph-name="Upsilondieresis" unicode="&#x3ab;" horiz-adv-x="657" 
d="M131 714h160l95 -289l218 289h164l-331 -423l-61 -291h-149l61 291zM282 782l27 129h134l-27 -129h-134zM490 782l27 129h134l-27 -129h-134z" />
    <glyph glyph-name="alphatonos" unicode="&#x3ac;" horiz-adv-x="706" 
d="M561 238l18 -74q3 -12 7 -24t10 -22t15 -16t23 -6q12 0 25 2.5t19 4.5l16 -96q-13 -7 -37.5 -15t-54.5 -8q-93 0 -118 93l-13 49q-27 -42 -53 -69.5t-52.5 -43.5t-55 -22.5t-61.5 -6.5q-40 0 -73.5 14.5t-57.5 42t-37.5 68t-13.5 92.5q0 62 17.5 124t52.5 110.5t88 77
t124 25.5q35 -2 62 -10.5t47.5 -27.5t35.5 -50t26 -77l79 149h137zM278 96q21 0 39.5 8t37.5 26t39.5 47.5t44.5 73.5q-13 85 -32.5 130t-63.5 45q-35 0 -59.5 -21.5t-40.5 -53.5t-23.5 -70.5t-7.5 -71.5q0 -57 19 -85t47 -28zM423 764h140l-140 -170h-115z" />
    <glyph glyph-name="epsilontonos" unicode="&#x3ad;" horiz-adv-x="558" 
d="M400 764h140l-140 -170h-115zM540 169q-7 -42 -25 -76t-48.5 -58t-76 -37.5t-108.5 -13.5q-61 0 -104 11.5t-70.5 31.5t-40.5 47.5t-13 60.5q0 55 29 92t87 53q-31 20 -43.5 46t-12.5 55q0 70 60 113.5t177 43.5q51 0 90 -12.5t65.5 -35t41 -52.5t18.5 -66l-124 -18
q-2 15 -7 29t-15.5 24.5t-28 17t-43.5 6.5q-21 0 -39.5 -3t-32.5 -9.5t-22 -18t-8 -28.5q0 -26 17.5 -41t53.5 -15h84l-17 -105h-93q-30 0 -49 -4.5t-30 -12.5t-15 -18.5t-4 -23.5q0 -20 8.5 -32t23 -18t33 -8t38.5 -2q49 0 78.5 18.5t36.5 58.5h129z" />
    <glyph glyph-name="etatonos" unicode="&#x3ae;" 
d="M324 -194l107 506q5 25 5 41q0 35 -16.5 51.5t-45.5 16.5q-27 0 -47 -7.5t-40 -23.5q-18 -14 -31 -33.5t-18 -42.5l-66 -314h-140l110 522h136l-15 -72q38 47 79.5 67.5t87.5 20.5q73 0 112 -39.5t39 -110.5q0 -32 -7 -64l-110 -518h-140zM436 764h140l-140 -170h-115z
" />
    <glyph glyph-name="iotatonos" unicode="&#x3af;" horiz-adv-x="318" 
d="M141 522h138l-76 -354q-3 -15 -3 -24q0 -19 9 -30.5t36 -11.5q12 0 25 2t23 4l10 -102q-17 -7 -42 -11.5t-68 -4.5q-38 0 -64 10t-41.5 27t-22 41t-6.5 53q0 26 6.5 53.5t13.5 59.5zM258 764h140l-140 -170h-115z" />
    <glyph glyph-name="upsilondieresistonos" unicode="&#x3b0;" horiz-adv-x="566" 
d="M127 522h140l-58 -269q-4 -17 -6.5 -37t-2.5 -35q0 -39 17 -60t61 -21q34 0 55.5 15.5t35 41t21 59t15.5 68.5l51 238h140l-64 -300q-13 -59 -31.5 -103.5t-49 -74.5t-74.5 -45t-108 -15q-57 0 -97 13t-64.5 37t-36 58t-11.5 75q0 22 3.5 47t8.5 48zM150 617l22 107h107
l-22 -107h-107zM496 617l22 107h107l-22 -107h-107zM367 764h133l-111 -170h-104z" />
    <glyph glyph-name="alpha" unicode="&#x3b1;" horiz-adv-x="706" 
d="M561 238l18 -74q3 -12 7 -24t10 -22t15 -16t23 -6q12 0 25 2.5t19 4.5l16 -96q-13 -7 -37.5 -15t-54.5 -8q-93 0 -118 93l-13 49q-27 -42 -53 -69.5t-52.5 -43.5t-55 -22.5t-61.5 -6.5q-40 0 -73.5 14.5t-57.5 42t-37.5 68t-13.5 92.5q0 62 17.5 124t52.5 110.5t88 77
t124 25.5q35 -2 62 -10.5t47.5 -27.5t35.5 -50t26 -77l79 149h137zM278 96q21 0 39.5 8t37.5 26t39.5 47.5t44.5 73.5q-13 85 -32.5 130t-63.5 45q-35 0 -59.5 -21.5t-40.5 -53.5t-23.5 -70.5t-7.5 -71.5q0 -57 19 -85t47 -28z" />
    <glyph glyph-name="beta" unicode="&#x3b2;" horiz-adv-x="612" 
d="M585 227q0 -51 -16 -95t-46 -76t-73.5 -50.5t-97.5 -18.5t-97.5 22.5t-69.5 65.5l-58 -269h-134l151 709q20 95 83.5 151t175.5 56q38 0 74 -10t64.5 -31t46 -53t17.5 -76q0 -58 -34 -103.5t-103 -63.5q24 -8 45 -21.5t37 -33t25.5 -45.5t9.5 -58zM450 219q0 48 -27 75
t-75 27h-41l22 107h47q42 0 67.5 33.5t25.5 82.5q0 32 -21.5 51t-53.5 19q-29 0 -49.5 -9t-35 -25.5t-23.5 -40t-15 -52.5l-51 -243q-5 -20 -5 -42q0 -34 18 -62q11 -17 34 -31.5t61 -14.5q57 0 89.5 34.5t32.5 90.5z" />
    <glyph glyph-name="gamma" unicode="&#x3b3;" horiz-adv-x="567" 
d="M134 -194l45 212l-99 504h154l47 -345l190 345h160l-312 -504l-45 -212h-140z" />
    <glyph glyph-name="delta" unicode="&#x3b4;" horiz-adv-x="595" 
d="M293 -16q-51 0 -94.5 15.5t-74.5 43t-48.5 66t-17.5 84.5q0 51 15 92t42 73.5t64.5 56.5t82.5 42q-35 27 -48 51.5t-13 61.5q0 39 18 68t48 47.5t68.5 27.5t78.5 9q43 0 79.5 -9t64 -28.5t44.5 -51.5t22 -77l-118 -15q-8 39 -32 57.5t-60 18.5q-25 0 -41 -4t-25 -11
t-12.5 -15.5t-3.5 -17.5q0 -12 5.5 -21.5t18 -20t33 -24t50.5 -34.5q39 -26 65.5 -52t43 -53.5t24 -58t7.5 -66.5q0 -52 -21 -98t-59 -81t-90.5 -55.5t-115.5 -20.5zM300 96q61 0 97.5 39.5t36.5 106.5q0 57 -25.5 90.5t-73.5 59.5q-63 -18 -99 -67.5t-36 -116.5
q0 -51 25 -81.5t75 -30.5z" />
    <glyph glyph-name="epsilon" unicode="&#x3b5;" horiz-adv-x="558" 
d="M540 169q-7 -42 -25 -76t-48.5 -58t-76 -37.5t-108.5 -13.5q-61 0 -104 11.5t-70.5 31.5t-40.5 47.5t-13 60.5q0 55 29 92t87 53q-31 20 -43.5 46t-12.5 55q0 70 60 113.5t177 43.5q51 0 90 -12.5t65.5 -35t41 -52.5t18.5 -66l-124 -18q-2 15 -7 29t-15.5 24.5t-28 17
t-43.5 6.5q-21 0 -39.5 -3t-32.5 -9.5t-22 -18t-8 -28.5q0 -26 17.5 -41t53.5 -15h84l-17 -105h-93q-30 0 -49 -4.5t-30 -12.5t-15 -18.5t-4 -23.5q0 -20 8.5 -32t23 -18t33 -8t38.5 -2q49 0 78.5 18.5t36.5 58.5h129z" />
    <glyph glyph-name="zeta" unicode="&#x3b6;" horiz-adv-x="499" 
d="M600 622q-59 -35 -128 -80t-128.5 -96t-99 -108t-39.5 -116q0 -47 21.5 -71t64.5 -39l77 -27q107 -38 107 -135q0 -25 -8 -47t-21.5 -41.5t-30.5 -36t-36 -30.5l-76 70q16 14 29 29t13 32t-9 29.5t-37 22.5l-77 27q-35 12 -65 29t-51.5 40t-33.5 53.5t-12 70.5
q0 69 29 128t75.5 109t105.5 91.5t119 77.5h-221l24 110h427z" />
    <glyph glyph-name="eta" unicode="&#x3b7;" 
d="M324 -194l107 506q5 25 5 41q0 35 -16.5 51.5t-45.5 16.5q-27 0 -47 -7.5t-40 -23.5q-18 -14 -31 -33.5t-18 -42.5l-66 -314h-140l110 522h136l-15 -72q38 47 79.5 67.5t87.5 20.5q73 0 112 -39.5t39 -110.5q0 -32 -7 -64l-110 -518h-140z" />
    <glyph glyph-name="theta" unicode="&#x3b8;" horiz-adv-x="603" 
d="M393 722q105 0 165 -66.5t60 -191.5q0 -50 -7 -105t-23 -108.5t-41.5 -101.5t-62.5 -85t-86.5 -58.5t-112.5 -21.5q-50 0 -91 16.5t-70 49t-45 80.5t-16 111q0 49 7 104t22.5 108.5t41 102t62 85.5t85.5 59t112 22zM292 96q32 0 58 15t46.5 42t35.5 64t26 82h-257
q-3 -36 -3 -65q0 -138 94 -138zM386 608q-32 0 -58 -15t-46.5 -41t-35.5 -62t-25 -79h256q2 14 2.5 29t0.5 29q0 69 -21.5 104t-72.5 35z" />
    <glyph glyph-name="iota" unicode="&#x3b9;" horiz-adv-x="318" 
d="M141 522h138l-76 -354q-3 -15 -3 -24q0 -19 9 -30.5t36 -11.5q12 0 25 2t23 4l10 -102q-17 -7 -42 -11.5t-68 -4.5q-38 0 -64 10t-41.5 27t-22 41t-6.5 53q0 26 6.5 53.5t13.5 59.5z" />
    <glyph glyph-name="kappa" unicode="&#x3ba;" horiz-adv-x="580" 
d="M32 0l110 522h137l-43 -202l243 202h163l-233 -202l137 -320h-148l-95 246l-98 -76l-36 -170h-137z" />
    <glyph glyph-name="lambda" unicode="&#x3bb;" horiz-adv-x="567" 
d="M308 559q-9 50 -67 50q-31 0 -59 -9l-16 108q20 7 49.5 11.5t57.5 4.5q77 0 113.5 -40t49.5 -112l102 -572h-157l-38 362l-204 -362h-156l331 525z" />
    <glyph glyph-name="uni03BC" unicode="&#x3bc;" 
d="M379 72q-23 -35 -53.5 -59.5t-80.5 -24.5q-46 0 -70 27l-45 -209h-140l152 716h140l-67 -316q-5 -23 -5 -37q-1 -68 60 -68q27 0 45.5 7.5t38.5 23.5q17 13 31.5 34t19.5 47l65 309h140l-110 -522h-136z" />
    <glyph glyph-name="nu" unicode="&#x3bd;" horiz-adv-x="567" 
d="M183 0l-95 522h157l41 -363l193 363h160l-316 -522h-140z" />
    <glyph glyph-name="xi" unicode="&#x3be;" horiz-adv-x="537" 
d="M393 87q55 -20 79.5 -54t24.5 -83q0 -25 -8 -47t-21.5 -41.5t-30.5 -36t-36 -30.5l-76 70q16 14 29 29t13 32t-11 31.5t-41 25.5l-97 34q-75 26 -114.5 69.5t-39.5 112.5q0 78 42 128.5t122 70.5q-33 18 -57.5 48.5t-24.5 84.5q0 51 19.5 88.5t53.5 62.5t78.5 37.5
t94.5 12.5q108 0 161.5 -45t60.5 -126l-124 -16q-9 44 -34 62.5t-67 18.5q-51 0 -80 -25t-29 -78q0 -17 5.5 -33t17 -29t29.5 -21t43 -8h100l-17 -109h-113q-69 0 -105 -26.5t-36 -73.5q0 -39 19.5 -60.5t65.5 -38.5z" />
    <glyph glyph-name="omicron" unicode="&#x3bf;" horiz-adv-x="610" 
d="M371 538q52 0 94 -17.5t71 -47.5t45 -70t16 -86q0 -80 -22.5 -142t-63 -104.5t-96 -64.5t-121.5 -22q-52 0 -94 17.5t-71.5 47.5t-45.5 70t-16 86q0 78 23 140t64 104.5t96.5 65.5t120.5 23zM361 426q-30 0 -57 -14t-47.5 -42t-32.5 -69t-12 -95q0 -52 24.5 -81t66.5 -29
q30 0 57 14t47.5 41.5t32.5 68.5t12 95q0 52 -24.5 81.5t-66.5 29.5z" />
    <glyph glyph-name="pi" unicode="&#x3c0;" horiz-adv-x="642" 
d="M428 410h-132l-87 -410h-140l87 410h-92l23 112h595l-23 -112h-93l-52 -243q-5 -23 -5 -34q0 -16 7.5 -26.5t27.5 -10.5q11 0 21 1t17 3l14 -101q-17 -6 -41.5 -10.5t-63.5 -4.5q-34 0 -57.5 8.5t-38 23t-21 34t-6.5 42.5q0 12 2 34t10 62z" />
    <glyph glyph-name="rho" unicode="&#x3c1;" horiz-adv-x="619" 
d="M91 273q30 141 102.5 203t181.5 62q52 0 95 -16.5t73.5 -47.5t47 -75.5t16.5 -100.5q0 -63 -20 -120t-54.5 -100t-81 -68.5t-100.5 -25.5t-94.5 19.5t-67.5 70.5l-57 -268h-140zM319 96q30 0 56 16.5t45.5 45t30.5 66t11 79.5q0 24 -5.5 46t-17 39.5t-29.5 27.5t-43 10
q-31 0 -54 -12.5t-39.5 -34t-27.5 -51.5t-18 -64l-5 -24q-3 -15 -3 -31q0 -19 4 -35.5t16 -35.5q14 -22 34.5 -32t44.5 -10z" />
    <glyph glyph-name="sigma1" unicode="&#x3c2;" horiz-adv-x="550" 
d="M378 91q55 -19 80 -55.5t25 -85.5q0 -25 -8 -47t-21.5 -41.5t-30.5 -36t-36 -30.5l-76 70q16 14 29 29t13 32t-12 34t-42 27l-79 25q-66 21 -109.5 72.5t-43.5 131.5q0 78 23 138.5t63 101t92.5 61.5t112.5 21q51 0 89 -13t63.5 -37t40 -58.5t17.5 -77.5l-140 -18
q-5 52 -24.5 72t-61.5 20q-24 0 -47 -13t-41.5 -38.5t-30 -62.5t-11.5 -85q0 -43 22 -69t64 -40z" />
    <glyph glyph-name="sigma" unicode="&#x3c3;" horiz-adv-x="615" 
d="M295 -16q-50 0 -91.5 15t-72 43.5t-47.5 69t-17 90.5q0 87 26.5 147.5t71.5 99t104.5 56t126.5 17.5h266l-22 -112h-126q30 -29 47.5 -69t17.5 -88q0 -66 -22 -116t-60.5 -84t-90.5 -51.5t-111 -17.5zM309 96q57 0 94 45.5t37 133.5q0 32 -8 69.5t-31 64.5h-19
q-36 0 -68 -11.5t-55 -35t-36.5 -59t-13.5 -83.5q0 -59 24.5 -91.5t75.5 -32.5z" />
    <glyph glyph-name="tau" unicode="&#x3c4;" horiz-adv-x="522" 
d="M351 410l-46 -216q-5 -22 -5 -38q0 -25 13.5 -40.5t50.5 -15.5q27 0 44.5 3.5t33.5 6.5l11 -103q-7 -2 -21 -5.5t-32.5 -6.5t-40.5 -5t-44 -2q-47 0 -77 12.5t-47.5 32.5t-24.5 43.5t-7 46.5q0 6 0.5 13t2 19.5t5 31.5t9.5 49l37 174h-149l23 112h475l-23 -112h-188z" />
    <glyph glyph-name="upsilon" unicode="&#x3c5;" horiz-adv-x="566" 
d="M127 522h140l-58 -269q-4 -17 -6.5 -37t-2.5 -35q0 -39 17 -60t61 -21q34 0 55.5 15.5t35 41t21 59t15.5 68.5l51 238h140l-64 -300q-13 -59 -31.5 -103.5t-49 -74.5t-74.5 -45t-108 -15q-57 0 -97 13t-64.5 37t-36 58t-11.5 75q0 22 3.5 47t8.5 48z" />
    <glyph glyph-name="phi" unicode="&#x3c6;" horiz-adv-x="796" 
d="M264 -194l39 185q-54 7 -98 27.5t-74.5 50.5t-47 69.5t-16.5 85.5q0 73 26.5 131.5t77.5 99t125 62t169 21.5q75 0 134 -18t100 -50t62.5 -78t21.5 -101q0 -69 -23.5 -124.5t-68 -95t-108 -61.5t-144.5 -25l-38 -179h-137zM207 235q0 -58 29.5 -95t89.5 -42l70 332
q-48 -3 -84 -19.5t-59 -43t-34.5 -60.5t-11.5 -72zM462 94q39 3 72.5 16t57.5 38t37.5 61.5t13.5 86.5q0 55 -29.5 88.5t-80.5 41.5z" />
    <glyph glyph-name="chi" unicode="&#x3c7;" horiz-adv-x="577" 
d="M495 522h156l-275 -337l62 -206q11 -38 25 -54t43 -16q21 0 50 9l18 -103q-18 -8 -47 -14t-60 -6q-62 0 -94 32t-48 82l-50 164l-199 -267h-156l309 395l-45 149q-11 38 -25.5 56t-43.5 18q-25 0 -49 -10l-16 104q18 8 45.5 14t58.5 6q33 0 56.5 -8.5t39.5 -23.5
t26.5 -36t18.5 -46l35 -122z" />
    <glyph glyph-name="psi" unicode="&#x3c8;" horiz-adv-x="798" 
d="M253 -194l39 185q-108 13 -167.5 66t-59.5 155q0 20 2 40.5t7 44.5l48 225h138l-50 -233q-5 -19 -6.5 -35.5t-1.5 -33.5q0 -49 24.5 -82.5t88.5 -39.5l90 424h140l-90 -422q37 3 67 14.5t52.5 34.5t39 59t28.5 90l48 224h138l-48 -225q-16 -76 -42.5 -131.5t-68 -93
t-100 -58t-137.5 -25.5l-39 -183h-140z" />
    <glyph glyph-name="omega" unicode="&#x3c9;" horiz-adv-x="814" 
d="M408 86q-15 -26 -30.5 -45t-36 -31.5t-46.5 -19t-62 -6.5q-44 0 -77 15t-54.5 41.5t-32.5 62.5t-11 79q0 52 14 102t38 96t56.5 86.5t69.5 74.5l105 -58q-29 -30 -54.5 -65t-44.5 -72.5t-30 -77t-11 -78.5q0 -17 3 -34t10.5 -30.5t19.5 -21.5t29 -8q27 0 43 12t25.5 31.5
t15 44.5t11.5 52l29 135h140l-29 -135q-7 -34 -7 -68q0 -32 16.5 -52t41.5 -20q30 0 50 19t32.5 50.5t17.5 71.5t5 81q0 57 -12.5 98.5t-26.5 69.5l118 53q10 -17 21 -41.5t20.5 -54t15.5 -62.5t6 -67q0 -67 -11.5 -127t-39 -105t-73.5 -71.5t-114 -26.5q-62 0 -97 26
t-53 76z" />
    <glyph glyph-name="iotadieresis" unicode="&#x3ca;" horiz-adv-x="318" 
d="M141 522h138l-76 -354q-3 -15 -3 -24q0 -19 9 -30.5t36 -11.5q12 0 25 2t23 4l10 -102q-17 -7 -42 -11.5t-68 -4.5q-38 0 -64 10t-41.5 27t-22 41t-6.5 53q0 26 6.5 53.5t13.5 59.5zM70 608l26 125h130l-26 -125h-130zM272 608l26 125h130l-26 -125h-130z" />
    <glyph glyph-name="upsilondieresis" unicode="&#x3cb;" horiz-adv-x="566" 
d="M127 522h140l-58 -269q-4 -17 -6.5 -37t-2.5 -35q0 -39 17 -60t61 -21q34 0 55.5 15.5t35 41t21 59t15.5 68.5l51 238h140l-64 -300q-13 -59 -31.5 -103.5t-49 -74.5t-74.5 -45t-108 -15q-57 0 -97 13t-64.5 37t-36 58t-11.5 75q0 22 3.5 47t8.5 48zM213 608l26 125h130
l-26 -125h-130zM415 608l26 125h130l-26 -125h-130z" />
    <glyph glyph-name="omicrontonos" unicode="&#x3cc;" horiz-adv-x="610" 
d="M422 764h140l-140 -170h-115zM371 538q52 0 94 -17.5t71 -47.5t45 -70t16 -86q0 -80 -22.5 -142t-63 -104.5t-96 -64.5t-121.5 -22q-52 0 -94 17.5t-71.5 47.5t-45.5 70t-16 86q0 78 23 140t64 104.5t96.5 65.5t120.5 23zM361 426q-30 0 -57 -14t-47.5 -42t-32.5 -69
t-12 -95q0 -52 24.5 -81t66.5 -29q30 0 57 14t47.5 41.5t32.5 68.5t12 95q0 52 -24.5 81.5t-66.5 29.5z" />
    <glyph glyph-name="upsilontonos" unicode="&#x3cd;" horiz-adv-x="566" 
d="M410 764h140l-140 -170h-115zM127 522h140l-58 -269q-4 -17 -6.5 -37t-2.5 -35q0 -39 17 -60t61 -21q34 0 55.5 15.5t35 41t21 59t15.5 68.5l51 238h140l-64 -300q-13 -59 -31.5 -103.5t-49 -74.5t-74.5 -45t-108 -15q-57 0 -97 13t-64.5 37t-36 58t-11.5 75q0 22 3.5 47
t8.5 48z" />
    <glyph glyph-name="omegatonos" unicode="&#x3ce;" horiz-adv-x="814" 
d="M418 86q-15 -26 -30.5 -45t-36 -31.5t-46.5 -19t-62 -6.5q-44 0 -77 15t-54.5 41.5t-32.5 62.5t-11 79q0 52 14 102t38 96t56.5 86.5t69.5 74.5l105 -58q-29 -30 -54.5 -65t-44.5 -72.5t-30 -77t-11 -78.5q0 -17 3 -34t10.5 -30.5t19.5 -21.5t29 -8q27 0 43 12t25.5 31.5
t15 44.5t11.5 52l29 135h140l-29 -135q-7 -34 -7 -68q0 -32 16.5 -52t41.5 -20q30 0 50 19t32.5 50.5t17.5 71.5t5 81q0 57 -12.5 98.5t-26.5 69.5l118 53q10 -17 21 -41.5t20.5 -54t15.5 -62.5t6 -67q0 -67 -11.5 -127t-39 -105t-73.5 -71.5t-114 -26.5q-62 0 -97 26
t-53 76zM533 764h140l-140 -170h-115z" />
    <glyph glyph-name="uni0400" unicode="&#x400;" horiz-adv-x="604" 
d="M316 587l-33 -156h318l-27 -128h-318l-38 -176h359l-41 -127h-493l151 714h487l-27 -127h-338zM424 772l-128 145h156l98 -145h-126z" />
    <glyph glyph-name="afii10023" unicode="&#x401;" horiz-adv-x="604" 
d="M316 587l-33 -156h318l-27 -128h-318l-38 -176h359l-41 -127h-493l151 714h487l-27 -127h-338zM278 782l27 129h134l-27 -129h-134zM486 782l27 129h134l-27 -129h-134z" />
    <glyph glyph-name="afii10051" unicode="&#x402;" horiz-adv-x="825" 
d="M425 425q28 8 69 14t83 6q51 0 93.5 -12t74 -36.5t49 -61.5t17.5 -88q0 -59 -18 -104.5t-57 -77.5t-100.5 -48.5t-148.5 -16.5h-56l27 125h47q68 0 110.5 24.5t42.5 81.5q0 45 -28.5 68t-97.5 23q-26 0 -46 -2t-35.5 -5t-27.5 -7t-23 -7l-65 -301h-149l124 585h-200
l27 129h599l-27 -129h-250z" />
    <glyph glyph-name="afii10052" unicode="&#x403;" horiz-adv-x="535" 
d="M182 714h452l-28 -129h-303l-123 -585h-148zM298 772l157 145h169l-190 -145h-136z" />
    <glyph glyph-name="afii10053" unicode="&#x404;" horiz-adv-x="725" 
d="M528 303h-280v-14q0 -38 9 -70.5t27.5 -56.5t46.5 -38t66 -14q70 0 104 29t51 81h156q-29 -116 -108.5 -177t-217.5 -61q-70 0 -124 23.5t-90.5 66t-55.5 101.5t-19 131q0 81 24.5 158t72.5 137t118.5 96.5t162.5 36.5q117 0 188 -52.5t88 -158.5l-150 -21
q-11 54 -42.5 79t-88.5 25q-32 0 -62 -8.5t-56.5 -29t-48.5 -53.5t-36 -82h291z" />
    <glyph glyph-name="afii10054" unicode="&#x405;" horiz-adv-x="645" 
d="M625 228q0 -65 -20 -111.5t-58.5 -76.5t-93.5 -44t-124 -14q-56 0 -108.5 12.5t-93 42t-65.5 77.5t-27 119h151q5 -63 42 -94.5t112 -31.5q69 0 97.5 29t28.5 72q0 27 -18.5 49.5t-64.5 32.5l-78 16q-100 20 -146.5 71t-46.5 120q0 61 21 105.5t60 73t93.5 42.5t122.5 14
q56 0 103 -12.5t81.5 -39t55.5 -67.5t25 -98l-144 -18q-8 60 -38.5 86.5t-90.5 26.5q-39 0 -64.5 -7.5t-40.5 -20t-21 -28t-6 -30.5q0 -38 21 -57.5t61 -28.5l80 -18q54 -12 91.5 -31.5t60 -44.5t32.5 -54t10 -62z" />
    <glyph glyph-name="afii10055" unicode="&#x406;" horiz-adv-x="295" 
d="M43 0l151 714h149l-151 -714h-149z" />
    <glyph glyph-name="afii10056" unicode="&#x407;" horiz-adv-x="295" 
d="M43 0l151 714h149l-151 -714h-149zM106 782l27 129h134l-27 -129h-134zM314 782l27 129h134l-27 -129h-134z" />
    <glyph glyph-name="afii10057" unicode="&#x408;" horiz-adv-x="636" 
d="M591 232q-14 -67 -38.5 -114.5t-61 -77.5t-85 -44t-111.5 -14q-53 0 -97.5 13.5t-77 40.5t-51 66.5t-18.5 92.5q0 12 1 24.5t3 26.5h148q-1 -9 -1 -15.5v-14.5q0 -46 22 -76t82 -30q33 0 56 10.5t39.5 30t26.5 47.5t18 62l97 454h149z" />
    <glyph glyph-name="afii10058" unicode="&#x409;" horiz-adv-x="1069" 
d="M381 319q-26 -84 -57 -146t-72 -102t-94.5 -59.5t-124.5 -19.5h-42l26 127h16q37 0 67 12t56 41.5t49 80t47 127.5l104 334h427l-52 -245h84q114 0 179 -53.5t65 -152.5q0 -128 -86.5 -195.5t-242.5 -67.5h-248l125 589h-142zM704 345l-47 -222h100q75 0 114.5 31.5
t39.5 100.5q0 42 -28 66t-89 24h-90z" />
    <glyph glyph-name="afii10059" unicode="&#x40a;" horiz-adv-x="1040" 
d="M526 320h-267l-68 -320h-148l150 714h149l-56 -265h268l56 265h149l-55 -265h78q57 0 102.5 -14t78 -40.5t50 -64t17.5 -83.5q0 -124 -82 -185.5t-238 -61.5h-251zM676 320l-42 -197h94q37 0 66 5.5t48.5 18.5t29.5 35.5t10 57.5q0 36 -28 58t-89 22h-89z" />
    <glyph glyph-name="afii10060" unicode="&#x40b;" horiz-adv-x="825" 
d="M741 0h-149l35 163q7 35 7.5 64t-10.5 49.5t-34.5 31.5t-62.5 11q-34 0 -70 -7t-59 -17l-63 -295h-149l124 585h-200l27 129h599l-27 -129h-250l-38 -178q33 14 74.5 22t83.5 8q58 0 101.5 -18t70 -51t34.5 -79.5t-4 -104.5z" />
    <glyph glyph-name="afii10061" unicode="&#x40c;" horiz-adv-x="681" 
d="M399 772l157 145h169l-190 -145h-136zM281 422h28q22 0 41 8t36 22.5t32.5 33t32.5 39.5l56 72q21 27 42 48.5t44.5 36.5t50.5 23.5t60 8.5q22 0 44 -4t32 -7l-34 -119q-10 2 -21 3.5t-19 1.5q-33 0 -54.5 -20.5t-42.5 -48.5l-47 -61q-24 -31 -50.5 -54.5t-65.5 -37.5
q36 -14 55 -44.5t36 -67.5l118 -255h-158l-104 230q-17 36 -38 53.5t-59 17.5h-40l-65 -301h-148l150 714h149z" />
    <glyph glyph-name="uni040D" unicode="&#x40d;" horiz-adv-x="713" 
d="M609 0h-145l100 464l-388 -464h-133l150 714h145l-99 -469l388 469h134zM448 772l-128 145h156l98 -145h-126z" />
    <glyph glyph-name="afii10062" unicode="&#x40e;" horiz-adv-x="625" 
d="M386 929q-1 -5 -1 -8.5v-7.5q0 -9 3 -19t11 -17.5t22 -12.5t37 -5q38 0 61.5 16t33.5 54h100q-7 -34 -21.5 -62.5t-39 -49.5t-60 -32.5t-83.5 -11.5q-33 0 -63 7t-52.5 22t-36 39t-13.5 59q0 11 1 18t2 11h99zM53 114q14 -5 37.5 -10t45.5 -5q41 0 70 19.5t58 64.5l19 29
l-156 502h153l97 -368l220 368h153l-342 -544q-31 -49 -59.5 -84.5t-60 -58.5t-68 -34t-81.5 -11q-21 0 -41 2t-37 5t-30 7t-19 7z" />
    <glyph glyph-name="afii10145" unicode="&#x40f;" horiz-adv-x="710" 
d="M219 129h265l125 585h149l-152 -714h-216l-37 -173h-130l37 173h-217l152 714h149z" />
    <glyph glyph-name="afii10017" unicode="&#x410;" horiz-adv-x="698" 
d="M541 714l117 -714h-154l-22 165h-250l-92 -165h-160l419 714h142zM295 288h173l-33 256z" />
    <glyph glyph-name="afii10018" unicode="&#x411;" horiz-adv-x="637" 
d="M193 714h436l-26 -129h-289l-26 -127h89q114 0 179 -52.5t65 -147.5q0 -125 -86.5 -191.5t-242.5 -66.5h-249zM262 335l-44 -212h99q75 0 114 30.5t39 96.5q0 38 -28 61.5t-89 23.5h-91z" />
    <glyph glyph-name="afii10019" unicode="&#x412;" horiz-adv-x="647" 
d="M677 548q0 -74 -36 -115t-96 -63q45 -25 65.5 -58.5t20.5 -78.5q0 -53 -18 -95.5t-55.5 -73.5t-96 -47.5t-138.5 -16.5h-280l151 714h242q66 0 112 -13t74.5 -35.5t41.5 -53t13 -64.5zM404 431q24 0 46.5 4t40 14.5t27.5 29t10 46.5q0 33 -24.5 52.5t-86.5 19.5h-104
l-35 -166h126zM211 117h121q82 0 117.5 29t35.5 86q0 38 -25.5 58.5t-84.5 20.5h-122z" />
    <glyph glyph-name="afii10020" unicode="&#x413;" horiz-adv-x="541" 
d="M193 714h452l-28 -129h-303l-123 -585h-148z" />
    <glyph glyph-name="afii10021" unicode="&#x414;" horiz-adv-x="763" 
d="M114 0l-37 -173h-130l64 302h79q38 28 70 73t59.5 101t50.5 120t44 129l51 162h429l-124 -585h78l-64 -302h-130l37 173h-477zM440 500q-18 -56 -36.5 -108.5t-40.5 -100t-47.5 -89t-57.5 -73.5h263l98 460h-151z" />
    <glyph glyph-name="afii10022" unicode="&#x415;" horiz-adv-x="604" 
d="M316 587l-33 -156h318l-27 -128h-318l-38 -176h359l-41 -127h-493l151 714h487l-27 -127h-338z" />
    <glyph glyph-name="afii10024" unicode="&#x416;" horiz-adv-x="1059" 
d="M489 302h-31q-23 0 -41.5 -11.5t-42.5 -39.5l-212 -251h-185l251 294q29 33 54.5 51.5t53.5 26.5q-27 12 -44.5 35.5t-28.5 58.5l-21 65q-9 29 -25 45.5t-53 16.5q-6 0 -12 -0.5t-11 -0.5q-5 -1 -10 -1l20 114q24 6 39 7.5t35 1.5q54 0 84 -27t48 -78l35 -101
q15 -42 39.5 -64.5t62.5 -22.5h19l62 293h149l-62 -293h19q29 0 61.5 17.5t66.5 69.5l68 104q38 59 82.5 80.5t104.5 21.5q28 0 45 -2.5t33 -7.5l-34 -119l-10 2t-11.5 1.5t-13.5 0.5q-32 0 -51.5 -12.5t-41.5 -47.5l-48 -75q-24 -39 -49 -57.5t-52 -29.5q24 -13 42 -42.5
t32 -61.5l114 -263h-167l-101 243q-11 26 -27.5 42.5t-53.5 16.5h-32l-65 -302h-149z" />
    <glyph glyph-name="afii10025" unicode="&#x417;" horiz-adv-x="647" 
d="M198 220q5 -35 14.5 -57.5t26 -36t41.5 -19t61 -5.5q66 0 100.5 28t34.5 92q0 43 -33.5 64.5t-105.5 21.5h-70l25 119h78q35 0 64.5 6t50.5 18.5t33 33.5t12 51q0 38 -32 57.5t-79 19.5q-35 0 -61 -5t-45.5 -16t-34 -30t-24.5 -47l-135 18q32 102 106 150.5t205 48.5
q51 0 95.5 -12.5t76.5 -35.5t50.5 -57.5t18.5 -77.5q0 -71 -38 -113.5t-98 -64.5q39 -23 63.5 -60t24.5 -86q0 -57 -21 -102.5t-58.5 -76.5t-89.5 -47.5t-115 -16.5q-134 0 -204.5 58t-76.5 180h140z" />
    <glyph glyph-name="afii10026" unicode="&#x418;" horiz-adv-x="713" 
d="M609 0h-145l100 464l-388 -464h-133l150 714h145l-99 -469l388 469h134z" />
    <glyph glyph-name="afii10027" unicode="&#x419;" horiz-adv-x="713" 
d="M432 929q-1 -5 -1 -8.5v-7.5q0 -9 3 -19t11 -17.5t22 -12.5t37 -5q38 0 61.5 16t33.5 54h100q-7 -34 -21.5 -62.5t-39 -49.5t-60 -32.5t-83.5 -11.5q-33 0 -63 7t-52.5 22t-36 39t-13.5 59q0 11 1 18t2 11h99zM609 0h-145l100 464l-388 -464h-133l150 714h145l-99 -469
l388 469h134z" />
    <glyph glyph-name="afii10028" unicode="&#x41a;" horiz-adv-x="681" 
d="M281 422h28q22 0 41 8t36 22.5t32.5 33t32.5 39.5l56 72q21 27 42 48.5t44.5 36.5t50.5 23.5t60 8.5q22 0 44 -4t32 -7l-34 -119q-10 2 -21 3.5t-19 1.5q-33 0 -54.5 -20.5t-42.5 -48.5l-47 -61q-24 -31 -50.5 -54.5t-65.5 -37.5q36 -14 55 -44.5t36 -67.5l118 -255h-158
l-104 230q-17 36 -38 53.5t-59 17.5h-40l-65 -301h-148l150 714h149z" />
    <glyph glyph-name="afii10029" unicode="&#x41b;" horiz-adv-x="757" 
d="M629 589h-164l-84 -270q-26 -84 -57 -146t-72 -102t-94.5 -59.5t-124.5 -19.5h-42l26 127h16q37 0 67 12t56 41.5t49 80t47 127.5l104 334h449l-152 -714h-149z" />
    <glyph glyph-name="afii10030" unicode="&#x41c;" horiz-adv-x="860" 
d="M343 0l-66 475l-100 -475h-134l151 714h175l67 -533l294 533h178l-151 -714h-137l101 476l-262 -476h-116z" />
    <glyph glyph-name="afii10031" unicode="&#x41d;" horiz-adv-x="727" 
d="M475 0l63 300h-283l-63 -300h-149l151 714h149l-58 -276h283l58 276h149l-151 -714h-149z" />
    <glyph glyph-name="afii10032" unicode="&#x41e;" horiz-adv-x="780" 
d="M490 732q69 0 122.5 -22.5t90 -62t55.5 -94.5t19 -120q0 -87 -25 -168.5t-74.5 -144.5t-124 -100.5t-172.5 -37.5q-69 0 -123 22t-91 62t-56.5 95t-19.5 121q0 86 26 167t76.5 144t125 101t171.5 38zM478 604q-60 0 -104 -28t-72.5 -73t-42.5 -101.5t-14 -112.5
q0 -83 36.5 -131t109.5 -48q60 0 103.5 28t72 73t42.5 101.5t14 113.5q0 81 -36 129.5t-109 48.5z" />
    <glyph glyph-name="afii10033" unicode="&#x41f;" horiz-adv-x="710" 
d="M582 585h-267l-123 -585h-149l151 714h564l-151 -714h-149z" />
    <glyph glyph-name="afii10034" unicode="&#x420;" horiz-adv-x="640" 
d="M681 517q0 -68 -22 -117.5t-64 -81.5t-101.5 -47.5t-134.5 -15.5h-115l-54 -255h-147l151 714h246q66 0 111.5 -18.5t74.5 -47t42 -63.5t13 -68zM372 379q34 0 63 5.5t50 20t33 39t12 62.5q0 35 -25.5 60t-88.5 25h-101l-45 -212h102z" />
    <glyph glyph-name="afii10035" unicode="&#x421;" horiz-adv-x="713" 
d="M592 465q-4 33 -12 59t-24 43.5t-40 27t-59 9.5q-50 0 -89 -24t-66 -64t-41.5 -92.5t-14.5 -109.5q0 -42 7 -79t24.5 -64.5t45.5 -44t70 -16.5q73 0 110 35t49 102h160q-12 -61 -35.5 -110t-62 -83.5t-95.5 -53t-136 -18.5q-78 0 -133.5 25.5t-91.5 69.5t-52.5 102.5
t-16.5 124.5q0 84 26 161.5t74.5 137t117.5 94.5t155 35q70 0 121 -18t84.5 -50.5t51 -78t21.5 -100.5z" />
    <glyph glyph-name="afii10036" unicode="&#x422;" horiz-adv-x="620" 
d="M479 585l-124 -585h-150l124 585h-215l27 129h580l-27 -129h-215z" />
    <glyph glyph-name="afii10037" unicode="&#x423;" horiz-adv-x="625" 
d="M53 114q14 -5 37.5 -10t45.5 -5q41 0 70 19.5t58 64.5l19 29l-156 502h153l97 -368l220 368h153l-342 -544q-31 -49 -59.5 -84.5t-60 -58.5t-68 -34t-81.5 -11q-21 0 -41 2t-37 5t-30 7t-19 7z" />
    <glyph glyph-name="afii10038" unicode="&#x424;" horiz-adv-x="861" 
d="M321 0l19 92q-57 9 -104 28.5t-80 51t-51.5 75.5t-18.5 101q0 84 31.5 147t85 106t122.5 67t144 29l16 76h144l-17 -81q57 -8 104 -28t80.5 -52.5t52 -77.5t18.5 -104q0 -80 -32 -141.5t-85 -104.5t-123 -67.5t-145 -30.5l-18 -86h-143zM720 434q0 56 -31.5 94t-101.5 49
l-79 -372q110 13 161 74t51 155zM233 351q0 -60 32 -96.5t100 -47.5l78 370q-54 -6 -94 -25t-65.5 -48.5t-38 -68.5t-12.5 -84z" />
    <glyph glyph-name="afii10039" unicode="&#x425;" horiz-adv-x="684" 
d="M471 370l179 -370h-163l-120 262l-221 -262h-170l328 378l-162 336h163l101 -230l198 230h167z" />
    <glyph glyph-name="afii10040" unicode="&#x426;" horiz-adv-x="733" 
d="M43 0l151 714h149l-124 -585h260l124 585h149l-124 -585h82l-64 -302h-130l37 173h-510z" />
    <glyph glyph-name="afii10041" unicode="&#x427;" horiz-adv-x="678" 
d="M487 289q-33 -14 -74 -22t-83 -8q-58 0 -101.5 18t-70 51t-34.5 79.5t4 104.5l43 202h149l-38 -181q-8 -35 -8 -64t11 -49.5t34.5 -31.5t62.5 -11q34 0 70 7t59 17l66 313h149l-151 -714h-149z" />
    <glyph glyph-name="afii10042" unicode="&#x428;" horiz-adv-x="1019" 
d="M580 129h214l124 585h149l-151 -714h-873l150 714h149l-124 -585h213l124 585h149z" />
    <glyph glyph-name="afii10043" unicode="&#x429;" horiz-adv-x="1048" 
d="M43 0l150 714h149l-124 -585h213l124 585h149l-124 -585h214l124 585h149l-124 -585h82l-64 -302h-130l37 173h-825z" />
    <glyph glyph-name="afii10044" unicode="&#x42a;" horiz-adv-x="740" 
d="M257 585h-151l28 129h300l-52 -245h104q114 0 179 -55t65 -154q0 -128 -86.5 -194t-242.5 -66h-266zM356 345l-46 -222h119q75 0 114 31.5t39 100.5q0 42 -28 66t-89 24h-109z" />
    <glyph glyph-name="afii10045" unicode="&#x42b;" horiz-adv-x="929" 
d="M828 714h149l-151 -714h-149zM376 469q114 0 179 -55t65 -154q0 -128 -86.5 -194t-242.5 -66h-248l150 714h149l-52 -245h86zM264 345l-47 -222h101q75 0 114.5 31.5t39.5 100.5q0 42 -28 66t-89 24h-91z" />
    <glyph glyph-name="afii10046" unicode="&#x42c;" horiz-adv-x="643" 
d="M193 714h149l-52 -245h104q114 0 179 -55t65 -154q0 -128 -86.5 -194t-242.5 -66h-266zM264 345l-47 -222h119q75 0 114.5 31.5t39.5 100.5q0 42 -28 66t-89 24h-109z" />
    <glyph glyph-name="afii10047" unicode="&#x42d;" horiz-adv-x="710" 
d="M555 431q0 46 -11 78.5t-31 53.5t-47.5 31t-59.5 10q-62 0 -101.5 -24t-65.5 -83l-138 26q40 108 117 158.5t194 50.5q79 0 135 -24t91.5 -66.5t52 -102t16.5 -130.5q0 -89 -22 -167t-66.5 -136t-112.5 -91t-159 -33q-57 0 -106.5 14.5t-88 44t-63 74t-30.5 105.5h146
q7 -36 22 -57.5t35.5 -33t45.5 -15.5t53 -4q39 0 69 14t52.5 39.5t38 61t24.5 78.5h-293l27 128h276z" />
    <glyph glyph-name="afii10048" unicode="&#x42e;" horiz-adv-x="1096" 
d="M812 732q67 0 119 -22.5t88 -62t55 -94.5t19 -120q0 -87 -25 -168.5t-74 -144.5t-122 -100.5t-169 -37.5q-67 0 -119 22t-88 62t-54.5 95t-18.5 121v22h-170l-64 -304h-146l150 714h147l-60 -285h162q17 63 49.5 118t79 96.5t107 65t134.5 23.5zM800 604
q-58 0 -100.5 -28t-70.5 -73t-42 -101.5t-14 -112.5q0 -83 35.5 -131t104.5 -48q58 0 100.5 28t70.5 73t41.5 101.5t13.5 113.5q0 81 -35 129.5t-104 48.5z" />
    <glyph glyph-name="afii10049" unicode="&#x42f;" horiz-adv-x="685" 
d="M583 0h-149l57 268h-69q-27 0 -46 -5.5t-33.5 -15.5t-25.5 -23.5t-21 -29.5l-124 -194h-177l132 200q15 22 28 39.5t26.5 30.5t28.5 22.5t33 17.5q-49 25 -75.5 68t-26.5 103q0 119 83 176t234 57h275zM517 392l42 199h-117q-78 0 -114 -25t-36 -91q0 -35 26.5 -59
t73.5 -24h125z" />
    <glyph glyph-name="afii10065" unicode="&#x430;" horiz-adv-x="561" 
d="M183 -13q-69 0 -110 37t-41 110q0 58 25 94t65.5 56.5t92 29t103.5 10.5l89 4l4 21q3 15 3 28q0 32 -20 48t-57 16q-44 0 -69.5 -13.5t-39.5 -49.5l-125 12q25 85 86.5 120t162.5 35q93 0 143.5 -40.5t51.5 -119.5q0 -14 -1.5 -30t-5.5 -33l-67 -322h-132l14 66
q-19 -19 -37 -34t-38 -25t-43.5 -15t-53.5 -5zM387 238l-68 -4q-43 -3 -71 -9.5t-44.5 -17.5t-23.5 -26.5t-7 -34.5q0 -24 15.5 -39t43.5 -15q27 0 49 6.5t42 20.5q22 14 37 36t21 53z" />
    <glyph glyph-name="afii10066" unicode="&#x431;" horiz-adv-x="626" 
d="M310 -16q-61 0 -105.5 17.5t-73 49.5t-42.5 77t-14 100q0 46 7 94t21.5 93.5t38 87.5t56.5 77q44 46 114.5 80.5t170.5 49.5l137 21l-7 -115l-96 -15q-45 -7 -80 -15.5t-62 -20t-47.5 -25t-37.5 -31.5q-20 -21 -33.5 -45t-23.5 -46q32 35 78.5 57t96.5 22q46 0 82 -15.5
t61.5 -42.5t39 -63.5t13.5 -78.5q0 -149 -76.5 -231t-217.5 -82zM369 385q-16 0 -37.5 -3.5t-44.5 -17.5q-39 -25 -55 -69t-16 -92q0 -46 26.5 -76.5t71.5 -30.5q37 0 64.5 15.5t45.5 42t27 60.5t9 71q0 49 -27.5 74.5t-63.5 25.5z" />
    <glyph glyph-name="afii10067" unicode="&#x432;" horiz-adv-x="568" 
d="M567 406q0 -54 -22 -86t-76 -49q39 -17 55 -46t16 -67q0 -73 -51.5 -115.5t-166.5 -42.5h-290l112 528h251q45 0 77.5 -10.5t53.5 -27.5t31 -39t10 -45zM351 313q15 0 30 3t26.5 9.5t18.5 18.5t7 30q0 19 -14.5 33t-49.5 14h-113l-23 -108h118zM190 108h114q52 0 74 15.5
t22 48.5q0 23 -16.5 36t-48.5 13h-121z" />
    <glyph glyph-name="afii10068" unicode="&#x433;" horiz-adv-x="447" 
d="M513 528l-25 -117h-229l-87 -411h-140l112 528h369z" />
    <glyph glyph-name="afii10069" unicode="&#x434;" horiz-adv-x="624" 
d="M632 528l-86 -412h65l-55 -256h-120l29 140h-361l-29 -140h-119l54 256h54q41 27 78.5 106t73.5 200l31 106h385zM324 337q-24 -81 -54 -139.5t-52 -81.5h189l62 302h-121z" />
    <glyph glyph-name="afii10070" unicode="&#x435;" horiz-adv-x="589" 
d="M349 438q-20 0 -40 -5t-37 -18t-31 -35.5t-23 -56.5h216q3 15 3 29q0 41 -24 63.5t-64 22.5zM207 231q-1 -5 -1 -10v-10q0 -57 27 -87.5t75 -30.5q42 0 67 15t36 55h136q-21 -88 -81.5 -133.5t-172.5 -45.5q-52 0 -94 16t-71 45.5t-45 71t-16 91.5q0 79 22 141.5
t61 105.5t93 65.5t119 22.5q49 0 88 -15t66 -42t41 -63.5t14 -79.5q0 -19 -2 -43t-8 -51l-4 -18h-350z" />
    <glyph glyph-name="afii10072" unicode="&#x436;" horiz-adv-x="842" 
d="M539 312q26 0 45.5 17t37.5 44l45 69q56 86 161 86q20 0 38.5 -3.5t26.5 -7.5l-30 -101q-4 1 -9 2t-10.5 2t-12.5 1q-23 0 -37.5 -12.5t-28.5 -32.5l-34 -52q-29 -42 -67 -53q30 -11 44.5 -33t22.5 -43l72 -195h-142l-51 156q-21 61 -81 61h-24l-47 -217h-132l47 217h-29
q-29 0 -48.5 -14.5t-44.5 -46.5l-118 -156h-153l153 196q29 37 55 54.5t55 23.5q-17 8 -26 22t-16 32l-18 46q-19 47 -62 47q-10 0 -20 -2q-4 -1 -9 -1l10 102q6 2 16 4q8 2 19.5 3t25.5 1q44 0 73 -23t46 -62l30 -68q13 -29 25 -46t36 -17h20l46 216h132l-46 -216h14z" />
    <glyph glyph-name="afii10073" unicode="&#x437;" horiz-adv-x="554" 
d="M340 543q102 0 156 -37t54 -99q0 -51 -27 -83t-74 -48q34 -14 55.5 -43t21.5 -74q0 -44 -17.5 -76.5t-50 -54t-78 -32t-101.5 -10.5q-109 0 -172 45.5t-73 142.5h134q5 -40 35.5 -58.5t75.5 -18.5q32 0 52.5 5.5t32 15t16 22t4.5 26.5q0 30 -22 42t-60 12h-98l20 94h107
q37 0 60 15t23 47q0 30 -23.5 44t-58.5 14q-50 0 -81.5 -17.5t-45.5 -60.5l-129 22q28 86 93.5 125.5t170.5 39.5z" />
    <glyph glyph-name="afii10074" unicode="&#x438;" horiz-adv-x="583" 
d="M361 0l67 312l-275 -312h-121l113 528h127l-71 -331l286 331h114l-113 -528h-127z" />
    <glyph glyph-name="afii10075" unicode="&#x439;" horiz-adv-x="583" 
d="M327 747q-1 -5 -1 -8.5v-7.5q0 -9 3 -19t11 -17.5t22 -12.5t37 -5q38 0 61.5 16t33.5 54h100q-7 -34 -21.5 -62.5t-39 -49.5t-60 -32.5t-83.5 -11.5q-33 0 -63 7t-52.5 22t-36 39t-13.5 59q0 11 1 18t2 11h99zM361 0l67 312l-275 -312h-121l113 528h127l-71 -331l286 331
h114l-113 -528h-127z" />
    <glyph glyph-name="afii10076" unicode="&#x43a;" horiz-adv-x="559" 
d="M238 312h25q18 0 38 12t43 49l41 65q17 27 33.5 44t35 27.5t40 14.5t48.5 4q14 0 35.5 -3t36.5 -8l-29 -101q-5 1 -11 2q-5 1 -11.5 2t-11.5 1q-23 0 -35.5 -10t-27.5 -33l-29 -44q-15 -24 -32.5 -39t-39.5 -24q31 -12 45 -35.5t22 -45.5l70 -190h-141l-53 156
q-5 15 -11 26.5t-15 19t-22.5 11.5t-32.5 4h-31l-47 -217h-139l113 528h140z" />
    <glyph glyph-name="afii10077" unicode="&#x43b;" horiz-adv-x="597" 
d="M457 412h-126l-43 -140q-23 -73 -47.5 -125.5t-56 -86t-71 -49.5t-91.5 -16h-46l23 114h11q25 0 45 9.5t36.5 30.5t31 55t30.5 83l77 241h392l-112 -528h-140z" />
    <glyph glyph-name="afii10078" unicode="&#x43c;" horiz-adv-x="726" 
d="M145 528h145l78 -382l250 382h133l-113 -528h-126l63 294l-194 -294h-91l-65 320l-67 -320h-126z" />
    <glyph glyph-name="afii10079" unicode="&#x43d;" horiz-adv-x="608" 
d="M145 528h140l-42 -198h208l42 198h140l-113 -528h-140l45 214h-208l-45 -214h-140z" />
    <glyph glyph-name="afii10080" unicode="&#x43e;" horiz-adv-x="616" 
d="M369 543q53 0 95.5 -17.5t72 -48t45.5 -71t16 -86.5q0 -80 -22.5 -142.5t-63 -105.5t-97 -65.5t-123.5 -22.5q-53 0 -95.5 17.5t-72.5 48t-46 71t-16 86.5q0 78 23 140t64.5 105.5t97.5 67t122 23.5zM359 431q-31 0 -58.5 -14.5t-48.5 -43t-33 -70t-12 -95.5
q0 -52 24.5 -82t69.5 -30q31 0 58.5 14.5t48.5 42.5t33 69.5t12 95.5q0 52 -24.5 82.5t-69.5 30.5z" />
    <glyph glyph-name="afii10081" unicode="&#x43f;" horiz-adv-x="596" 
d="M621 528l-113 -528h-140l87 412h-196l-87 -412h-140l113 528h476z" />
    <glyph glyph-name="afii10082" unicode="&#x440;" horiz-adv-x="624" 
d="M267 464q27 36 68 58t95 22q46 0 80 -17.5t56.5 -48.5t34 -73t11.5 -91q0 -71 -20 -131.5t-54.5 -104.5t-81.5 -69t-100 -25q-60 0 -100 20t-69 68l-57 -266h-139l153 722h136zM225 263q-2 -13 -4.5 -25.5t-2.5 -24.5q0 -20 4 -39t13 -34q25 -43 89 -43q34 0 60.5 18.5
t44.5 49t27.5 70.5t9.5 82q0 54 -25 83.5t-63 29.5q-53 0 -93 -36q-20 -17 -33.5 -42t-18.5 -51z" />
    <glyph glyph-name="afii10083" unicode="&#x441;" horiz-adv-x="569" 
d="M424 339q-4 46 -21 70t-62 24q-27 0 -51.5 -14.5t-43 -42.5t-29 -70.5t-10.5 -97.5q0 -49 22.5 -80.5t70.5 -31.5q88 0 106 93h142q-18 -103 -80.5 -154t-182.5 -51q-52 0 -93.5 16.5t-70 46.5t-44 71t-15.5 91q0 81 23 144t63 105.5t94 64.5t117 22q50 0 87 -14
t62.5 -38.5t39.5 -59t17 -76.5z" />
    <glyph glyph-name="afii10084" unicode="&#x442;" horiz-adv-x="520" 
d="M248 412h-171l25 116h480l-25 -116h-169l-88 -412h-140z" />
    <glyph glyph-name="afii10085" unicode="&#x443;" horiz-adv-x="567" 
d="M86 528h156l54 -348l184 348h159l-324 -543q-27 -45 -50 -78.5t-48 -56t-55.5 -33.5t-72.5 -11q-26 0 -48 4.5t-45 13.5l36 104q12 -4 26.5 -7t31.5 -3q28 0 46.5 15t37.5 48l26 45z" />
    <glyph glyph-name="afii10086" unicode="&#x444;" horiz-adv-x="747" 
d="M273 1q-56 7 -98 27t-69.5 48.5t-41.5 64.5t-14 75q0 70 24.5 124t69 92t105.5 60t134 28l37 175h136l-38 -177q55 -6 97.5 -27t70.5 -52t42.5 -68t14.5 -75q0 -65 -25 -117.5t-69 -90.5t-106 -60.5t-135 -27.5l-36 -170h-135zM359 405q-78 -9 -124 -55.5t-46 -121.5
q0 -44 25 -75t83 -38zM433 115q76 9 123 53.5t47 130.5q0 42 -26 71t-83 35z" />
    <glyph glyph-name="afii10087" unicode="&#x445;" horiz-adv-x="547" 
d="M383 272l126 -272h-155l-74 174l-141 -174h-161l245 277l-120 251h158l62 -153l128 153h155z" />
    <glyph glyph-name="afii10088" unicode="&#x446;" horiz-adv-x="598" 
d="M32 0l112 528h140l-87 -412h183l86 412h140l-86 -412h65l-55 -256h-120l29 140h-407z" />
    <glyph glyph-name="afii10089" unicode="&#x447;" horiz-adv-x="563" 
d="M376 195q-22 -5 -51 -8t-52 -3q-89 0 -136 41.5t-47 114.5q0 13 2 27t5 29l28 132h140l-28 -131q-2 -10 -3 -18.5t-1 -16.5q0 -35 19.5 -50t64.5 -15q26 0 48 3.5t36 8.5l47 219h140l-113 -528h-140z" />
    <glyph glyph-name="afii10090" unicode="&#x448;" horiz-adv-x="840" 
d="M752 0h-720l113 528h140l-88 -412h150l88 412h140l-88 -412h150l88 412h140z" />
    <glyph glyph-name="afii10091" unicode="&#x449;" horiz-adv-x="855" 
d="M776 116h65l-55 -256h-120l29 140h-663l112 528h140l-87 -412h150l87 412h140l-87 -412h149l87 412h140z" />
    <glyph glyph-name="afii10092" unicode="&#x44a;" horiz-adv-x="612" 
d="M333 528l-36 -169h100q48 0 84.5 -12t61 -33.5t36.5 -51t12 -63.5q0 -91 -62.5 -145t-185.5 -54h-263l88 412h-113l25 116h253zM245 114h111q46 0 69 21.5t23 60.5q0 20 -15 35t-51 15h-109z" />
    <glyph glyph-name="afii10093" unicode="&#x44b;" horiz-adv-x="794" 
d="M678 528h141l-113 -528h-141zM297 114q46 0 69 21.5t23 60.5q0 20 -15 35t-51 15h-98l-28 -132h100zM32 0l113 528h140l-36 -169h89q48 0 84.5 -12t61 -33.5t36.5 -51t12 -63.5q0 -91 -62.5 -145t-185.5 -54h-252z" />
    <glyph glyph-name="afii10094" unicode="&#x44c;" horiz-adv-x="568" 
d="M312 114q46 0 69 21.5t23 60.5q0 20 -15 35t-51 15h-112l-30 -132h116zM32 0l113 528h140l-36 -169h104q48 0 84.5 -12t61 -33.5t36.5 -51t12 -63.5q0 -91 -62.5 -145t-185.5 -54h-267z" />
    <glyph glyph-name="afii10095" unicode="&#x44d;" horiz-adv-x="580" 
d="M230 314h188q0 59 -24.5 89.5t-69.5 30.5q-84 0 -115 -76l-123 23q26 72 88 117t168 45q52 0 93 -18.5t69 -51t43 -76t15 -93.5q0 -62 -17.5 -119.5t-54.5 -102t-93.5 -71.5t-135.5 -27q-47 0 -86.5 13t-69.5 37t-47.5 58t-18.5 77h132q7 -35 32 -55.5t67 -20.5
q62 0 94 32.5t43 90.5h-197z" />
    <glyph glyph-name="afii10096" unicode="&#x44e;" horiz-adv-x="854" 
d="M619 543q51 0 91.5 -17.5t68 -48t42.5 -71t15 -86.5q0 -80 -22.5 -142.5t-62.5 -105.5t-93.5 -65.5t-115.5 -22.5q-51 0 -91 17.5t-68 48t-42.5 71t-14.5 86.5v11h-108l-46 -218h-140l113 528h140l-45 -207h100q14 52 41.5 93.5t64.5 70t81 43.5t92 15zM604 431
q-25 0 -49.5 -14.5t-43.5 -43t-30.5 -70t-11.5 -95.5q0 -52 22 -82t65 -30q25 0 49.5 14.5t43.5 42.5t30.5 69.5t11.5 95.5q0 52 -22 82.5t-65 30.5z" />
    <glyph glyph-name="afii10097" unicode="&#x44f;" horiz-adv-x="570" 
d="M-12 0l117 162q19 26 39 39.5t35 18.5q-38 18 -58 52t-20 73q0 51 20 86t54.5 56.5t80.5 31t99 9.5h240l-113 -528h-142l40 185h-44q-34 0 -54.5 -12t-37.5 -38l-93 -135h-163zM405 298l25 118h-98q-17 0 -33.5 -2.5t-29 -10t-20 -20.5t-7.5 -34q0 -23 16 -37t42 -14h105
z" />
    <glyph glyph-name="uni0450" unicode="&#x450;" horiz-adv-x="589" 
d="M349 438q-20 0 -40 -5t-37 -18t-31 -35.5t-23 -56.5h216q3 15 3 29q0 41 -24 63.5t-64 22.5zM207 231q-1 -5 -1 -10v-10q0 -57 27 -87.5t75 -30.5q42 0 67 15t36 55h136q-21 -88 -81.5 -133.5t-172.5 -45.5q-52 0 -94 16t-71 45.5t-45 71t-16 91.5q0 79 22 141.5
t61 105.5t93 65.5t119 22.5q49 0 88 -15t66 -42t41 -63.5t14 -79.5q0 -19 -2 -43t-8 -51l-4 -18h-350zM352 594l-116 155h153l88 -155h-125z" />
    <glyph glyph-name="afii10071" unicode="&#x451;" horiz-adv-x="589" 
d="M209 608l26 125h130l-26 -125h-130zM411 608l26 125h130l-26 -125h-130zM349 438q-20 0 -40 -5t-37 -18t-31 -35.5t-23 -56.5h216q3 15 3 29q0 41 -24 63.5t-64 22.5zM207 231q-1 -5 -1 -10v-10q0 -57 27 -87.5t75 -30.5q42 0 67 15t36 55h136q-21 -88 -81.5 -133.5
t-172.5 -45.5q-52 0 -94 16t-71 45.5t-45 71t-16 91.5q0 79 22 141.5t61 105.5t93 65.5t119 22.5q49 0 88 -15t66 -42t41 -63.5t14 -79.5q0 -19 -2 -43t-8 -51l-4 -18h-350z" />
    <glyph glyph-name="afii10099" unicode="&#x452;" horiz-adv-x="626" 
d="M106 655h92l13 59h140l-13 -59h187l-22 -103h-187l-29 -137q33 38 73 60t86 22q76 0 115 -42.5t39 -114.5q0 -13 -2.5 -28.5t-5.5 -31.5t-6.5 -30t-5.5 -24l-48 -228q-6 -30 -18.5 -62.5t-35.5 -59t-59.5 -44t-91.5 -17.5q-22 0 -49 4.5t-53 12.5l42 105q17 -5 30.5 -6.5
t25.5 -1.5q30 0 45.5 16t22.5 50l58 269q2 10 4 27.5t2 21.5q0 32 -15.5 49.5t-50.5 17.5q-21 0 -42.5 -8t-39.5 -22t-31.5 -33.5t-18.5 -43.5l-58 -273h-140l117 552h-92z" />
    <glyph glyph-name="afii10100" unicode="&#x453;" horiz-adv-x="447" 
d="M230 594l152 155h165l-181 -155h-136zM513 528l-25 -117h-229l-87 -411h-140l112 528h369z" />
    <glyph glyph-name="afii10101" unicode="&#x454;" horiz-adv-x="580" 
d="M405 218h-205q0 -57 26.5 -91t80.5 -34q26 0 44.5 5t31 15t21 23.5t15.5 30.5h134q-15 -52 -38.5 -87t-56.5 -56.5t-75 -30.5t-92 -9q-57 0 -99 18.5t-70.5 49.5t-42.5 73.5t-14 90.5q0 87 25.5 149t67 101.5t93.5 58t106 18.5q50 0 86.5 -11.5t62 -33t41 -52t23.5 -67.5
l-135 -18q-8 35 -26 54t-63 19q-48 0 -82.5 -32t-46.5 -86h208z" />
    <glyph glyph-name="afii10102" unicode="&#x455;" horiz-adv-x="537" 
d="M504 162q0 -52 -19.5 -86.5t-53 -54.5t-78.5 -28.5t-95 -8.5q-44 0 -84 9t-71 30t-50 55.5t-20 85.5h133q5 -42 31 -57t71 -15q48 0 70 14t22 46q0 20 -12.5 34t-45.5 21l-57 12q-86 18 -120 57t-34 93q0 44 17.5 77t48.5 55t74.5 33t94.5 11q38 0 74 -8t65.5 -26.5
t49 -49.5t23.5 -77l-128 -16q-2 16 -7 29t-15.5 23t-26.5 15.5t-40 5.5q-31 0 -49 -6t-27.5 -15t-12 -19t-2.5 -19q0 -22 15.5 -34.5t51.5 -20.5l53 -11q45 -9 74.5 -24t47.5 -35t25 -44t7 -51z" />
    <glyph glyph-name="afii10103" unicode="&#x456;" horiz-adv-x="266" 
d="M33 0l112 528h140l-112 -528h-140zM156 597l27 126h144l-27 -126h-144z" />
    <glyph glyph-name="afii10104" unicode="&#x457;" horiz-adv-x="266" 
d="M33 0l112 528h140l-112 -528h-140zM54 608l26 125h130l-26 -125h-130zM256 608l26 125h130l-26 -125h-130z" />
    <glyph glyph-name="afii10105" unicode="&#x458;" horiz-adv-x="266" 
d="M156 597l27 126h144l-27 -126h-144zM145 528h140l-118 -551q-10 -45 -24.5 -76.5t-36.5 -50.5t-52.5 -27.5t-71.5 -8.5q-32 0 -61 6t-55 17l40 103q12 -5 27.5 -8.5t32.5 -3.5q26 0 41.5 14.5t24.5 55.5z" />
    <glyph glyph-name="afii10106" unicode="&#x459;" horiz-adv-x="863" 
d="M607 114q46 0 69 21.5t23 60.5q0 20 -15 35t-51 15h-97l-28 -132h99zM344 0l87 412h-100l-43 -140q-23 -73 -47.5 -125.5t-56 -86t-71 -49.5t-91.5 -16h-46l23 114h11q25 0 45 9.5t36.5 30.5t31 55t30.5 83l77 241h366l-36 -169h88q48 0 84.5 -12t61 -33.5t36.5 -51
t12 -63.5q0 -91 -62.5 -145t-185.5 -54h-250z" />
    <glyph glyph-name="afii10107" unicode="&#x45a;" horiz-adv-x="873" 
d="M570 342h93q48 0 84 -12t59 -32.5t34.5 -48t11.5 -58.5q0 -89 -64 -140t-187 -51h-243l48 229h-185l-49 -229h-140l113 528h140l-40 -186h185l40 186h140zM522 114h99q46 0 67 17t21 49q0 19 -12.5 34t-48.5 15h-102z" />
    <glyph glyph-name="afii10108" unicode="&#x45b;" horiz-adv-x="622" 
d="M105 655h91l13 59h140l-13 -59h187l-22 -103h-186l-29 -137q37 44 77 63t85 19q73 0 112 -39.5t39 -110.5q0 -32 -7 -64l-61 -283h-140l58 271q5 25 5 41q0 35 -16.5 51.5t-45.5 16.5q-27 0 -47 -7.5t-40 -23.5q-18 -14 -31 -33.5t-18 -42.5l-58 -273h-140l116 552h-91z
" />
    <glyph glyph-name="afii10109" unicode="&#x45c;" horiz-adv-x="559" 
d="M295 594l152 155h165l-181 -155h-136zM238 312h25q18 0 38 12t43 49l41 65q17 27 33.5 44t35 27.5t40 14.5t48.5 4q14 0 35.5 -3t36.5 -8l-29 -101q-5 1 -11 2q-5 1 -11.5 2t-11.5 1q-23 0 -35.5 -10t-27.5 -33l-29 -44q-15 -24 -32.5 -39t-39.5 -24q31 -12 45 -35.5
t22 -45.5l70 -190h-141l-53 156q-5 15 -11 26.5t-15 19t-22.5 11.5t-32.5 4h-31l-47 -217h-139l113 528h140z" />
    <glyph glyph-name="uni045D" unicode="&#x45d;" horiz-adv-x="583" 
d="M344 594l-116 155h153l88 -155h-125zM361 0l67 312l-275 -312h-121l113 528h127l-71 -331l286 331h114l-113 -528h-127z" />
    <glyph glyph-name="afii10110" unicode="&#x45e;" horiz-adv-x="567" 
d="M305 748q-1 -5 -1 -8.5v-7.5q0 -9 3 -19t11 -17.5t22 -12.5t37 -5q38 0 61.5 16t33.5 54h100q-7 -34 -21.5 -62.5t-39 -49.5t-60 -32.5t-83.5 -11.5q-33 0 -63 7t-52.5 22t-36 39t-13.5 59q0 11 1 18t2 11h99zM86 528h156l54 -348l184 348h159l-324 -543
q-27 -45 -50 -78.5t-48 -56t-55.5 -33.5t-72.5 -11q-26 0 -48 4.5t-45 13.5l36 104q12 -4 26.5 -7t31.5 -3q28 0 46.5 15t37.5 48l26 45z" />
    <glyph glyph-name="afii10193" unicode="&#x45f;" horiz-adv-x="596" 
d="M332 0l-30 -140h-120l29 140h-179l112 528h140l-87 -412h197l87 412h140l-112 -528h-177z" />
    <glyph glyph-name="uni0462" unicode="&#x462;" horiz-adv-x="763" 
d="M153 0l116 554h-173l26 120h172l15 68h149l-15 -68h214l-26 -120h-213l-18 -85h105q114 0 179 -53.5t65 -152.5q0 -128 -86.5 -195.5t-242.5 -67.5h-267zM374 345l-47 -222h120q75 0 114.5 31.5t39.5 100.5q0 42 -28 66t-89 24h-110z" />
    <glyph glyph-name="uni0463" unicode="&#x463;" horiz-adv-x="619" 
d="M363 114q46 0 69 21.5t23 60.5q0 20 -15 35t-51 15h-112l-30 -132h116zM83 0l91 425h-111l22 103h111l44 204h140l-44 -204h197l-22 -103h-197l-14 -66h104q48 0 84.5 -12t61 -33.5t36.5 -51t12 -63.5q0 -91 -62.5 -145t-185.5 -54h-267z" />
    <glyph glyph-name="uni0472" unicode="&#x472;" horiz-adv-x="780" 
d="M490 732q69 0 122.5 -22.5t90 -62t55.5 -94.5t19 -120q0 -87 -25 -168.5t-74.5 -144.5t-124 -100.5t-172.5 -37.5q-69 0 -123 22t-91 62t-56.5 95t-19.5 121q0 86 26 167t76.5 144t125 101t171.5 38zM391 110q41 0 74.5 14t59.5 38.5t45 56.5t31 68q-24 -12 -47.5 -15
t-40.5 -3q-32 0 -55.5 11t-44.5 23.5t-43 23.5t-52 11q-14 0 -33 -2.5t-39 -10.5q-1 -8 -1 -17v-17q0 -81 36.5 -131t109.5 -50zM478 604q-40 0 -73 -13.5t-59 -36.5t-45 -53.5t-31 -64.5q23 11 46 14t40 3q32 0 55.5 -11t45 -23.5t43.5 -23.5t52 -11q14 0 32.5 2t37.5 10
q1 7 1 14v14q0 40 -9 73t-27 57t-45.5 37t-63.5 13z" />
    <glyph glyph-name="uni0473" unicode="&#x473;" horiz-adv-x="616" 
d="M369 545q53 0 95.5 -17.5t72 -48t45.5 -71.5t16 -87q0 -80 -22.5 -143t-63 -106t-97 -65.5t-123.5 -22.5q-53 0 -95.5 17.5t-72.5 48t-46 71.5t-16 87q0 78 23 140.5t64.5 106t97.5 67t122 23.5zM202 207q0 -56 25 -86.5t72 -30.5q48 0 85.5 30t57.5 95
q-19 -10 -36.5 -12t-31.5 -2q-21 0 -35 6t-27 12.5t-27 12.5t-33 6q-11 0 -23.5 -1.5t-26.5 -7.5v-22zM361 439q-48 0 -85.5 -30.5t-57.5 -93.5q17 9 33.5 11t30.5 2q20 0 34.5 -6t27.5 -12.5t26.5 -12.5t33.5 -6q11 0 24 1t28 8q1 5 1 10.5v10.5q0 55 -24.5 86.5
t-71.5 31.5z" />
    <glyph glyph-name="uni0474" unicode="&#x474;" horiz-adv-x="793" 
d="M557 577q18 35 38 63.5t46 49t60 31.5t81 11q37 0 72.5 -10.5t65.5 -30.5l-55 -114q-16 10 -34 16t-36 6q-22 0 -38 -6t-28 -17t-21.5 -26t-18.5 -32l-299 -518h-142l-117 714h158l70 -505z" />
    <glyph glyph-name="uni0475" unicode="&#x475;" horiz-adv-x="638" 
d="M86 528h155l41 -369l134 246q24 43 44.5 70t41.5 42t45.5 20.5t55.5 5.5q42 0 70 -16.5t42 -28.5l-56 -94q-8 7 -19.5 13.5t-28.5 6.5q-26 0 -42 -17.5t-39 -55.5l-211 -351h-142z" />
    <glyph glyph-name="uni048A" unicode="&#x48a;" horiz-adv-x="758" 
d="M564 464l-388 -464h-133l150 714h145l-99 -469l388 469h134l-125 -585h89q-4 -59 -20.5 -106.5t-42.5 -86t-60.5 -69.5t-75.5 -58l-81 91q32 23 62 47.5t49 52.5h-92zM432 929q-1 -5 -1 -8.5v-7.5q0 -9 3 -19t11 -17.5t22 -12.5t37 -5q38 0 61.5 16t33.5 54h100
q-7 -34 -21.5 -62.5t-39 -49.5t-60 -32.5t-83.5 -11.5q-33 0 -63 7t-52.5 22t-36 39t-13.5 59q0 11 1 18t2 11h99z" />
    <glyph glyph-name="uni048B" unicode="&#x48b;" horiz-adv-x="598" 
d="M361 0l67 312l-275 -312h-121l113 528h127l-71 -331l286 331h114l-88 -412h65q-2 -40 -8.5 -75.5t-23 -69t-46 -65t-75.5 -63.5l-74 75q20 17 44 38t37 44h-71zM327 746q-1 -5 -1 -8.5v-7.5q0 -9 3 -19t11 -17.5t22 -12.5t37 -5q38 0 61.5 16t33.5 54h100
q-7 -34 -21.5 -62.5t-39 -49.5t-60 -32.5t-83.5 -11.5q-33 0 -63 7t-52.5 22t-36 39t-13.5 59q0 11 1 18t2 11h99z" />
    <glyph glyph-name="uni048C" unicode="&#x48c;" horiz-adv-x="673" 
d="M189 533h-107l24 120h108l13 61h149l-13 -61h141l-25 -120h-142l-13 -64h95q114 0 179 -53.5t65 -152.5q0 -128 -86.5 -195.5t-242.5 -67.5h-257zM298 345l-47 -222h110q75 0 114.5 31.5t39.5 100.5q0 42 -28 66t-89 24h-100z" />
    <glyph glyph-name="uni048D" unicode="&#x48d;" horiz-adv-x="609" 
d="M356 114q92 0 92 79q0 20 -15 34t-51 14h-117l-28 -127h119zM73 0l85 398h-100l21 103h101l10 47h140l-10 -47h172l-21 -103h-173l-9 -42h109q48 0 84.5 -12.5t60.5 -34t36 -51t12 -63.5q0 -91 -62.5 -143t-185.5 -52h-270z" />
    <glyph glyph-name="uni048E" unicode="&#x48e;" horiz-adv-x="670" 
d="M711 517q0 -99 -45 -158t-129 -85l32 -74l-93 -48l-44 104q-11 -1 -21.5 -1h-21.5h-145l-54 -255h-147l151 714h276q66 0 111.5 -18.5t74.5 -47t42 -63.5t13 -68zM381 379l-32 76l92 48l47 -112q33 12 52.5 39t19.5 76q0 35 -25.5 60t-88.5 25h-131l-45 -212h111z" />
    <glyph glyph-name="uni048F" unicode="&#x48f;" horiz-adv-x="625" 
d="M267 463q27 36 68 58.5t95 22.5q46 0 80 -17.5t56.5 -48.5t34 -73t11.5 -91q0 -51 -11 -97.5t-31 -85.5t-47 -69t-60 -49l39 -90l-85 -41l-45 103q-4 -1 -8.5 -1h-7.5q-60 0 -100 20t-69 68l-57 -266h-139l153 722h136zM225 263q-2 -13 -4.5 -25.5t-2.5 -24.5
q0 -20 4 -39t13 -34q23 -41 87 -43l-43 101l87 44l44 -105q27 32 41.5 80t14.5 100q0 54 -25 83.5t-63 29.5q-53 0 -93 -36q-20 -17 -33.5 -42.5t-18.5 -51.5z" />
    <glyph glyph-name="afii10050" unicode="&#x490;" horiz-adv-x="535" 
d="M193 714h322l21 99h130l-49 -228h-303l-123 -585h-148z" />
    <glyph glyph-name="afii10098" unicode="&#x491;" horiz-adv-x="447" 
d="M394 528l17 78h120l-42 -195h-229l-88 -411h-140l113 528h249z" />
    <glyph glyph-name="uni0492" unicode="&#x492;" horiz-adv-x="565" 
d="M132 297h-93l24 120h94l63 297h449l-28 -129h-300l-35 -168h186l-25 -120h-187l-62 -297h-148z" />
    <glyph glyph-name="uni0493" unicode="&#x493;" horiz-adv-x="475" 
d="M541 528l-25 -117h-229l-25 -118h146l-21 -103h-147l-40 -190h-140l40 190h-71l20 103h73l50 235h369z" />
    <glyph glyph-name="uni0494" unicode="&#x494;" horiz-adv-x="677" 
d="M282 424q27 8 57.5 13.5t69.5 5.5q52 0 97 -14.5t78 -44.5t51.5 -76t18.5 -108q0 -84 -25.5 -151t-75 -113.5t-122 -71t-167.5 -24.5h-40l27 127h33q42 0 81 11.5t69 38t48 70t18 108.5q0 57 -33.5 92t-96.5 35q-32 0 -59 -5t-55 -14l-64 -303h-149l153 721h468l-27 -129
h-319z" />
    <glyph glyph-name="uni0495" unicode="&#x495;" horiz-adv-x="572" 
d="M32 0l112 528h401l-25 -116h-261l-23 -118q21 5 43.5 8t50.5 3q101 0 152 -58t51 -157q0 -140 -88.5 -216.5t-256.5 -76.5h-29l24 114h28q80 0 129 43t49 137q0 49 -25 75t-77 26q-26 0 -43 -3.5t-32 -8.5l-40 -180h-140z" />
    <glyph glyph-name="uni0496" unicode="&#x496;" horiz-adv-x="1058" 
d="M489 302h-31q-23 0 -41.5 -11.5t-42.5 -39.5l-212 -251h-185l251 294q29 33 54.5 51.5t53.5 26.5q-27 12 -44.5 35.5t-28.5 58.5l-21 65q-9 29 -25 45.5t-53 16.5q-6 0 -12 -0.5t-11 -0.5q-5 -1 -10 -1l20 114q24 6 39 7.5t35 1.5q54 0 84 -27t48 -78l35 -101
q15 -42 39.5 -64.5t62.5 -22.5h19l62 293h149l-62 -293h19q29 0 61.5 17.5t66.5 69.5l68 104q38 59 82.5 80.5t104.5 21.5q28 0 45 -2.5t33 -7.5l-34 -119l-10 2t-11.5 1.5t-13.5 0.5q-32 0 -51.5 -12.5t-41.5 -47.5l-48 -75q-24 -39 -49 -57.5t-52 -29.5q24 -13 42 -42.5
t32 -61.5l58 -134h72l-63 -302h-130l36 173h-26l-101 243q-11 26 -27.5 42.5t-53.5 16.5h-32l-65 -302h-149z" />
    <glyph glyph-name="uni0497" unicode="&#x497;" horiz-adv-x="832" 
d="M539 312q26 0 45.5 17t37.5 44l45 69q56 86 161 86q20 0 38.5 -3.5t26.5 -7.5l-30 -101q-4 1 -9 2t-10.5 2t-12.5 1q-23 0 -37.5 -12.5t-28.5 -32.5l-34 -52q-29 -42 -67 -53q30 -11 44.5 -33t22.5 -43l29 -79h62l-54 -256h-115l29 140h-21l-51 156q-21 61 -81 61h-24
l-47 -217h-132l47 217h-29q-29 0 -48.5 -14.5t-44.5 -46.5l-118 -156h-153l153 196q29 37 55 54.5t55 23.5q-17 8 -26 22t-16 32l-18 46q-19 47 -62 47q-10 0 -20 -2q-4 -1 -9 -1l10 102q6 2 16 4q8 2 19.5 3t25.5 1q44 0 73 -23t46 -62l30 -68q13 -29 25 -46t36 -17h20
l46 216h132l-46 -216h14z" />
    <glyph glyph-name="uni0498" unicode="&#x498;" horiz-adv-x="647" 
d="M290 -15q-110 10 -168.5 67t-63.5 168h140q5 -35 14.5 -57.5t26 -36t41.5 -19t61 -5.5q66 0 100.5 28t34.5 92q0 43 -33.5 64.5t-105.5 21.5h-70l25 119h78q35 0 64.5 6t50.5 18.5t33 33.5t12 51q0 38 -32 57.5t-79 19.5q-35 0 -61 -5t-45.5 -16t-34 -30t-24.5 -47
l-135 18q32 102 106 150.5t205 48.5q51 0 95.5 -12.5t76.5 -35.5t50.5 -57.5t18.5 -77.5q0 -71 -38 -113.5t-98 -64.5q39 -23 63.5 -60t24.5 -86q0 -54 -18.5 -97t-52 -74t-80.5 -49t-104 -22l-16 -33q48 -8 67 -29.5t19 -46.5q0 -28 -11.5 -46.5t-32 -30t-49.5 -16
t-63 -4.5q-14 0 -31.5 1.5t-38.5 5.5l10 68q24 -4 39.5 -5t29.5 -1q26 0 37 8.5t11 24.5q0 12 -12 18.5t-41 6.5h-35z" />
    <glyph glyph-name="uni0499" unicode="&#x499;" horiz-adv-x="557" 
d="M229 -12q-96 9 -144 56.5t-51 129.5h134q1 -43 29.5 -60.5t73.5 -17.5q64 0 88 17t24 53q0 30 -18 42t-56 12h-98l20 94h102q37 0 59 15t22 47q0 30 -23.5 43.5t-58.5 13.5q-50 0 -81 -16t-45 -59l-129 22q28 86 93 124.5t170 38.5q102 0 157.5 -35.5t55.5 -97.5
q0 -51 -29 -83.5t-76 -48.5q34 -14 56 -39.5t22 -72.5q0 -44 -16.5 -76.5t-46 -54t-70 -33.5t-88.5 -15l-17 -36q46 -7 63.5 -28.5t17.5 -45.5q0 -54 -41 -74t-108 -20q-14 0 -31 1.5t-38 5.5l10 68q23 -4 38.5 -5t28.5 -1q26 0 36.5 7.5t10.5 22.5q0 12 -11.5 19t-40.5 7
h-34z" />
    <glyph glyph-name="uni049A" unicode="&#x49a;" horiz-adv-x="688" 
d="M281 422h28q22 0 41 8t36 22.5t32.5 33t32.5 39.5l56 72q21 27 42 48.5t44.5 36.5t50.5 23.5t60 8.5q22 0 44 -4t32 -7l-34 -119q-10 2 -21 3.5t-19 1.5q-33 0 -54.5 -20.5t-42.5 -48.5l-47 -61q-24 -31 -50.5 -54.5t-65.5 -37.5q36 -14 55 -44.5t36 -67.5l58 -126h70
l-63 -302h-130l36 173h-11l-104 230q-17 36 -38 53.5t-59 17.5h-40l-65 -301h-148l150 714h149z" />
    <glyph glyph-name="uni049B" unicode="&#x49b;" horiz-adv-x="555" 
d="M238 312h25q18 0 38 12t43 49l41 65q17 27 33.5 44t35 27.5t40 14.5t48.5 4q14 0 35.5 -3t36.5 -8l-29 -101q-5 1 -11 2q-5 1 -11.5 2t-11.5 1q-23 0 -35.5 -10t-27.5 -33l-29 -44q-15 -24 -32.5 -39t-39.5 -24q31 -12 45 -35.5t22 -45.5l27 -74h61l-55 -256h-120l29 140
h-13l-53 156q-5 15 -11 26.5t-15 19t-22.5 11.5t-32.5 4h-31l-47 -217h-139l113 528h140z" />
    <glyph glyph-name="uni049C" unicode="&#x49c;" horiz-adv-x="718" 
d="M302 305h-46l-65 -305h-148l150 714h149l-63 -298h46l30 137h96l-22 -103q15 14 30 33t34 42l56 72q21 27 41.5 48.5t43 36.5t48.5 23.5t59 8.5q22 0 44 -4t32 -7l-34 -119q-10 2 -21 3.5t-19 1.5q-33 0 -54.5 -20.5t-42.5 -48.5l-47 -61q-24 -31 -50.5 -54.5
t-65.5 -37.5q36 -14 55 -44.5t36 -67.5l118 -255h-158l-104 230q-8 17 -17 30.5t-20 23.5l-23 -110h-96z" />
    <glyph glyph-name="uni049D" unicode="&#x49d;" horiz-adv-x="596" 
d="M369 421l-21 -98q7 6 14.5 15t16.5 23l47 77q16 27 32 44.5t34 27.5t39 14t48 4q14 0 35.5 -3t36.5 -8l-29 -101q-5 1 -11 2q-5 1 -11.5 2t-11.5 1q-23 0 -35.5 -10t-27.5 -33l-29 -44q-15 -24 -32.5 -39t-39.5 -24q31 -12 45 -35.5t22 -45.5l70 -190h-139l-51 156
q-8 22 -17.5 36.5t-28.5 21.5l-22 -102h-80l23 108h-28l-47 -220h-139l113 528h139l-47 -218h28l24 111h80z" />
    <glyph glyph-name="uni049E" unicode="&#x49e;" horiz-adv-x="705" 
d="M347 632h96l-24 -119h-97l-19 -91h28q44 0 77.5 30.5t66.5 72.5l56 72q21 27 42 48.5t44.5 36.5t50.5 23.5t60 8.5q22 0 44 -4t32 -7l-34 -119q-10 2 -21 3.5t-19 1.5q-33 0 -54.5 -20.5t-42.5 -48.5l-47 -61q-24 -31 -50.5 -54.5t-65.5 -37.5q36 -14 55 -44.5t36 -67.5
l118 -255h-158l-104 230q-17 36 -39 53.5t-60 17.5h-40l-65 -301h-148l108 513h-85l25 119h85l17 82h149z" />
    <glyph glyph-name="uni049F" unicode="&#x49f;" 
d="M275 370l-12 -58h39q18 0 38 12t43 49l41 65q17 27 32.5 44t33 27.5t38 14.5t47.5 4q14 0 35.5 -3t36.5 -8l-29 -101q-5 1 -11 2q-5 1 -11.5 2t-11.5 1q-23 0 -35.5 -10t-27.5 -33l-29 -44q-15 -24 -32.5 -39t-39.5 -24q31 -12 45 -35.5t22 -45.5l70 -190h-141l-53 156
q-5 15 -11 26.5t-15 19t-22.5 11.5t-32.5 4h-39l-47 -217h-139l79 370h-78l21 102h79l12 56h140l-12 -56h72l-21 -102h-74z" />
    <glyph glyph-name="uni04A0" unicode="&#x4a0;" horiz-adv-x="786" 
d="M386 422h28q22 0 41 8t36 22.5t32.5 33t32.5 39.5l56 72q21 27 42 48.5t44.5 36.5t50.5 23.5t60 8.5q22 0 44 -4t32 -7l-34 -119q-10 2 -21 3.5t-19 1.5q-33 0 -54.5 -20.5t-42.5 -48.5l-47 -61q-24 -31 -50.5 -54.5t-65.5 -37.5q36 -14 55 -44.5t36 -67.5l118 -255h-158
l-104 230q-17 36 -38 53.5t-59 17.5h-40l-65 -301h-148l123 585h-158l28 129h306z" />
    <glyph glyph-name="uni04A1" unicode="&#x4a1;" horiz-adv-x="612" 
d="M316 312q18 0 38 12t43 49l41 65q17 27 33.5 44t35 27.5t40 14.5t48.5 4q14 0 35.5 -3t36.5 -8l-29 -101q-5 1 -11 2q-5 1 -11.5 2t-11.5 1q-23 0 -35.5 -10t-27.5 -33l-29 -44q-15 -24 -32.5 -39t-39.5 -24q31 -12 45 -35.5t22 -45.5l70 -190h-141l-53 156
q-5 15 -11 26.5t-15 19t-22.5 11.5t-32.5 4h-31l-47 -217h-139l88 412h-113l24 116h253l-46 -216h25z" />
    <glyph glyph-name="uni04A2" unicode="&#x4a2;" horiz-adv-x="756" 
d="M475 0l63 300h-283l-63 -300h-149l151 714h149l-58 -276h283l58 276h149l-124 -585h82l-64 -302h-130l37 173h-101z" />
    <glyph glyph-name="uni04A3" unicode="&#x4a3;" horiz-adv-x="623" 
d="M145 528h140l-42 -198h208l42 198h140l-88 -412h65l-54 -256h-121l29 140h-84l45 214h-208l-45 -214h-140z" />
    <glyph glyph-name="uni04A4" unicode="&#x4a4;" horiz-adv-x="832" 
d="M475 0l63 300h-283l-63 -300h-149l151 714h149l-58 -276h283l58 276h308l-28 -129h-158l-124 -585h-149z" />
    <glyph glyph-name="uni04A5" unicode="&#x4a5;" horiz-adv-x="661" 
d="M145 528h140l-42 -198h208l42 198h253l-25 -116h-113l-88 -412h-140l45 214h-208l-45 -214h-140z" />
    <glyph glyph-name="uni04A6" unicode="&#x4a6;" horiz-adv-x="1082" 
d="M815 443q52 0 97 -14.5t78 -44.5t51.5 -76t18.5 -108q0 -84 -25.5 -151t-75 -113.5t-122 -71t-167.5 -24.5h-40l27 127h33q42 0 81 11.5t69 38t48 70t18 108.5q0 57 -33.5 92t-96.5 35q-32 0 -59 -5t-55 -14l-65 -303h-149l124 585h-257l-123 -585h-149l151 714h554
l-61 -290q27 8 58 13.5t70 5.5z" />
    <glyph glyph-name="uni04A7" unicode="&#x4a7;" horiz-adv-x="898" 
d="M358 0l87 412h-186l-87 -412h-140l113 528h466l-51 -234q21 5 43.5 8t50.5 3q101 0 153 -58t52 -157q0 -140 -89.5 -216.5t-257.5 -76.5h-29l24 114h28q40 0 73 10.5t57 32.5t37 56t13 81q0 49 -26 75t-78 26q-26 0 -43 -3.5t-32 -8.5l-39 -180h-139z" />
    <glyph glyph-name="uni04A8" unicode="&#x4a8;" horiz-adv-x="844" 
d="M827 3q-35 -12 -73.5 -16.5t-67.5 -4.5q-42 0 -76 9.5t-66 26.5q-34 -16 -73 -26t-98 -10q-56 0 -107.5 17t-90.5 53t-62.5 91.5t-23.5 133.5q0 92 27 174.5t80.5 145t133 99t183.5 36.5q46 0 82 -9t78 -29l-57 -110q-26 12 -50.5 18.5t-57.5 6.5q-66 0 -116 -26.5
t-84.5 -70.5t-52 -100t-17.5 -114q0 -53 11.5 -90.5t31 -61.5t46 -35t57.5 -11q17 0 31.5 0.5t32.5 4.5q-25 36 -40 80.5t-15 84.5q0 50 12.5 97t40.5 83t72.5 57.5t107.5 21.5q83 0 132 -49t49 -139q0 -72 -28.5 -135.5t-89.5 -108.5q8 -1 13 -1h11q53 0 97 15zM527 276
q0 -42 10 -79t35 -64q46 28 74 79.5t28 122.5q0 14 -3 28.5t-10 26.5t-18 19.5t-27 7.5q-26 0 -43 -13t-27 -33.5t-14.5 -45.5t-4.5 -49z" />
    <glyph glyph-name="uni04A9" unicode="&#x4a9;" horiz-adv-x="644" 
d="M526 -18q-14 0 -30.5 1.5t-33.5 5t-33 10t-29 15.5q-30 -16 -59 -22.5t-62 -6.5q-50 0 -90.5 17t-69 47t-43.5 71t-15 90q0 66 19.5 126.5t57.5 106.5t94.5 73t130.5 27q30 0 63 -6t62 -20l-38 -96q-20 8 -40 12t-47 4q-42 0 -74 -16.5t-53.5 -45.5t-32 -69.5
t-10.5 -88.5q0 -67 30.5 -102t72.5 -35q11 0 19.5 1t18.5 3q-20 23 -28 57t-8 65q0 37 11.5 69.5t33 56.5t53 37.5t70.5 13.5q31 0 56 -11t42 -29.5t26 -43t9 -51.5q0 -51 -23.5 -94.5t-67.5 -76.5q23 0 40.5 2t31.5 5q15 4 28 8l22 -88q-10 -7 -25 -11q-13 -5 -33 -8
t-46 -3zM458 292q-28 0 -42 -29t-14 -65q0 -8 1 -20t4 -25t8.5 -24.5t14.5 -19.5q37 25 51 62t14 71q0 19 -7 34.5t-30 15.5z" />
    <glyph glyph-name="uni04AA" unicode="&#x4aa;" horiz-adv-x="713" 
d="M337 -15q-66 7 -113 35t-77 70.5t-44 97.5t-14 116q0 84 26 161.5t74.5 137t117.5 94.5t155 35q70 0 121 -18t84.5 -50.5t51 -78t21.5 -100.5l-148 -20q-4 33 -12 59t-24 43.5t-40 27t-59 9.5q-50 0 -89 -24t-66 -64t-41.5 -92.5t-14.5 -109.5q0 -42 7 -79t24.5 -64.5
t45.5 -44t70 -16.5q73 0 110 35t49 102h160q-12 -58 -33.5 -105t-56.5 -81t-86 -54t-121 -24l-16 -33q48 -8 67 -29.5t19 -46.5q0 -28 -11.5 -46.5t-32 -30t-49.5 -16t-63 -4.5q-14 0 -31.5 1.5t-38.5 5.5l10 68q24 -4 39.5 -5t29.5 -1q26 0 37 8.5t11 24.5q0 12 -12 18.5
t-41 6.5h-35z" />
    <glyph glyph-name="uni04AB" unicode="&#x4ab;" horiz-adv-x="569" 
d="M244 -13q-43 6 -76.5 24.5t-57 47.5t-36 67t-12.5 83q0 81 23 144t63 105.5t94 64.5t117 22q50 0 87 -14t62.5 -38.5t39.5 -59t17 -76.5l-141 -18q-4 46 -21 70t-62 24q-27 0 -51.5 -14.5t-43 -42.5t-29 -70.5t-10.5 -97.5q0 -49 22.5 -80.5t70.5 -31.5q88 0 106 93h142
q-17 -95 -71 -145.5t-157 -58.5l-16 -34q46 -7 63.5 -28.5t17.5 -45.5q0 -54 -41 -74t-108 -20q-14 0 -31 1.5t-38 5.5l10 68q23 -4 38.5 -5t28.5 -1q26 0 36.5 7.5t10.5 22.5q0 12 -11.5 19t-40.5 7h-34z" />
    <glyph glyph-name="uni04AC" unicode="&#x4ac;" horiz-adv-x="620" 
d="M479 585l-97 -456h82l-64 -302h-138l37 173h-94l124 585h-215l27 129h580l-27 -129h-215z" />
    <glyph glyph-name="uni04AD" unicode="&#x4ad;" horiz-adv-x="510" 
d="M221 412h-171l25 116h480l-25 -116h-169l-63 -296h65l-54 -256h-121l29 140h-84z" />
    <glyph glyph-name="uni04AE" unicode="&#x4ae;" horiz-adv-x="657" 
d="M131 714h160l95 -289l218 289h164l-331 -423l-61 -291h-149l61 291z" />
    <glyph glyph-name="uni04AF" unicode="&#x4af;" horiz-adv-x="568" 
d="M156 -194l43 205l-123 517h156l67 -362l199 362h158l-317 -517l-43 -205h-140z" />
    <glyph glyph-name="uni04B0" unicode="&#x4b0;" horiz-adv-x="657" 
d="M417 193l-40 -193h-149l40 193h-145l26 119h132l-149 402h160l95 -289l218 289h164l-315 -402h128l-26 -119h-139z" />
    <glyph glyph-name="uni04B1" unicode="&#x4b1;" horiz-adv-x="568" 
d="M156 -194l41 194h-122l24 113h75l-97 415h156l66 -362l199 362h158l-255 -415h78l-24 -113h-118l-41 -194h-140z" />
    <glyph glyph-name="uni04B2" unicode="&#x4b2;" horiz-adv-x="680" 
d="M487 0l-120 262l-221 -262h-170l328 378l-162 336h163l101 -230l198 230h167l-300 -344l116 -241h72l-63 -302h-128l36 173h-17z" />
    <glyph glyph-name="uni04B3" unicode="&#x4b3;" horiz-adv-x="540" 
d="M383 272l72 -156h65l-55 -256h-120l29 140h-20l-74 174l-141 -174h-161l245 277l-120 251h158l62 -153l128 153h155z" />
    <glyph glyph-name="uni04B4" unicode="&#x4b4;" horiz-adv-x="855" 
d="M165 0l123 585h-175l27 129h496l-27 -129h-172l-96 -456h260l124 585h149l-124 -585h82l-64 -302h-130l37 173h-510z" />
    <glyph glyph-name="uni04B5" unicode="&#x4b5;" horiz-adv-x="654" 
d="M315 412l-62 -296h183l87 412h140l-87 -412h65l-54 -256h-121l29 140h-407l87 412h-101l24 116h350l-24 -116h-109z" />
    <glyph glyph-name="uni04B6" unicode="&#x4b6;" horiz-adv-x="707" 
d="M487 289q-33 -14 -74 -22t-83 -8q-58 0 -101.5 18t-70 51t-34.5 79.5t4 104.5l43 202h149l-38 -181q-8 -35 -8 -64t11 -49.5t34.5 -31.5t62.5 -11q34 0 70 7t59 17l66 313h149l-124 -585h82l-64 -302h-138l37 173h-93z" />
    <glyph glyph-name="uni04B7" unicode="&#x4b7;" horiz-adv-x="578" 
d="M376 195q-22 -5 -51 -8t-52 -3q-89 0 -136 41.5t-47 114.5q0 13 2 27t5 29l28 132h140l-28 -131q-2 -10 -3 -18.5t-1 -16.5q0 -35 19.5 -50t64.5 -15q26 0 48 3.5t36 8.5l47 219h140l-88 -412h65l-54 -256h-121l29 140h-84z" />
    <glyph glyph-name="uni04B8" unicode="&#x4b8;" horiz-adv-x="698" 
d="M507 289q-35 -15 -82 -23l-28 -125h-120l27 120q-50 5 -88 25t-61.5 52.5t-31.5 76.5t4 97l43 202h149l-38 -186q-11 -56 -3 -94.5t52 -53.5l30 131h120l-30 -134q23 5 45 10.5t36 11.5l66 315h149l-151 -714h-149z" />
    <glyph glyph-name="uni04B9" unicode="&#x4b9;" horiz-adv-x="583" 
d="M366 294q17 2 31 4.5t22 5.5l49 224h140l-113 -528h-140l43 200q-10 -2 -23.5 -3.5t-29.5 -3.5l-22 -106h-105l22 105q-73 8 -111.5 45t-38.5 103q0 13 2 27t5 29l28 132h140l-29 -137q-2 -10 -4 -21.5t-2 -19.5q0 -23 6.5 -36t25.5 -18l22 104h105z" />
    <glyph glyph-name="uni04BA" unicode="&#x4ba;" horiz-adv-x="678" 
d="M191 0h-148l150 714h149l-59 -279q33 14 74 21.5t83 7.5q58 0 101.5 -18t70 -51t34.5 -79.5t-4 -104.5l-45 -211h-149l40 190q7 35 7.5 64t-10.5 49.5t-34.5 31.5t-62.5 11q-34 0 -70 -7t-59 -17z" />
    <glyph glyph-name="uni04BB" unicode="&#x4bb;" 
d="M365 0l67 317q5 25 5 41q0 35 -16.5 51.5t-45.5 16.5q-27 0 -47 -7.5t-40 -23.5q-18 -14 -31 -33.5t-18 -42.5l-67 -319h-140l151 714h140l-54 -253q37 44 77 63t85 19q73 0 112 -39.5t39 -110.5q0 -32 -7 -64l-70 -329h-140z" />
    <glyph glyph-name="uni04BC" unicode="&#x4bc;" horiz-adv-x="896" 
d="M882 215q-40 -121 -122.5 -177t-207.5 -56q-144 0 -220.5 79.5t-76.5 223.5v17q-48 1 -83 13t-57.5 32t-33.5 47t-11 58q0 41 14.5 75.5t36.5 62.5l99 -31q-12 -18 -21.5 -39t-9.5 -46t17.5 -41t62.5 -16q17 66 49.5 123t78.5 100t105 67.5t130 24.5q67 0 120 -21.5
t89.5 -60t55.5 -92.5t19 -119q0 -34 -2 -55.5t-4 -41.5l-5 -39h-501q-1 -9 -1 -16.5v-12.5q0 -42 12 -73t32.5 -52t47.5 -31t58 -10q42 0 72 10t50 25.5t32 34.5t18 37h157zM763 417q3 24 3 46q0 31 -8.5 57.5t-25 46t-42.5 31t-62 11.5q-40 0 -73.5 -15.5t-59.5 -42
t-45 -61t-29 -73.5h342z" />
    <glyph glyph-name="uni04BD" unicode="&#x4bd;" horiz-adv-x="699" 
d="M317 231q-1 -5 -1 -10v-10q0 -57 27 -87.5t75 -30.5q42 0 67 15t36 55h136q-21 -88 -81.5 -133.5t-172.5 -45.5q-52 0 -94 16t-71 45.5t-45 71t-16 91.5v24q-65 1 -103 30.5t-38 81.5q0 56 33 107l85 -21q-8 -13 -13.5 -31.5t-5.5 -32.5q0 -22 14.5 -31.5t41.5 -10.5
q28 106 102.5 162.5t178.5 56.5q49 0 88 -15t66 -42t41 -63.5t14 -79.5q0 -19 -2 -43t-8 -51l-4 -18h-350zM459 438q-20 0 -40 -5t-37 -18t-31 -35.5t-23 -56.5h216q3 15 3 29q0 41 -24 63.5t-64 22.5z" />
    <glyph glyph-name="uni04BE" unicode="&#x4be;" horiz-adv-x="896" 
d="M882 215q-36 -109 -107.5 -165.5t-177.5 -65.5l-33 -157h-138l35 165q-101 23 -153.5 98.5t-52.5 194.5v17q-48 1 -83 13t-57.5 32t-33.5 47t-11 58q0 41 14.5 75.5t36.5 62.5l99 -31q-12 -18 -21.5 -39t-9.5 -46t17.5 -41t62.5 -16q17 66 49.5 123t78.5 100t105 67.5
t130 24.5q67 0 120 -21.5t89.5 -60t55.5 -92.5t19 -119q0 -34 -2 -55.5t-4 -41.5l-5 -39h-501q-1 -9 -1 -16.5v-12.5q0 -42 12 -73t32.5 -52t47.5 -31t58 -10q42 0 72 10t50 25.5t32 34.5t18 37h157zM763 417q3 24 3 46q0 31 -8.5 57.5t-25 46t-42.5 31t-62 11.5
q-40 0 -73.5 -15.5t-59.5 -42t-45 -61t-29 -73.5h342z" />
    <glyph glyph-name="uni04BF" unicode="&#x4bf;" horiz-adv-x="699" 
d="M317 231q-1 -5 -1 -10v-10q0 -57 27 -87.5t75 -30.5q42 0 67 15t36 55h136q-18 -77 -65.5 -120.5t-132.5 -54.5l-27 -128h-121l26 132q-75 17 -117.5 74.5t-42.5 141.5v24q-65 1 -103 30.5t-38 81.5q0 56 33 107l85 -21q-8 -13 -13.5 -31.5t-5.5 -32.5q0 -22 14.5 -31.5
t41.5 -10.5q28 106 102.5 162.5t178.5 56.5q49 0 88 -15t66 -42t41 -63.5t14 -79.5q0 -19 -2 -43t-8 -51l-4 -18h-350zM459 438q-20 0 -40 -5t-37 -18t-31 -35.5t-23 -56.5h216q3 15 3 29q0 41 -24 63.5t-64 22.5z" />
    <glyph glyph-name="uni04C0" unicode="&#x4c0;" horiz-adv-x="295" 
d="M43 0l151 714h149l-151 -714h-149z" />
    <glyph glyph-name="uni04C1" unicode="&#x4c1;" horiz-adv-x="1059" 
d="M599 929q-1 -5 -1 -8.5v-7.5q0 -9 3 -19t11 -17.5t22 -12.5t37 -5q38 0 61.5 16t33.5 54h100q-7 -34 -21.5 -62.5t-39 -49.5t-60 -32.5t-83.5 -11.5q-33 0 -63 7t-52.5 22t-36 39t-13.5 59q0 11 1 18t2 11h99zM489 302h-31q-23 0 -41.5 -11.5t-42.5 -39.5l-212 -251h-185
l251 294q29 33 54.5 51.5t53.5 26.5q-27 12 -44.5 35.5t-28.5 58.5l-21 65q-9 29 -25 45.5t-53 16.5q-6 0 -12 -0.5t-11 -0.5q-5 -1 -10 -1l20 114q24 6 39 7.5t35 1.5q54 0 84 -27t48 -78l35 -101q15 -42 39.5 -64.5t62.5 -22.5h19l62 293h149l-62 -293h19q29 0 61.5 17.5
t66.5 69.5l68 104q38 59 82.5 80.5t104.5 21.5q28 0 45 -2.5t33 -7.5l-34 -119l-10 2t-11.5 1.5t-13.5 0.5q-32 0 -51.5 -12.5t-41.5 -47.5l-48 -75q-24 -39 -49 -57.5t-52 -29.5q24 -13 42 -42.5t32 -61.5l114 -263h-167l-101 243q-11 26 -27.5 42.5t-53.5 16.5h-32
l-65 -302h-149z" />
    <glyph glyph-name="uni04C2" unicode="&#x4c2;" horiz-adv-x="842" 
d="M453 747q-1 -5 -1 -8.5v-7.5q0 -9 3 -19t11 -17.5t22 -12.5t37 -5q38 0 61.5 16t33.5 54h100q-7 -34 -21.5 -62.5t-39 -49.5t-60 -32.5t-83.5 -11.5q-33 0 -63 7t-52.5 22t-36 39t-13.5 59q0 11 1 18t2 11h99zM539 312q26 0 45.5 17t37.5 44l45 69q56 86 161 86
q20 0 38.5 -3.5t26.5 -7.5l-30 -101q-4 1 -9 2t-10.5 2t-12.5 1q-23 0 -37.5 -12.5t-28.5 -32.5l-34 -52q-29 -42 -67 -53q30 -11 44.5 -33t22.5 -43l72 -195h-142l-51 156q-21 61 -81 61h-24l-47 -217h-132l47 217h-29q-29 0 -48.5 -14.5t-44.5 -46.5l-118 -156h-153
l153 196q29 37 55 54.5t55 23.5q-17 8 -26 22t-16 32l-18 46q-19 47 -62 47q-10 0 -20 -2q-4 -1 -9 -1l10 102q6 2 16 4q8 2 19.5 3t25.5 1q44 0 73 -23t46 -62l30 -68q13 -29 25 -46t36 -17h20l46 216h132l-46 -216h14z" />
    <glyph glyph-name="uni04C3" unicode="&#x4c3;" horiz-adv-x="693" 
d="M280 420h21q24 0 44 8.5t38 23t34 33.5t32 40l55 72q22 29 41.5 51t41 36.5t49 22t66.5 7.5q22 0 41.5 -4t29.5 -7l-34 -119q-10 3 -18.5 4t-16.5 1q-19 0 -33 -6t-25 -16t-20 -22t-19 -25l-46 -62q-15 -20 -36.5 -38t-43.5 -26q84 -19 135.5 -77t51.5 -152
q0 -80 -26.5 -140.5t-77 -101.5t-123 -62t-163.5 -21h-46l27 128h48q48 0 86 11t65 34.5t41.5 60.5t14.5 90q0 27 -10 52.5t-29.5 44.5t-49.5 30.5t-70 11.5h-99l-65 -303h-148l150 714h149z" />
    <glyph glyph-name="uni04C4" unicode="&#x4c4;" horiz-adv-x="587" 
d="M448 330q-10 -14 -21 -23t-23 -15q32 -9 59 -25.5t47 -40.5t31 -56t11 -73q0 -69 -21 -124.5t-64 -94.5t-108.5 -60t-154.5 -21h-39l24 114h36q89 0 136.5 47t47.5 138q0 64 -40 92.5t-100 28.5h-52l-46 -217h-139l112 528h139l-46 -215h19q18 0 37.5 11.5t42.5 48.5
l41 65q17 27 33.5 44t35 27.5t40 14.5t48.5 4q14 0 35.5 -3t36.5 -8l-29 -101q-5 1 -11 2q-5 1 -11.5 2t-11.5 1q-23 0 -35.5 -10t-27.5 -33z" />
    <glyph glyph-name="uni04C5" unicode="&#x4c5;" horiz-adv-x="788" 
d="M629 589h-164l-84 -270q-26 -84 -57 -146t-72 -102t-94.5 -59.5t-124.5 -19.5h-42l26 127h16q37 0 67 12t56 41.5t49 80t47 127.5l104 334h449l-125 -585h84q-4 -59 -20.5 -106.5t-42.5 -86t-60.5 -69.5t-75.5 -58l-81 91q32 23 62 47.5t49 52.5h-91z" />
    <glyph glyph-name="uni04C6" unicode="&#x4c6;" horiz-adv-x="612" 
d="M457 412h-126l-43 -140q-23 -73 -47.5 -125.5t-56 -86t-71 -49.5t-91.5 -16h-46l23 114h11q25 0 45 9.5t36.5 30.5t31 55t30.5 83l77 241h392l-87 -412h65q-2 -40 -8.5 -75.5t-23 -69t-46 -65t-75.5 -63.5l-74 75q20 17 44 38t37 44h-84z" />
    <glyph glyph-name="uni04C7" unicode="&#x4c7;" horiz-adv-x="727" 
d="M538 300h-283l-63 -300h-149l151 714h149l-58 -276h283l58 276h149l-156 -737q-13 -60 -34 -95.5t-48 -55t-58 -25.5t-62 -6q-59 0 -113 20l40 112q13 -4 29 -6.5t30 -2.5q12 0 22.5 2t19 9t14.5 19.5t11 32.5z" />
    <glyph glyph-name="uni04C8" unicode="&#x4c8;" horiz-adv-x="608" 
d="M145 528h140l-42 -198h208l42 198h140l-122 -570q-10 -45 -24.5 -76.5t-36.5 -50.5t-52.5 -27.5t-71.5 -8.5q-32 0 -61 6t-55 17l40 103q12 -5 27.5 -8.5t32.5 -3.5q25 0 41 15.5t25 56.5l50 233h-209l-45 -214h-140z" />
    <glyph glyph-name="uni04C9" unicode="&#x4c9;" horiz-adv-x="758" 
d="M475 0l63 300h-283l-63 -300h-149l151 714h149l-58 -276h283l58 276h149l-124 -585h84q-4 -59 -20.5 -106.5t-42.5 -86t-60.5 -69.5t-75.5 -58l-81 91q32 23 62 47.5t49 52.5h-91z" />
    <glyph glyph-name="uni04CA" unicode="&#x4ca;" horiz-adv-x="623" 
d="M610 116q-2 -40 -8.5 -75.5t-23 -69t-46 -65t-75.5 -63.5l-74 75q20 17 44 38t37 44h-84l45 214h-208l-45 -214h-140l113 528h140l-42 -198h208l42 198h140l-87 -412h64z" />
    <glyph glyph-name="uni04CB" unicode="&#x4cb;" horiz-adv-x="678" 
d="M489 300q-33 -14 -74 -22t-83 -8q-58 0 -101.5 18t-70.5 51t-35.5 79.5t3.5 104.5l41 191h149l-36 -170q-8 -35 -7.5 -64t11.5 -49.5t35 -31.5t63 -11q34 0 70 7t59 17l64 302h149l-151 -714h-95l-36 -173h-137l64 302h82z" />
    <glyph glyph-name="uni04CC" unicode="&#x4cc;" horiz-adv-x="563" 
d="M295 116h64l20 92q-22 -5 -51 -8t-52 -3q-89 0 -136 41.5t-47 114.5q0 13 2 27t5 29l25 119h140l-25 -118q-2 -10 -3 -18.5t-1 -16.5q0 -35 19.5 -50t64.5 -15q26 0 48 3.5t36 8.5l44 206h140l-113 -528h-84l-29 -140h-121z" />
    <glyph glyph-name="uni04CD" unicode="&#x4cd;" horiz-adv-x="891" 
d="M867 129q-4 -59 -20.5 -106.5t-42.5 -86t-60.5 -69.5t-75.5 -58l-81 91q32 23 62 47.5t49 52.5h-78l101 476l-262 -476h-116l-66 475l-100 -475h-134l151 714h175l67 -533l294 533h178l-125 -585h84z" />
    <glyph glyph-name="uni04CE" unicode="&#x4ce;" horiz-adv-x="741" 
d="M145 528h145l78 -382l250 382h133l-88 -412h65q-2 -40 -8.5 -75.5t-23 -69t-46 -65t-75.5 -63.5l-74 75q20 17 44 38t37 44h-70l63 294l-194 -294h-91l-65 320l-67 -320h-126z" />
    <glyph glyph-name="uni04CF" unicode="&#x4cf;" horiz-adv-x="295" 
d="M43 0l151 714h149l-151 -714h-149z" />
    <glyph glyph-name="uni04D0" unicode="&#x4d0;" horiz-adv-x="698" 
d="M541 714l117 -714h-154l-22 165h-250l-92 -165h-160l419 714h142zM295 288h173l-33 256zM419 929q-1 -5 -1 -8.5v-7.5q0 -9 3 -19t11 -17.5t22 -12.5t37 -5q38 0 61.5 16t33.5 54h100q-7 -34 -21.5 -62.5t-39 -49.5t-60 -32.5t-83.5 -11.5q-33 0 -63 7t-52.5 22t-36 39
t-13.5 59q0 11 1 18t2 11h99z" />
    <glyph glyph-name="uni04D1" unicode="&#x4d1;" horiz-adv-x="561" 
d="M312 747q-1 -5 -1 -8.5v-7.5q0 -9 3 -19t11 -17.5t22 -12.5t37 -5q38 0 61.5 16t33.5 54h100q-7 -34 -21.5 -62.5t-39 -49.5t-60 -32.5t-83.5 -11.5q-33 0 -63 7t-52.5 22t-36 39t-13.5 59q0 11 1 18t2 11h99zM183 -13q-69 0 -110 37t-41 110q0 58 25 94t65.5 56.5t92 29
t103.5 10.5l89 4l4 21q3 15 3 28q0 32 -20 48t-57 16q-44 0 -69.5 -13.5t-39.5 -49.5l-125 12q25 85 86.5 120t162.5 35q93 0 143.5 -40.5t51.5 -119.5q0 -14 -1.5 -30t-5.5 -33l-67 -322h-132l14 66q-19 -19 -37 -34t-38 -25t-43.5 -15t-53.5 -5zM387 238l-68 -4
q-43 -3 -71 -9.5t-44.5 -17.5t-23.5 -26.5t-7 -34.5q0 -24 15.5 -39t43.5 -15q27 0 49 6.5t42 20.5q22 14 37 36t21 53z" />
    <glyph glyph-name="uni04D2" unicode="&#x4d2;" horiz-adv-x="698" 
d="M541 714l117 -714h-154l-22 165h-250l-92 -165h-160l419 714h142zM295 288h173l-33 256zM308 782l27 129h134l-27 -129h-134zM516 782l27 129h134l-27 -129h-134z" />
    <glyph glyph-name="uni04D3" unicode="&#x4d3;" horiz-adv-x="561" 
d="M202 608l26 125h130l-26 -125h-130zM404 608l26 125h130l-26 -125h-130zM183 -13q-69 0 -110 37t-41 110q0 58 25 94t65.5 56.5t92 29t103.5 10.5l89 4l4 21q3 15 3 28q0 32 -20 48t-57 16q-44 0 -69.5 -13.5t-39.5 -49.5l-125 12q25 85 86.5 120t162.5 35
q93 0 143.5 -40.5t51.5 -119.5q0 -14 -1.5 -30t-5.5 -33l-67 -322h-132l14 66q-19 -19 -37 -34t-38 -25t-43.5 -15t-53.5 -5zM387 238l-68 -4q-43 -3 -71 -9.5t-44.5 -17.5t-23.5 -26.5t-7 -34.5q0 -24 15.5 -39t43.5 -15q27 0 49 6.5t42 20.5q22 14 37 36t21 53z" />
    <glyph glyph-name="uni04D4" unicode="&#x4d4;" horiz-adv-x="1052" 
d="M560 214h-262l-164 -214h-171l554 714h612l-27 -127h-319l-33 -156h299l-27 -128h-299l-38 -176h340l-41 -127h-469zM387 337h199l53 250h-66z" />
    <glyph glyph-name="uni04D5" unicode="&#x4d5;" horiz-adv-x="897" 
d="M854 163q-21 -91 -84 -135t-167 -44q-69 0 -111 27.5t-68 78.5q-18 -21 -37.5 -39.5t-45 -33t-59 -22.5t-79.5 -8q-84 0 -127.5 37t-43.5 110q0 58 25 94t65 56.5t90.5 29t102.5 10.5l86 4l4 19q2 7 2.5 14.5t0.5 13.5q0 32 -18 49t-57 17q-42 0 -67 -13.5t-39 -49.5
l-125 12q25 85 84.5 120t151.5 35q65 0 100.5 -20.5t55.5 -60.5q35 42 78 61.5t100 19.5q48 0 86.5 -15.5t65 -42.5t40.5 -64t14 -80q0 -19 -1.5 -40t-6.5 -45l-6 -27h-347v-19q0 -56 27 -87.5t71 -31.5q40 0 66 15t37 55h136zM381 238l-65 -4q-43 -3 -70.5 -9.5
t-43.5 -17.5t-22.5 -26.5t-6.5 -34.5q0 -24 16 -39t46 -15q27 0 48 7t41 21q22 16 33.5 36.5t17.5 51.5zM658 440q-19 0 -38.5 -5t-36.5 -18t-31.5 -36t-23.5 -58h213q3 15 3 29q0 43 -24 65.5t-62 22.5z" />
    <glyph glyph-name="uni04D6" unicode="&#x4d6;" horiz-adv-x="604" 
d="M316 587l-33 -156h318l-27 -128h-318l-38 -176h359l-41 -127h-493l151 714h487l-27 -127h-338zM379 929q-1 -5 -1 -8.5v-7.5q0 -9 3 -19t11 -17.5t22 -12.5t37 -5q38 0 61.5 16t33.5 54h100q-7 -34 -21.5 -62.5t-39 -49.5t-60 -32.5t-83.5 -11.5q-33 0 -63 7t-52.5 22
t-36 39t-13.5 59q0 11 1 18t2 11h99z" />
    <glyph glyph-name="uni04D7" unicode="&#x4d7;" horiz-adv-x="589" 
d="M307 747q-1 -5 -1 -8.5v-7.5q0 -9 3 -19t11 -17.5t22 -12.5t37 -5q38 0 61.5 16t33.5 54h100q-7 -34 -21.5 -62.5t-39 -49.5t-60 -32.5t-83.5 -11.5q-33 0 -63 7t-52.5 22t-36 39t-13.5 59q0 11 1 18t2 11h99zM349 438q-20 0 -40 -5t-37 -18t-31 -35.5t-23 -56.5h216
q3 15 3 29q0 41 -24 63.5t-64 22.5zM207 231q-1 -5 -1 -10v-10q0 -57 27 -87.5t75 -30.5q42 0 67 15t36 55h136q-21 -88 -81.5 -133.5t-172.5 -45.5q-52 0 -94 16t-71 45.5t-45 71t-16 91.5q0 79 22 141.5t61 105.5t93 65.5t119 22.5q49 0 88 -15t66 -42t41 -63.5t14 -79.5
q0 -19 -2 -43t-8 -51l-4 -18h-350z" />
    <glyph glyph-name="uni04D8" unicode="&#x4d8;" horiz-adv-x="751" 
d="M134 533q25 57 59 95.5t76 61.5t89.5 32.5t99.5 9.5q66 0 120 -20t91.5 -60t58 -98.5t20.5 -134.5t-22 -154t-67.5 -141t-116 -102.5t-167.5 -39.5q-70 0 -122.5 23.5t-87.5 63t-52.5 92t-17.5 110.5q0 9 0.5 22.5t1.5 28t2 27t2 19.5l6 43h488q1 11 1.5 21.5t0.5 20.5
q0 29 -8 57t-25.5 49.5t-45 34.5t-65.5 13q-71 0 -113 -28.5t-71 -87.5zM245 297q-1 -6 -2 -15.5t-1 -20.5q0 -78 37.5 -117t96.5 -39q78 0 129.5 49t73.5 143h-334z" />
    <glyph glyph-name="uni04D9" unicode="&#x4d9;" horiz-adv-x="589" 
d="M80 381q20 43 44 74t56 50.5t73 28.5t94 9q110 0 168 -63t58 -175q0 -70 -20.5 -129t-58.5 -101.5t-91 -66.5t-117 -24q-114 0 -173 55t-59 161q0 19 4.5 48t9.5 50h365q1 5 1.5 13.5t0.5 13.5q0 51 -27.5 80t-74.5 29q-48 0 -78 -19.5t-51 -62.5zM190 206
q-2 -8 -2 -12.5v-9.5q0 -42 22 -68.5t74 -26.5q33 0 57.5 9t41 24.5t26.5 37t15 46.5h-234z" />
    <glyph glyph-name="uni04DA" unicode="&#x4da;" horiz-adv-x="761" 
d="M139 533q25 57 59 95.5t76 61.5t89.5 32.5t99.5 9.5q66 0 120 -20t91.5 -60t58 -98.5t20.5 -134.5t-22 -154t-67.5 -141t-116 -102.5t-167.5 -39.5q-70 0 -122.5 23.5t-87.5 63t-52.5 92t-17.5 110.5q0 9 0.5 22.5t1.5 28t2 27t2 19.5l6 43h488q1 11 1.5 21.5t0.5 20.5
q0 29 -8 57t-25.5 49.5t-45 34.5t-65.5 13q-71 0 -113 -28.5t-71 -87.5zM250 297q-1 -6 -2 -15.5t-1 -20.5q0 -78 37.5 -117t96.5 -39q78 0 129.5 49t73.5 143h-334zM321 782l27 129h134l-27 -129h-134zM529 782l27 129h134l-27 -129h-134z" />
    <glyph glyph-name="uni04DB" unicode="&#x4db;" horiz-adv-x="589" 
d="M80 381q20 43 44 74t56 50.5t73 28.5t94 9q110 0 168 -63t58 -175q0 -70 -20.5 -129t-58.5 -101.5t-91 -66.5t-117 -24q-114 0 -173 55t-59 161q0 19 4.5 48t9.5 50h365q1 5 1.5 13.5t0.5 13.5q0 51 -27.5 80t-74.5 29q-48 0 -78 -19.5t-51 -62.5zM190 206
q-2 -8 -2 -12.5v-9.5q0 -42 22 -68.5t74 -26.5q33 0 57.5 9t41 24.5t26.5 37t15 46.5h-234zM197 608l26 125h130l-26 -125h-130zM399 608l26 125h130l-26 -125h-130z" />
    <glyph glyph-name="uni04DC" unicode="&#x4dc;" horiz-adv-x="1059" 
d="M489 302h-31q-23 0 -41.5 -11.5t-42.5 -39.5l-212 -251h-185l251 294q29 33 54.5 51.5t53.5 26.5q-27 12 -44.5 35.5t-28.5 58.5l-21 65q-9 29 -25 45.5t-53 16.5q-6 0 -12 -0.5t-11 -0.5q-5 -1 -10 -1l20 114q24 6 39 7.5t35 1.5q54 0 84 -27t48 -78l35 -101
q15 -42 39.5 -64.5t62.5 -22.5h19l62 293h149l-62 -293h19q29 0 61.5 17.5t66.5 69.5l68 104q38 59 82.5 80.5t104.5 21.5q28 0 45 -2.5t33 -7.5l-34 -119l-10 2t-11.5 1.5t-13.5 0.5q-32 0 -51.5 -12.5t-41.5 -47.5l-48 -75q-24 -39 -49 -57.5t-52 -29.5q24 -13 42 -42.5
t32 -61.5l114 -263h-167l-101 243q-11 26 -27.5 42.5t-53.5 16.5h-32l-65 -302h-149zM494 782l27 129h134l-27 -129h-134zM702 782l27 129h134l-27 -129h-134z" />
    <glyph glyph-name="uni04DD" unicode="&#x4dd;" horiz-adv-x="842" 
d="M359 608l26 125h130l-26 -125h-130zM561 608l26 125h130l-26 -125h-130zM539 312q26 0 45.5 17t37.5 44l45 69q56 86 161 86q20 0 38.5 -3.5t26.5 -7.5l-30 -101q-4 1 -9 2t-10.5 2t-12.5 1q-23 0 -37.5 -12.5t-28.5 -32.5l-34 -52q-29 -42 -67 -53q30 -11 44.5 -33
t22.5 -43l72 -195h-142l-51 156q-21 61 -81 61h-24l-47 -217h-132l47 217h-29q-29 0 -48.5 -14.5t-44.5 -46.5l-118 -156h-153l153 196q29 37 55 54.5t55 23.5q-17 8 -26 22t-16 32l-18 46q-19 47 -62 47q-10 0 -20 -2q-4 -1 -9 -1l10 102q6 2 16 4q8 2 19.5 3t25.5 1
q44 0 73 -23t46 -62l30 -68q13 -29 25 -46t36 -17h20l46 216h132l-46 -216h14z" />
    <glyph glyph-name="uni04DE" unicode="&#x4de;" horiz-adv-x="647" 
d="M198 220q5 -35 14.5 -57.5t26 -36t41.5 -19t61 -5.5q66 0 100.5 28t34.5 92q0 43 -33.5 64.5t-105.5 21.5h-70l25 119h78q35 0 64.5 6t50.5 18.5t33 33.5t12 51q0 38 -32 57.5t-79 19.5q-35 0 -61 -5t-45.5 -16t-34 -30t-24.5 -47l-135 18q32 102 106 150.5t205 48.5
q51 0 95.5 -12.5t76.5 -35.5t50.5 -57.5t18.5 -77.5q0 -71 -38 -113.5t-98 -64.5q39 -23 63.5 -60t24.5 -86q0 -57 -21 -102.5t-58.5 -76.5t-89.5 -47.5t-115 -16.5q-134 0 -204.5 58t-76.5 180h140zM276 782l27 129h134l-27 -129h-134zM484 782l27 129h134l-27 -129h-134z
" />
    <glyph glyph-name="uni04DF" unicode="&#x4df;" horiz-adv-x="554" 
d="M340 543q102 0 156 -37t54 -99q0 -51 -27 -83t-74 -48q34 -14 55.5 -43t21.5 -74q0 -44 -17.5 -76.5t-50 -54t-78 -32t-101.5 -10.5q-109 0 -172 45.5t-73 142.5h134q5 -40 35.5 -58.5t75.5 -18.5q32 0 52.5 5.5t32 15t16 22t4.5 26.5q0 30 -22 42t-60 12h-98l20 94h107
q37 0 60 15t23 47q0 30 -23.5 44t-58.5 14q-50 0 -81.5 -17.5t-45.5 -60.5l-129 22q28 86 93.5 125.5t170.5 39.5zM184 608l26 125h130l-26 -125h-130zM386 608l26 125h130l-26 -125h-130z" />
    <glyph glyph-name="uni04E0" unicode="&#x4e0;" horiz-adv-x="613" 
d="M435 585h-296l25 129h484l-23 -110l-222 -182q90 -11 138.5 -61.5t48.5 -126.5q0 -57 -18.5 -103.5t-54.5 -79.5t-90 -51t-124 -18q-75 0 -126.5 19t-83 51.5t-45 76t-13.5 91.5h140q4 -55 33 -85t99 -30q74 0 106 31.5t32 91.5q0 16 -7 33t-22.5 30.5t-40 22t-58.5 8.5
h-93l20 100z" />
    <glyph glyph-name="uni04E1" unicode="&#x4e1;" horiz-adv-x="525" 
d="M349 418h-258l22 110h434l-15 -80l-227 -210q93 -15 135 -66t42 -123q0 -57 -14.5 -103.5t-46 -79.5t-81 -51t-120.5 -18q-120 0 -176.5 51.5t-59.5 137.5h132q8 -40 30.5 -60.5t78.5 -20.5q61 0 88.5 34.5t27.5 93.5q0 48 -32.5 78.5t-95.5 30.5h-79l17 91z" />
    <glyph glyph-name="uni04E2" unicode="&#x4e2;" horiz-adv-x="713" 
d="M609 0h-145l100 464l-388 -464h-133l150 714h145l-99 -469l388 469h134zM362 901h310l-24 -111h-310z" />
    <glyph glyph-name="uni04E3" unicode="&#x4e3;" horiz-adv-x="583" 
d="M265 719h292l-22 -107h-292zM361 0l67 312l-275 -312h-121l113 528h127l-71 -331l286 331h114l-113 -528h-127z" />
    <glyph glyph-name="uni04E4" unicode="&#x4e4;" horiz-adv-x="713" 
d="M609 0h-145l100 464l-388 -464h-133l150 714h145l-99 -469l388 469h134zM319 782l27 129h134l-27 -129h-134zM527 782l27 129h134l-27 -129h-134z" />
    <glyph glyph-name="uni04E5" unicode="&#x4e5;" horiz-adv-x="583" 
d="M223 608l26 125h130l-26 -125h-130zM425 608l26 125h130l-26 -125h-130zM361 0l67 312l-275 -312h-121l113 528h127l-71 -331l286 331h114l-113 -528h-127z" />
    <glyph glyph-name="uni04E6" unicode="&#x4e6;" horiz-adv-x="780" 
d="M490 732q69 0 122.5 -22.5t90 -62t55.5 -94.5t19 -120q0 -87 -25 -168.5t-74.5 -144.5t-124 -100.5t-172.5 -37.5q-69 0 -123 22t-91 62t-56.5 95t-19.5 121q0 86 26 167t76.5 144t125 101t171.5 38zM478 604q-60 0 -104 -28t-72.5 -73t-42.5 -101.5t-14 -112.5
q0 -83 36.5 -131t109.5 -48q60 0 103.5 28t72 73t42.5 101.5t14 113.5q0 81 -36 129.5t-109 48.5zM331 782l27 129h134l-27 -129h-134zM539 782l27 129h134l-27 -129h-134z" />
    <glyph glyph-name="uni04E7" unicode="&#x4e7;" horiz-adv-x="616" 
d="M369 543q53 0 95.5 -17.5t72 -48t45.5 -71t16 -86.5q0 -80 -22.5 -142.5t-63 -105.5t-97 -65.5t-123.5 -22.5q-53 0 -95.5 17.5t-72.5 48t-46 71t-16 86.5q0 78 23 140t64.5 105.5t97.5 67t122 23.5zM359 431q-31 0 -58.5 -14.5t-48.5 -43t-33 -70t-12 -95.5
q0 -52 24.5 -82t69.5 -30q31 0 58.5 14.5t48.5 42.5t33 69.5t12 95.5q0 52 -24.5 82.5t-69.5 30.5zM216 608l26 125h130l-26 -125h-130zM418 608l26 125h130l-26 -125h-130z" />
    <glyph glyph-name="uni04E8" unicode="&#x4e8;" horiz-adv-x="780" 
d="M490 732q69 0 122.5 -22.5t90 -62t55.5 -94.5t19 -120q0 -87 -25 -168.5t-74.5 -144.5t-124 -100.5t-172.5 -37.5q-69 0 -123 22t-91 62t-56.5 95t-19.5 121q0 86 26 167t76.5 144t125 101t171.5 38zM391 110q44 0 79 15.5t62 42t45.5 62t29.5 76.5h-362v-17
q0 -83 36.5 -131t109.5 -48zM478 604q-41 0 -74 -13t-59 -36t-45 -54t-31 -66h354q-2 78 -38 123.5t-107 45.5z" />
    <glyph glyph-name="uni04E9" unicode="&#x4e9;" horiz-adv-x="616" 
d="M369 543q53 0 95.5 -17.5t72 -47.5t45.5 -70.5t16 -86.5q0 -80 -22.5 -143t-63 -106t-97 -65.5t-123.5 -22.5q-53 0 -95.5 17.5t-72.5 48t-46 71.5t-16 87q0 78 23 140.5t64.5 105.5t97.5 66t122 23zM300 93q46 0 85 30.5t56 90.5h-237q0 -57 25 -89t71 -32zM360 435
q-46 0 -83.5 -30t-56.5 -87h236q0 56 -25.5 86.5t-70.5 30.5z" />
    <glyph glyph-name="uni04EA" unicode="&#x4ea;" horiz-adv-x="780" 
d="M490 732q69 0 122.5 -22.5t90 -62t55.5 -94.5t19 -120q0 -87 -25 -168.5t-74.5 -144.5t-124 -100.5t-172.5 -37.5q-69 0 -123 22t-91 62t-56.5 95t-19.5 121q0 86 26 167t76.5 144t125 101t171.5 38zM391 110q44 0 79 15.5t62 42t45.5 62t29.5 76.5h-362v-17
q0 -83 36.5 -131t109.5 -48zM478 604q-41 0 -74 -13t-59 -36t-45 -54t-31 -66h354q-2 78 -38 123.5t-107 45.5zM331 782l27 129h134l-27 -129h-134zM539 782l27 129h134l-27 -129h-134z" />
    <glyph glyph-name="uni04EB" unicode="&#x4eb;" horiz-adv-x="616" 
d="M369 543q53 0 95.5 -17.5t72 -47.5t45.5 -70.5t16 -86.5q0 -80 -22.5 -143t-63 -106t-97 -65.5t-123.5 -22.5q-53 0 -95.5 17.5t-72.5 48t-46 71.5t-16 87q0 78 23 140.5t64.5 105.5t97.5 66t122 23zM300 93q46 0 85 30.5t56 90.5h-237q0 -57 25 -89t71 -32zM360 435
q-46 0 -83.5 -30t-56.5 -87h236q0 56 -25.5 86.5t-70.5 30.5zM215 608l26 125h130l-26 -125h-130zM417 608l26 125h130l-26 -125h-130z" />
    <glyph glyph-name="uni04EC" unicode="&#x4ec;" horiz-adv-x="710" 
d="M555 431q0 46 -11 78.5t-31 53.5t-47.5 31t-59.5 10q-62 0 -101.5 -24t-65.5 -83l-138 26q40 108 117 158.5t194 50.5q79 0 135 -24t91.5 -66.5t52 -102t16.5 -130.5q0 -89 -22 -167t-66.5 -136t-112.5 -91t-159 -33q-57 0 -106.5 14.5t-88 44t-63 74t-30.5 105.5h146
q7 -36 22 -57.5t35.5 -33t45.5 -15.5t53 -4q39 0 69 14t52.5 39.5t38 61t24.5 78.5h-293l27 128h276zM270 782l27 129h134l-27 -129h-134zM478 782l27 129h134l-27 -129h-134z" />
    </font>
</defs>
</svg>
