<?xml version="1.0" standalone="no"?>
<!DOCTYPE svg PUBLIC "-//W3C//DTD SVG 1.1//EN" "http://www.w3.org/Graphics/SVG/1.1/DTD/svg11.dtd" >
<svg xmlns="http://www.w3.org/2000/svg" xmlns:xlink="http://www.w3.org/1999/xlink" version="1.1">
<metadata>
Created by FontForge 20160405 at Thu Jul 14 03:21:31 2016
 By www-data
Copyright (c) 2010 Dalton Maag Ltd. All rights reserved. This font may not be altered in any way without prior permission of Dalton Maag Ltd.
</metadata>
<defs>
<font id="AktivGroteskCorp-Light" horiz-adv-x="592" >
  <font-face 
    font-family="Aktiv Grotesk Corp"
    font-weight="300"
    font-stretch="normal"
    units-per-em="1000"
    panose-1="2 11 3 4 2 2 2 2 2 4"
    ascent="800"
    descent="-200"
    x-height="515"
    cap-height="714"
    bbox="-171 -218 1248 926"
    underline-thickness="56"
    underline-position="-189"
    unicode-range="U+0008-FB04"
  />
<missing-glyph horiz-adv-x="500" 
d="M50 0v750h400v-750h-400zM400 50v650h-300v-650h300z" />
    <glyph glyph-name="f_f" unicode="ff" horiz-adv-x="618" 
d="M99 467h-80v48h80v59q0 38 12 66t31.5 46t45.5 27t55 9q21 0 38.5 -2.5t37.5 -8.5l-12 -49q-16 5 -29.5 7t-28.5 2q-39 0 -65.5 -20.5t-26.5 -74.5v-61h137v-48h-137v-467h-58v467zM408 467h-80v48h80v59q0 38 12 66t31.5 46t45.5 27t55 9q21 0 38.5 -2.5t37.5 -8.5
l-12 -49q-16 5 -29.5 7t-28.5 2q-39 0 -65.5 -20.5t-26.5 -74.5v-61h137v-48h-137v-467h-58v467z" />
    <glyph glyph-name="f_i" unicode="fi" horiz-adv-x="513" 
d="M99 467h-80v48h80v59q0 38 12 66t31.5 46t45.5 27t55 9q21 0 38.5 -2.5t37.5 -8.5l-12 -49q-16 5 -29.5 7t-28.5 2q-39 0 -65.5 -20.5t-26.5 -74.5v-61h137v-48h-137v-467h-58v467zM382 515h58v-515h-58v515zM378 714h66v-87h-66v87z" />
    <glyph glyph-name="f_l" unicode="fl" horiz-adv-x="513" 
d="M99 467h-80v48h80v59q0 38 12 66t31.5 46t45.5 27t55 9q21 0 38.5 -2.5t37.5 -8.5l-12 -49q-16 5 -29.5 7t-28.5 2q-39 0 -65.5 -20.5t-26.5 -74.5v-61h137v-48h-137v-467h-58v467zM382 714h58v-714h-58v714z" />
    <glyph glyph-name="f_f_i" unicode="ffi" horiz-adv-x="822" 
d="M99 467h-80v48h80v59q0 38 12 66t31.5 46t45.5 27t55 9q21 0 38.5 -2.5t37.5 -8.5l-12 -49q-16 5 -29.5 7t-28.5 2q-39 0 -65.5 -20.5t-26.5 -74.5v-61h137v-48h-137v-467h-58v467zM408 467h-80v48h80v59q0 38 12 66t31.5 46t45.5 27t55 9q21 0 38.5 -2.5t37.5 -8.5
l-12 -49q-16 5 -29.5 7t-28.5 2q-39 0 -65.5 -20.5t-26.5 -74.5v-61h137v-48h-137v-467h-58v467zM691 515h58v-515h-58v515zM687 714h66v-87h-66v87z" />
    <glyph glyph-name="f_f_l" unicode="ffl" horiz-adv-x="822" 
d="M99 467h-80v48h80v59q0 38 12 66t31.5 46t45.5 27t55 9q21 0 38.5 -2.5t37.5 -8.5l-12 -49q-16 5 -29.5 7t-28.5 2q-39 0 -65.5 -20.5t-26.5 -74.5v-61h137v-48h-137v-467h-58v467zM408 467h-80v48h80v59q0 38 12 66t31.5 46t45.5 27t55 9q21 0 38.5 -2.5t37.5 -8.5
l-12 -49q-16 5 -29.5 7t-28.5 2q-39 0 -65.5 -20.5t-26.5 -74.5v-61h137v-48h-137v-467h-58v467zM691 714h58v-714h-58v714z" />
    <glyph glyph-name=".notdef" horiz-adv-x="500" 
d="M50 0v750h400v-750h-400zM400 50v650h-300v-650h300z" />
    <glyph glyph-name=".null" horiz-adv-x="0" 
 />
    <glyph glyph-name=".null" horiz-adv-x="0" 
 />
    <glyph glyph-name=".null" horiz-adv-x="0" 
 />
    <glyph glyph-name="nonmarkingreturn" unicode="&#x9;" horiz-adv-x="224" 
 />
    <glyph glyph-name="nonmarkingreturn" unicode="&#xd;" horiz-adv-x="224" 
 />
    <glyph glyph-name="space" unicode=" " horiz-adv-x="224" 
 />
    <glyph glyph-name="exclam" unicode="!" horiz-adv-x="206" 
d="M73 714h61l-4 -521h-53zM67 92h72v-92h-72v92z" />
    <glyph glyph-name="quotedbl" unicode="&#x22;" horiz-adv-x="298" 
d="M195 710h60l-7 -242h-47zM43 710h60l-6 -242h-48z" />
    <glyph glyph-name="numbersign" unicode="#" 
d="M122 185h-104v44h111l38 222h-112v46h120l29 181h55l-31 -181h187l29 181h55l-29 -181h104v-46h-112l-38 -222h113v-44h-120l-30 -185h-55l32 185h-187l-31 -185h-54zM371 229l36 222h-187l-36 -222h187z" />
    <glyph glyph-name="dollar" unicode="$" 
d="M269 -16q-97 5 -158 51t-70 138h54q11 -66 53 -100t121 -39v294q-52 7 -90.5 20.5t-64 37t-38 58.5t-12.5 83q0 40 15.5 72t43 55t65 37t81.5 17v80h49v-79q54 -3 91 -19.5t61 -40.5t37 -52.5t19 -54.5l-53 -13q-8 24 -19 46.5t-28.5 39.5t-43.5 28.5t-64 14.5v-282
l13 -2q95 -12 146 -57.5t51 -139.5q0 -40 -13.5 -74t-40.5 -59.5t-66 -41t-90 -18.5v-93h-49v93zM318 34q76 5 113.5 45t37.5 100q0 22 -5 44t-18.5 40.5t-38 32.5t-64.5 20l-25 4v-286zM269 658q-41 -3 -69 -15t-46 -29.5t-26 -40t-8 -46.5q0 -27 5 -50t20.5 -42t45 -32.5
t78.5 -20.5v276z" />
    <glyph glyph-name="percent" unicode="%" horiz-adv-x="888" 
d="M206 281q-37 0 -67.5 13t-53 39t-35 66.5t-12.5 94.5t12.5 94t35 66.5t53.5 39.5t67 13q37 0 68 -13t53 -39.5t34.5 -66.5t12.5 -94q0 -109 -46.5 -161t-121.5 -52zM206 329q111 0 111 165q0 164 -111 164t-111 -164q0 -165 111 -165zM682 -21q-37 0 -67.5 13t-53 39
t-35 66.5t-12.5 94.5t12.5 94t35 66.5t53.5 39.5t67 13q37 0 68 -13t53 -39.5t34.5 -66.5t12.5 -94q0 -109 -46.5 -161t-121.5 -52zM682 27q111 0 111 165q0 164 -111 164t-111 -164q0 -165 111 -165zM298 0h-61l352 691h61z" />
    <glyph glyph-name="ampersand" unicode="&#x26;" horiz-adv-x="618" 
d="M483 73q-35 -42 -88 -65.5t-119 -23.5q-68 0 -113.5 16t-73 43t-39.5 63.5t-12 77.5t13 73.5t35.5 59t52 47t62.5 37.5q-14 16 -27.5 34t-24.5 39t-18 44.5t-7 50.5q0 31 11.5 58t32 46.5t49 31t62.5 11.5q38 0 66.5 -11.5t47.5 -30.5t28.5 -44t9.5 -53q0 -38 -12 -65.5
t-32.5 -48.5t-47 -38.5t-55.5 -34.5l194 -229q17 40 24 77t9 85h58q-2 -58 -17 -109.5t-38 -95.5l103 -118h-72zM233 364q-26 -15 -50 -32t-42.5 -37.5t-29.5 -45.5t-11 -58t8.5 -62t29.5 -50t56 -33t88 -12q57 0 98.5 21.5t67.5 55.5zM252 426q21 11 43 24.5t40 31t30 39.5
t12 50q0 50 -26.5 74.5t-70.5 24.5q-47 0 -72.5 -26.5t-25.5 -74.5q0 -43 20 -75t50 -68z" />
    <glyph glyph-name="quotesingle" unicode="'" horiz-adv-x="146" 
d="M43 710h60l-6 -242h-48z" />
    <glyph glyph-name="parenleft" unicode="(" horiz-adv-x="244" 
d="M174 -124q-57 87 -85.5 199t-28.5 230t28.5 230t85.5 199h55q-57 -103 -80.5 -208.5t-23.5 -220.5t23.5 -220.5t80.5 -208.5h-55z" />
    <glyph glyph-name="parenright" unicode=")" horiz-adv-x="244" 
d="M15 -124q57 103 80.5 208.5t23.5 220.5t-23.5 220.5t-80.5 208.5h55q57 -87 85.5 -199t28.5 -230t-28.5 -230t-85.5 -199h-55z" />
    <glyph glyph-name="asterisk" unicode="*" horiz-adv-x="376" 
d="M156 542l-120 40l24 53l108 -52l-8 131h58l-8 -131l108 52l22 -53l-119 -40l91 -104l-47 -34l-76 110l-76 -110l-47 34z" />
    <glyph glyph-name="plus" unicode="+" 
d="M269 314h-201v53h201v214h54v-214h201v-53h-201v-215h-54v215z" />
    <glyph glyph-name="comma" unicode="," horiz-adv-x="198" 
d="M75 96h68l-47 -194h-49z" />
    <glyph glyph-name="hyphen" unicode="-" horiz-adv-x="391" 
d="M50 319h291v-60h-291v60z" />
    <glyph glyph-name="period" unicode="." horiz-adv-x="199" 
d="M62 93h75v-93h-75v93z" />
    <glyph glyph-name="slash" unicode="/" horiz-adv-x="302" 
d="M232 734h62l-224 -734h-62z" />
    <glyph glyph-name="zero" unicode="0" 
d="M294 -18q-117 0 -182 87.5t-65 275.5q0 94 17.5 163t50.5 114t79.5 66.5t103.5 21.5q58 0 103.5 -21.5t77 -66.5t48.5 -114t17 -163t-17 -162.5t-49 -113t-78.5 -66t-105.5 -21.5zM296 36q51 0 86 21t57 60.5t31.5 97t9.5 130.5q0 72 -9.5 129.5t-31.5 97.5t-57 61.5
t-86 21.5t-86.5 -21.5t-57.5 -61.5t-31.5 -97.5t-9.5 -129.5q0 -73 9.5 -130.5t31.5 -97t57.5 -60.5t86.5 -21z" />
    <glyph glyph-name="one" unicode="1" 
d="M308 630l-173 -105l-25 45l198 121h60v-691h-60v630z" />
    <glyph glyph-name="two" unicode="2" 
d="M74 54q35 31 80.5 71.5t91.5 80.5q51 44 89.5 81t64 72t38.5 70.5t13 76.5q0 75 -39 112t-111 37q-43 0 -72.5 -9.5t-49.5 -26.5t-32.5 -42t-22.5 -55l-53 11q8 31 24 63t43 57t67.5 41t98.5 16q50 0 89 -14.5t65.5 -41t40.5 -62.5t14 -78q0 -47 -14 -88t-42.5 -81.5
t-72.5 -83.5t-104 -94q-31 -26 -65 -55.5t-64 -55.5h368l-12 -56h-433v54z" />
    <glyph glyph-name="three" unicode="3" 
d="M113 175q5 -34 16 -60t31.5 -44t52.5 -27t79 -9q84 0 124.5 41t40.5 116q0 39 -11.5 66t-32.5 44t-49.5 24.5t-62.5 7.5h-84v55h84q65 0 103 35.5t38 103.5q0 64 -41 95.5t-113 31.5q-41 0 -69 -8t-47.5 -23.5t-32 -39t-22.5 -54.5l-54 10q7 30 22 60.5t41 55t66.5 39.5
t98.5 15q54 0 94 -14t65.5 -38t38 -55.5t12.5 -67.5q0 -63 -25 -102t-77 -65q118 -46 118 -173q0 -46 -14.5 -85t-43.5 -67.5t-71.5 -44.5t-97.5 -16q-68 0 -112.5 18t-70.5 46t-37 62.5t-13 66.5h56z" />
    <glyph glyph-name="four" unicode="4" 
d="M46 230l337 461h61v-461h99l-11 -49h-88v-181h-58v181h-340v49zM386 230v383l-277 -383h277z" />
    <glyph glyph-name="five" unicode="5" 
d="M129 163q7 -34 19 -58t32.5 -39.5t49 -23t68.5 -7.5q76 0 119 44.5t43 138.5q0 36 -8.5 67.5t-27.5 54.5t-49.5 36t-73.5 13q-52 0 -91 -15.5t-71 -49.5h-52l29 367h364v-55h-316l-22 -253q18 14 35.5 24.5t37 17.5t42.5 10.5t53 3.5q56 0 95.5 -17.5t65 -47.5
t37.5 -69.5t12 -84.5q0 -58 -15.5 -102.5t-44.5 -74.5t-70 -45.5t-92 -15.5q-104 0 -159.5 46.5t-65.5 134.5h56z" />
    <glyph glyph-name="six" unicode="6" 
d="M467 550q-10 29 -21.5 49t-28 33t-39.5 18.5t-55 5.5q-41 0 -75.5 -14.5t-61 -51t-42.5 -99t-19 -158.5q35 56 84 81.5t115 25.5q58 0 98.5 -18.5t65 -50t35.5 -72.5t11 -85q0 -51 -16.5 -94t-46.5 -73.5t-73 -47.5t-95 -17q-72 0 -117.5 28.5t-71.5 74t-36 102
t-10 112.5q0 124 22 204t57.5 126t81.5 63.5t94 17.5q91 0 135 -39t61 -108zM302 34q81 0 126.5 48t45.5 130q0 36 -8 68.5t-26 57t-48.5 38.5t-75.5 14q-35 0 -68 -11t-58 -34t-39 -58.5t-12 -83.5q1 -32 12.5 -62t31.5 -54t50 -38.5t69 -14.5z" />
    <glyph glyph-name="seven" unicode="7" 
d="M182 0q49 166 112.5 324t147.5 312h-397v55h461v-55q-82 -153 -147 -311t-110 -325h-67z" />
    <glyph glyph-name="eight" unicode="8" 
d="M185 351q-22 6 -42.5 19.5t-37 34.5t-26.5 49t-10 64q0 40 13.5 75.5t41 61t70.5 40.5t103 15q59 0 102 -15t70.5 -40.5t41 -61t13.5 -75.5q0 -36 -10 -63.5t-26 -48t-37 -33t-42 -18.5q19 -5 42.5 -17t44.5 -33t35.5 -51t14.5 -72q0 -45 -15.5 -81.5t-46.5 -63t-78 -41
t-109 -14.5t-109 14.5t-78.5 41t-47 63t-15.5 81.5q0 41 15 71t36 50.5t45 32t42 15.5zM127 518q0 -70 41 -105.5t129 -35.5t128.5 35.5t40.5 105.5q0 29 -9.5 54.5t-30 45t-52.5 31t-77 11.5t-77.5 -11.5t-53 -31t-30 -45t-9.5 -54.5zM110 181q0 -66 44.5 -107.5
t142.5 -41.5q97 0 141.5 41.5t44.5 107.5q0 32 -9.5 58.5t-31.5 45t-57.5 29t-87.5 10.5q-53 0 -88.5 -10.5t-57.5 -29t-31.5 -45t-9.5 -58.5z" />
    <glyph glyph-name="nine" unicode="9" 
d="M130 139q13 -59 48 -82t96 -23q45 0 79.5 16t58 53.5t35 100t11.5 155.5q-66 -108 -194 -108q-59 0 -99 19t-64.5 50.5t-35.5 72.5t-11 85q0 51 16.5 94t46.5 73.5t72 47.5t94 17q69 0 114.5 -29t71.5 -76t36.5 -106t10.5 -118q0 -40 -2 -85.5t-9.5 -89.5t-23 -84.5
t-42 -71.5t-67 -49.5t-97.5 -18.5q-88 0 -140.5 38t-62.5 119h58zM272 303q35 0 66.5 10.5t55 32t37 54t13.5 76.5q0 33 -9.5 65.5t-29 58.5t-50 42t-71.5 16q-81 0 -125.5 -48t-44.5 -130q0 -36 7.5 -68.5t25.5 -56.5t48.5 -38t76.5 -14z" />
    <glyph glyph-name="colon" unicode=":" horiz-adv-x="199" 
d="M62 515h75v-93h-75v93zM62 93h75v-93h-75v93z" />
    <glyph glyph-name="semicolon" unicode=";" horiz-adv-x="199" 
d="M75 96h68l-47 -194h-49zM62 515h75v-93h-75v93z" />
    <glyph glyph-name="less" unicode="&#x3c;" 
d="M79 361l444 213v-59l-376 -175l376 -174v-62l-444 213v44z" />
    <glyph glyph-name="equal" unicode="=" 
d="M81 480h430v-55h-430v55zM81 256h430v-55h-430v55z" />
    <glyph glyph-name="greater" unicode="&#x3e;" 
d="M69 165l373 172l-373 178v59l444 -213v-44l-444 -213v61z" />
    <glyph glyph-name="question" unicode="?" horiz-adv-x="495" 
d="M203 204q0 35 11 62.5t28.5 50t38 42t39.5 39.5q23 23 43 55t21 79q2 64 -32.5 103t-107.5 39q-72 0 -109.5 -32.5t-55.5 -98.5l-53 10q7 32 22 63t41 55.5t64 39.5t92 15q49 0 86 -14.5t62 -39.5t37.5 -59t12.5 -73q0 -59 -23 -100t-57 -73q-19 -18 -37 -35.5
t-32.5 -36.5t-23.5 -41t-9 -50v-11h-58v11zM195 92h74v-92h-74v92z" />
    <glyph glyph-name="at" unicode="@" horiz-adv-x="927" 
d="M783 -60q-26 -39 -57.5 -67.5t-71 -46.5t-90 -27t-113.5 -9q-85 0 -159 26t-129.5 76.5t-87.5 123.5t-32 167q0 87 19 156t52 122t76.5 91t92 62t100 35.5t99.5 11.5q86 0 160.5 -24t130 -70t87 -112.5t31.5 -151.5q0 -73 -16 -130t-45 -96.5t-69 -60t-88 -20.5
q-42 0 -71 18t-34 60q-33 -45 -72 -64.5t-87 -19.5q-39 0 -70 14.5t-52.5 39.5t-33 58.5t-11.5 71.5q0 61 17.5 112t48.5 87.5t74 57t95 20.5q47 0 80.5 -21t53.5 -60q2 15 6.5 35t7.5 34h53l-59 -324q-1 -5 -1.5 -9t-0.5 -8q0 -58 60 -58q32 0 60.5 15.5t49.5 46.5t33.5 78
t12.5 111q0 73 -25.5 132t-71.5 100.5t-110.5 63.5t-143.5 22q-85 0 -155 -30.5t-119.5 -86t-77 -133t-27.5 -171.5q0 -81 26 -145.5t73 -109t112 -68.5t142 -24q57 0 98 6.5t71.5 19.5t52.5 31.5t41 41.5h64zM584 237q4 23 4 51q-1 23 -9 45.5t-26 41.5q-14 14 -32.5 21
t-45.5 7q-35 0 -66.5 -14t-55 -42.5t-37.5 -70.5t-14 -97q0 -72 32 -106.5t80 -34.5q36 0 61 11.5t42 28.5q27 27 41 59.5t22 77.5z" />
    <glyph glyph-name="A" unicode="A" horiz-adv-x="661" 
d="M295 714h72l282 -714h-66l-86 218h-336l-85 -218h-64zM475 274l-147 373l-145 -373h292z" />
    <glyph glyph-name="B" unicode="B" horiz-adv-x="624" 
d="M82 714h226q75 0 122.5 -14t75.5 -38.5t38.5 -56.5t10.5 -68q0 -54 -25 -94t-84 -65q38 -13 63.5 -31.5t41 -41.5t22 -49.5t6.5 -53.5q0 -42 -13 -79t-43 -64.5t-78 -43t-118 -15.5h-245v714zM317 401q93 0 135.5 33.5t42.5 99.5t-42.5 96.5t-146.5 30.5h-164v-260h175z
M325 54q57 0 93.5 10t58 28.5t30 45t8.5 59.5q0 73 -44 111t-143 38h-186v-292h183z" />
    <glyph glyph-name="C" unicode="C" horiz-adv-x="709" 
d="M654 229q-7 -53 -27.5 -98t-55.5 -78t-85 -52t-116 -19q-70 0 -127.5 24t-99 71.5t-64.5 117t-23 160.5q0 92 25 162.5t67.5 118t99 72t120.5 24.5q65 0 112 -17t79.5 -47.5t52.5 -72.5t32 -91l-58 -13q-11 44 -27.5 79t-42 59t-61.5 37t-87 13q-59 0 -105 -24t-78 -67
t-49 -102t-17 -129q0 -71 16.5 -129.5t48 -101.5t78.5 -66.5t108 -23.5q58 0 97.5 14.5t65 40.5t40 61.5t21.5 76.5h60z" />
    <glyph glyph-name="D" unicode="D" horiz-adv-x="702" 
d="M82 714h241q75 0 135 -21.5t101.5 -65t64 -109.5t22.5 -156q0 -91 -24 -159t-69 -113t-109 -67.5t-143 -22.5h-219v714zM305 54q143 0 210 79.5t67 226.5q0 145 -62.5 223t-196.5 78h-180v-607h162z" />
    <glyph glyph-name="E" unicode="E" horiz-adv-x="588" 
d="M82 714h449v-55h-388v-262h368v-57h-368v-284h405l-14 -56h-452v714z" />
    <glyph glyph-name="F" unicode="F" horiz-adv-x="553" 
d="M82 714h429v-55h-368v-271h345v-57h-345v-331h-61v714z" />
    <glyph glyph-name="G" unicode="G" horiz-adv-x="711" 
d="M387 353h262v-276q-26 -25 -58.5 -43t-67 -29.5t-70.5 -17t-70 -5.5q-76 0 -136.5 24.5t-103 72t-65 117t-22.5 159.5q0 92 24.5 162.5t67 118t100.5 72t125 24.5q112 0 174.5 -51.5t86.5 -143.5l-57 -13q-10 34 -25.5 62.5t-39.5 49t-58 32t-81 11.5q-62 0 -109.5 -24
t-79.5 -67t-48.5 -102t-16.5 -129q0 -71 16 -129.5t49 -101.5t82.5 -66.5t116.5 -23.5q57 0 111.5 15.5t96.5 47.5v199h-204v55z" />
    <glyph glyph-name="H" unicode="H" horiz-adv-x="689" 
d="M82 714h61v-316h403v316h61v-714h-61v341h-403v-341h-61v714z" />
    <glyph glyph-name="I" unicode="I" horiz-adv-x="225" 
d="M82 714h61v-714h-61v714z" />
    <glyph glyph-name="J" unicode="J" horiz-adv-x="576" 
d="M87 197q5 -34 16.5 -63.5t32 -51t52.5 -34t79 -12.5q96 0 133.5 52t37.5 148v478h61v-484q0 -125 -60.5 -186.5t-169.5 -61.5q-101 0 -165.5 52t-78.5 163h62z" />
    <glyph glyph-name="K" unicode="K" horiz-adv-x="636" 
d="M82 714h61v-373l375 373h73l-265 -267l292 -447h-74l-264 407l-137 -135v-272h-61v714z" />
    <glyph glyph-name="L" unicode="L" horiz-adv-x="550" 
d="M82 714h61v-657h388l-13 -57h-436v714z" />
    <glyph glyph-name="M" unicode="M" horiz-adv-x="838" 
d="M82 714h79l258 -643l262 643h75v-714h-57v612q-5 -9 -32 -77q-12 -29 -30 -73.5t-44.5 -109t-62.5 -151.5t-83 -201h-58l-250 608v-608h-57v714z" />
    <glyph glyph-name="N" unicode="N" horiz-adv-x="690" 
d="M82 714h67l400 -618v618h59v-714h-66l-401 620v-620h-59v714z" />
    <glyph glyph-name="O" unicode="O" horiz-adv-x="756" 
d="M379 -18q-69 0 -128.5 23.5t-102.5 70.5t-67.5 117t-24.5 162t24.5 162.5t68 118t102.5 72t128 24.5t128 -23.5t101.5 -70.5t67 -116.5t24.5 -161.5q0 -93 -24 -163.5t-66.5 -118t-101.5 -72t-129 -24.5zM379 36q63 0 111 23.5t80.5 66t49 101.5t16.5 130t-17 130
t-49.5 101.5t-80.5 66t-110 23.5q-65 0 -113.5 -23.5t-80.5 -66t-48.5 -101.5t-16.5 -130t16 -130t48.5 -101.5t81 -66t113.5 -23.5z" />
    <glyph glyph-name="P" unicode="P" horiz-adv-x="619" 
d="M82 714h230q78 0 128 -16.5t78.5 -44.5t39.5 -65.5t11 -79.5q0 -44 -11.5 -84t-40.5 -70t-79 -47.5t-128 -17.5h-168v-289h-60v714zM311 342q60 0 98 11.5t60 32.5t30 51t8 68q0 40 -9 69t-31.5 48.5t-60.5 29t-96 9.5h-168v-319h169z" />
    <glyph glyph-name="Q" unicode="Q" horiz-adv-x="756" 
d="M556 32q-76 -50 -177 -50q-69 0 -128.5 23.5t-102.5 70.5t-67.5 117t-24.5 162t24.5 162.5t68 118t102.5 72t128 24.5t128 -23.5t101.5 -70.5t67 -116.5t24.5 -161.5q0 -99 -26.5 -172t-74.5 -121l88 -103l-42 -37zM429 182l42 35l89 -104q38 43 57 105t19 139
q0 71 -17 130t-49.5 101.5t-80.5 66t-110 23.5q-65 0 -113.5 -23.5t-80.5 -66t-48.5 -101.5t-16.5 -130t16 -130t48.5 -101.5t81 -66t113.5 -23.5q81 0 139 40z" />
    <glyph glyph-name="R" unicode="R" horiz-adv-x="621" 
d="M82 714h224q77 0 126.5 -17t78 -44t39 -62t10.5 -71q0 -68 -30.5 -116t-99.5 -73l154 -331h-71l-143 317q-17 -2 -35 -3.5t-38 -1.5h-155v-312h-60v714zM314 366q54 0 89.5 10.5t56.5 30.5t29.5 48t8.5 64q0 35 -9 61.5t-31.5 44.5t-60 27t-94.5 9h-161v-295h172z" />
    <glyph glyph-name="S" unicode="S" horiz-adv-x="642" 
d="M105 187q16 -80 69 -115.5t158 -35.5q54 0 89.5 12t56.5 32t30 47t9 57q0 25 -5.5 47.5t-21 41t-44.5 32.5t-76 22l-89 15q-52 9 -92.5 23t-68.5 36.5t-42.5 56.5t-14.5 83t20.5 85t55 59.5t81 35t98.5 11.5q67 0 112 -14.5t74 -38.5t45 -54.5t25 -61.5l-56 -16
q-10 31 -23.5 55.5t-36 41.5t-56.5 26t-83 9q-55 0 -92 -10.5t-60 -29t-33 -44t-10 -54.5q0 -30 7 -52t24 -38t45.5 -27t71.5 -19l101 -18q54 -10 93.5 -26t65.5 -40.5t38.5 -58.5t12.5 -80q0 -41 -16 -77.5t-47.5 -63.5t-78.5 -43t-110 -16q-58 0 -107.5 11t-87 35.5
t-61.5 63.5t-30 95h60z" />
    <glyph glyph-name="T" unicode="T" horiz-adv-x="590" 
d="M265 658h-248v56h556v-56h-247v-658h-61v658z" />
    <glyph glyph-name="U" unicode="U" horiz-adv-x="676" 
d="M77 714h61v-435q0 -121 47 -182t155 -61q55 0 92.5 15.5t61 46t34 76t10.5 105.5v435h61v-434q0 -79 -17.5 -135.5t-51 -92.5t-82 -53t-109.5 -17q-63 0 -111.5 17t-82 53.5t-51 94t-17.5 137.5v430z" />
    <glyph glyph-name="V" unicode="V" horiz-adv-x="649" 
d="M14 714h70l242 -645l245 645h64l-277 -714h-66z" />
    <glyph glyph-name="W" unicode="W" horiz-adv-x="911" 
d="M13 714h68l168 -638l177 635h66l172 -634l170 637h64l-201 -714h-71l-172 635l-172 -635h-67z" />
    <glyph glyph-name="X" unicode="X" horiz-adv-x="613" 
d="M268 378l-234 336h73l199 -295l201 295h65l-233 -341l260 -373h-73l-225 329l-221 -329h-66z" />
    <glyph glyph-name="Y" unicode="Y" horiz-adv-x="588" 
d="M265 309l-250 405h72l209 -353l213 353h64l-247 -405v-309h-61v309z" />
    <glyph glyph-name="Z" unicode="Z" horiz-adv-x="585" 
d="M35 50l440 609h-432v55h503v-51l-439 -607h448l-13 -56h-507v50z" />
    <glyph glyph-name="bracketleft" unicode="[" horiz-adv-x="254" 
d="M77 734h166v-50h-106v-758h106v-50h-166v858z" />
    <glyph glyph-name="backslash" unicode="\" horiz-adv-x="302" 
d="M8 734h62l224 -734h-62z" />
    <glyph glyph-name="bracketright" unicode="]" horiz-adv-x="254" 
d="M11 -74h106v758h-106v50h166v-858h-166v50z" />
    <glyph glyph-name="asciicircum" unicode="^" 
d="M270 707h52l203 -401h-63l-168 338l-168 -338h-59z" />
    <glyph glyph-name="underscore" unicode="_" horiz-adv-x="500" 
d="M0 -123h500v-52h-500v52z" />
    <glyph glyph-name="grave" unicode="`" horiz-adv-x="379" 
d="M95 724h78l111 -134h-62z" />
    <glyph glyph-name="a" unicode="a" horiz-adv-x="525" 
d="M398 73q-13 -16 -31 -31.5t-41 -27.5t-50.5 -19t-60.5 -7q-81 0 -130 39t-49 116q0 52 22 85t58.5 52t83 26.5t96.5 9.5l100 4v16q0 76 -29.5 111t-105.5 35q-37 0 -62.5 -6t-42.5 -17.5t-27 -27t-15 -34.5l-53 8q28 126 202 126q54 0 91 -13t59.5 -37.5t32.5 -60
t10 -81.5v-339h-58v73zM397 274l-95 -4q-58 -2 -97 -10.5t-63 -24t-34.5 -38t-10.5 -53.5q0 -47 26.5 -75.5t92.5 -28.5q33 0 65.5 7.5t53.5 24.5q18 13 29.5 25t19 26.5t10.5 32.5t3 42v76z" />
    <glyph glyph-name="b" unicode="b" horiz-adv-x="583" 
d="M70 714h58v-276q35 44 77 68.5t102 24.5q56 0 98 -20.5t69.5 -56.5t41 -85t13.5 -106q0 -66 -16.5 -117.5t-46.5 -87.5t-72.5 -55t-95.5 -19q-47 0 -90.5 19t-79.5 67v-70h-58v714zM126 237q0 -34 3.5 -59.5t12 -45.5t21.5 -35.5t32 -28.5q23 -18 47 -26t55 -8
q37 0 68 12.5t53.5 39.5t35.5 70.5t13 105.5q0 63 -14.5 105t-37.5 67.5t-52 36t-57 10.5q-31 0 -56 -7t-50 -26q-35 -26 -54.5 -65.5t-19.5 -100.5v-45z" />
    <glyph glyph-name="c" unicode="c" horiz-adv-x="554" 
d="M506 168q-15 -87 -69 -135.5t-147 -48.5q-56 0 -100 18.5t-74 54t-46 85.5t-16 113t17 114t48 87t75.5 55.5t100.5 19.5q85 0 135.5 -43.5t66.5 -122.5l-56 -14q-6 28 -17 52t-28 41t-42.5 27t-60.5 10q-47 0 -80 -17t-55 -46.5t-32 -70.5t-10 -89t10 -89t31 -71
t54.5 -47t80.5 -17q75 0 109.5 36.5t46.5 97.5h58z" />
    <glyph glyph-name="d" unicode="d" horiz-adv-x="581" 
d="M453 77q-33 -43 -75.5 -68t-103.5 -25q-57 0 -98.5 22t-68.5 59t-40 85.5t-13 101.5q0 132 61.5 205.5t169.5 73.5q42 0 86 -18t82 -68v269h58v-714h-58v77zM456 278q0 35 -4 60.5t-12 45t-21.5 34.5t-31.5 29q-24 18 -47.5 26t-53.5 8q-37 0 -68 -12.5t-53.5 -39.5
t-35.5 -70t-13 -105q0 -63 14.5 -105.5t37.5 -68t51.5 -36t57.5 -10.5q31 0 55.5 7t50.5 26q35 26 54 66t19 100v45z" />
    <glyph glyph-name="e" unicode="e" horiz-adv-x="560" 
d="M500 135q-12 -67 -64 -109t-148 -42q-111 0 -172.5 71.5t-61.5 196.5q0 68 17.5 120t49 87.5t74 53.5t93.5 18q60 0 102 -19.5t68.5 -53t38.5 -79.5t12 -99v-37h-396q0 -44 11 -82.5t33 -67t55 -45t76 -16.5q39 0 66 7.5t45 21.5t28.5 32.5t16.5 41.5h56zM449 293
q0 42 -9 77t-28 60.5t-50 39.5t-74 14q-75 0 -120 -47t-54 -144h335z" />
    <glyph glyph-name="f" unicode="f" horiz-adv-x="309" 
d="M99 467h-80v48h80v59q0 38 12 66t31.5 46t45.5 27t55 9q21 0 38.5 -2.5t37.5 -8.5l-12 -49q-16 5 -29.5 7t-28.5 2q-39 0 -65.5 -20.5t-26.5 -74.5v-61h137v-48h-137v-467h-58v467z" />
    <glyph glyph-name="g" unicode="g" horiz-adv-x="580" 
d="M126 -56q11 -51 48 -75.5t113 -24.5q85 0 125 41.5t40 139.5v77q-32 -45 -75.5 -69.5t-103.5 -24.5q-57 0 -99 21.5t-69 57.5t-40 82.5t-13 96.5q0 60 16 109t46 83.5t73 53.5t97 19q43 0 87 -18.5t81 -67.5v70h58v-496q0 -104 -53.5 -164t-168.5 -60q-44 0 -81.5 8
t-66 25.5t-46.5 46t-23 69.5h55zM454 278q0 35 -3.5 60.5t-12 45t-21.5 34.5t-31 29q-25 18 -48 26t-53 8q-37 0 -68 -12t-54 -38t-36 -66.5t-13 -97.5q0 -58 14.5 -97.5t37.5 -64t52 -35.5t59 -11q33 0 56 7t49 25q35 26 53.5 66.5t18.5 101.5v19z" />
    <glyph glyph-name="h" unicode="h" horiz-adv-x="558" 
d="M70 714h58v-283q42 53 89.5 76.5t101.5 23.5q88 0 130 -49t42 -139v-343h-58v327q0 81 -29 116.5t-92 35.5q-30 0 -63.5 -11.5t-60.5 -36.5q-30 -26 -45 -53.5t-15 -75.5v-302h-58v714z" />
    <glyph glyph-name="i" unicode="i" horiz-adv-x="204" 
d="M73 515h58v-515h-58v515zM69 714h66v-87h-66v87z" />
    <glyph glyph-name="j" unicode="j" horiz-adv-x="204" 
d="M-71 -122q14 -5 31 -8.5t42 -3.5q41 0 56 25t15 66v558h58v-523q0 -35 -3.5 -67t-16 -56.5t-37 -39.5t-67.5 -15q-34 0 -54.5 4.5t-35.5 10.5zM69 714h66v-87h-66v87z" />
    <glyph glyph-name="k" unicode="k" horiz-adv-x="493" 
d="M70 714h58v-439l265 240h72l-182 -170l205 -345h-70l-180 309l-110 -99v-210h-58v714z" />
    <glyph glyph-name="l" unicode="l" horiz-adv-x="204" 
d="M73 714h58v-714h-58v714z" />
    <glyph glyph-name="m" unicode="m" horiz-adv-x="853" 
d="M70 515h58v-85q38 51 81.5 76t88.5 25q59 0 94.5 -26.5t52.5 -74.5q35 48 82 74.5t101 26.5q74 0 116 -40t42 -128v-363h-58v342q0 40 -6.5 66t-20 42t-33.5 22.5t-47 6.5q-23 0 -52.5 -8.5t-56.5 -31.5q-24 -19 -39.5 -46t-15.5 -63v-330h-58v341q0 75 -26 106.5
t-79 31.5q-30 0 -56.5 -12.5t-52.5 -35.5q-9 -8 -19.5 -19t-18.5 -26t-13.5 -35t-5.5 -46v-305h-58v515z" />
    <glyph glyph-name="n" unicode="n" horiz-adv-x="558" 
d="M70 515h58v-84q42 53 89.5 76.5t101.5 23.5q88 0 130 -49t42 -139v-343h-58v327q0 81 -29 116.5t-92 35.5q-30 0 -63.5 -11.5t-60.5 -36.5q-30 -26 -45 -53.5t-15 -75.5v-302h-58v515z" />
    <glyph glyph-name="o" unicode="o" horiz-adv-x="593" 
d="M296 34q49 0 83 17.5t56 47.5t32 71t10 89q0 46 -10 86.5t-32 70.5t-56 47.5t-83 17.5q-48 0 -82.5 -17.5t-56 -47.5t-31.5 -70.5t-10 -87.5t10 -88t31.5 -71t56 -47.5t82.5 -17.5zM294 -16q-57 0 -101.5 19t-75 54.5t-47 85.5t-16.5 112q0 63 17.5 114t49 87t76.5 55.5
t101 19.5t101 -19t76 -54.5t47.5 -85.5t16.5 -111q0 -63 -17 -114t-48.5 -87.5t-77 -56t-102.5 -19.5z" />
    <glyph glyph-name="p" unicode="p" horiz-adv-x="583" 
d="M70 515h58v-77q35 44 77 68.5t102 24.5q57 0 98.5 -20.5t69 -56.5t41 -85t13.5 -106q0 -66 -16.5 -117.5t-46.5 -87.5t-72.5 -55t-95.5 -19q-47 0 -90.5 19t-79.5 67v-264h-58v709zM126 237q0 -34 3.5 -59.5t12 -45.5t21.5 -35.5t32 -28.5q23 -18 47 -26t55 -8
q37 0 68 12.5t53.5 39.5t35.5 70.5t13 105.5q0 63 -14.5 105t-37.5 67.5t-52 36t-57 10.5q-31 0 -56 -7t-50 -26q-35 -26 -54.5 -65.5t-19.5 -100.5v-45z" />
    <glyph glyph-name="q" unicode="q" horiz-adv-x="582" 
d="M453 77q-33 -43 -75.5 -68t-103.5 -25q-57 0 -98.5 22t-68.5 59t-40 85.5t-13 101.5q0 132 61.5 205.5t169.5 73.5q42 0 86 -18t82 -68v70h59v-709h-59v271zM456 278q0 35 -4 60.5t-12 45t-21.5 34.5t-31.5 29q-24 18 -47.5 26t-53.5 8q-37 0 -68 -12.5t-53.5 -39.5
t-35.5 -70t-13 -105q0 -63 14.5 -105.5t37.5 -68t51.5 -36t57.5 -10.5q31 0 55.5 7t50.5 26q35 26 54 66t19 100v45z" />
    <glyph glyph-name="r" unicode="r" horiz-adv-x="337" 
d="M70 515h58v-84q31 44 71 68t85 24q11 0 20.5 -0.5t20.5 -2.5l-7 -55q-18 3 -33 3q-26 0 -53 -9.5t-51 -32.5q-23 -20 -38 -48.5t-15 -67.5v-310h-58v515z" />
    <glyph glyph-name="s" unicode="s" horiz-adv-x="514" 
d="M101 143q11 -60 51 -85t114 -25q75 0 106 28t31 70q0 18 -4 33.5t-15.5 28.5t-33 22t-55.5 15l-63 10q-41 7 -73.5 17t-55 26.5t-34 41t-11.5 60.5q0 34 15 61.5t41 46t61.5 28.5t76.5 10q53 0 88.5 -10.5t58 -28.5t35 -42t19.5 -51l-53 -11q-8 23 -18.5 40.5t-26.5 29
t-40 17.5t-60 6q-40 0 -67 -7.5t-43.5 -20.5t-23.5 -30t-7 -35t4 -32.5t16 -25.5t33.5 -19t56.5 -14l79 -13q81 -14 121 -48.5t40 -105.5q0 -30 -12.5 -57t-37 -46.5t-61.5 -31t-85 -11.5q-47 0 -86.5 9t-68.5 28t-47 49t-22 73h57z" />
    <glyph glyph-name="t" unicode="t" horiz-adv-x="330" 
d="M99 467h-80v48h80v142h58v-142h146v-48h-146v-337q0 -38 16 -64.5t56 -26.5q26 0 44 4t32 9l12 -47q-15 -6 -36.5 -11t-56.5 -5q-44 0 -69 15t-37.5 39.5t-15.5 56.5t-3 67v300z" />
    <glyph glyph-name="u" unicode="u" horiz-adv-x="547" 
d="M68 515h58v-327q0 -81 25.5 -116.5t87.5 -35.5q31 0 62 12t59 36q29 26 44 53.5t15 75.5v302h58v-515h-58v84q-81 -100 -187 -100q-88 0 -126 48t-38 140v343z" />
    <glyph glyph-name="v" unicode="v" horiz-adv-x="496" 
d="M6 515h67l175 -452l179 452h63l-208 -515h-68z" />
    <glyph glyph-name="w" unicode="w" horiz-adv-x="711" 
d="M9 515h64l120 -450l131 447h68l128 -447l120 450h62l-151 -515h-67l-129 450l-130 -450h-67z" />
    <glyph glyph-name="x" unicode="x" horiz-adv-x="478" 
d="M204 274l-174 241h68l142 -202l143 202h63l-170 -243l192 -272h-68l-162 231l-160 -231h-65z" />
    <glyph glyph-name="y" unicode="y" horiz-adv-x="498" 
d="M59 -131q12 -5 25.5 -8t28.5 -3q18 0 30 4t22 14.5t18.5 27t19.5 42.5l24 61l-221 508h67l187 -441l167 441h65l-234 -583q-12 -29 -24.5 -52.5t-28 -40t-36.5 -25t-50 -8.5q-23 0 -38.5 2.5t-35.5 9.5z" />
    <glyph glyph-name="z" unicode="z" horiz-adv-x="449" 
d="M23 49l327 417h-320v49h389v-49l-327 -417h344l-10 -49h-403v49z" />
    <glyph glyph-name="braceleft" unicode="{" horiz-adv-x="263" 
d="M101 203q0 37 -14 56.5t-55 19.5h-2v52h2q41 0 55 19t14 57v216q0 64 30 87.5t85 23.5h42v-49h-48q-29 0 -39.5 -14t-10.5 -40v-239q0 -76 -56 -87q56 -11 56 -87v-239q0 -26 10.5 -40t39.5 -14h48v-49h-42q-27 0 -48.5 5t-36.5 18t-22.5 34.5t-7.5 53.5v216z" />
    <glyph glyph-name="bar" unicode="|" horiz-adv-x="202" 
d="M71 734h60v-858h-60v858z" />
    <glyph glyph-name="braceright" unicode="}" horiz-adv-x="263" 
d="M5 -75h48q29 0 39.5 14t10.5 40v239q0 76 56 87q-56 11 -56 87v239q0 26 -10.5 40t-39.5 14h-48v49h42q55 0 85 -23.5t30 -87.5v-216q0 -37 14 -56.5t55 -19.5h2v-52h-2q-41 0 -55 -19t-14 -57v-216q0 -32 -7.5 -53.5t-22.5 -34.5t-36.5 -18t-48.5 -5h-42v49z" />
    <glyph glyph-name="asciitilde" unicode="~" 
d="M50 264q0 48 11.5 78.5t30 47.5t42.5 23t48 6q37 0 67.5 -19t58 -42t53 -42t53.5 -19q40 0 58 23.5t18 83.5h50q0 -48 -11 -79t-29.5 -48t-42 -23.5t-47.5 -6.5q-37 0 -67.5 19.5t-58 42.5t-53.5 42.5t-53 19.5q-40 0 -58.5 -24t-18.5 -83h-51z" />
    <glyph glyph-name="uni00A0" unicode="&#xa0;" horiz-adv-x="224" 
 />
    <glyph glyph-name="exclamdown" unicode="&#xa1;" horiz-adv-x="206" 
d="M76 322h53l4 -516h-61zM67 515h72v-92h-72v92z" />
    <glyph glyph-name="cent" unicode="&#xa2;" 
d="M291 73q-103 7 -160 78t-57 191q0 59 15 107.5t43.5 84t68.5 57t90 26.5v83h49v-82q77 -5 124.5 -47.5t61.5 -113.5l-56 -13q-10 49 -40 83t-90 41v-445q61 6 92.5 41t42.5 87h59q-14 -78 -63 -124.5t-131 -53.5v-82h-49v82zM291 567q-82 -11 -118.5 -71.5t-36.5 -151.5
q0 -44 8.5 -82.5t27.5 -68t48 -48t71 -22.5v444z" />
    <glyph glyph-name="sterling" unicode="&#xa3;" 
d="M94 55q37 38 48.5 89t11.5 104q0 15 -2 31.5t-5 39.5h-72v51h66q-5 29 -9 60t-4 67q0 53 16.5 93t45 66.5t66 40t79.5 13.5q50 0 84 -12t56.5 -33t35.5 -48.5t20 -58.5l-53 -14q-9 30 -20 51.5t-27 36t-39 21t-56 6.5q-40 0 -68 -12t-46 -33.5t-26 -51t-8 -63.5
q0 -35 3 -66t8 -63h234v-51h-227q2 -20 3.5 -33.5t1.5 -27.5q0 -25 -1.5 -51t-6.5 -52t-16 -51.5t-30 -48.5h392l-12 -55h-443v55z" />
    <glyph glyph-name="currency" unicode="&#xa4;" 
d="M124 186q-22 29 -34 68.5t-12 87.5q0 50 13 90.5t35 69.5l-58 63l38 38l59 -64q51 42 130 42q39 0 72.5 -10.5t58.5 -31.5l60 64l38 -38l-60 -64q20 -29 31.5 -67.5t11.5 -86.5t-11.5 -88t-32.5 -69l62 -65l-39 -37l-61 62q-52 -40 -134 -40q-77 0 -128 37l-57 -59
l-39 37zM293 164q42 0 71 13.5t47.5 37.5t26.5 57.5t8 72.5t-8 72.5t-26.5 57.5t-47.5 38t-71 14q-41 0 -70 -14t-48 -38.5t-27.5 -58t-8.5 -72.5t8.5 -72t27.5 -57t48 -37.5t70 -13.5z" />
    <glyph glyph-name="yen" unicode="&#xa5;" 
d="M80 219h188v80l-21 31h-167v51h137l-188 310h69l200 -344l203 344h62l-186 -310h141v-51h-173l-18 -31v-80h191v-50h-191v-169h-59v169h-188v50z" />
    <glyph glyph-name="brokenbar" unicode="&#xa6;" horiz-adv-x="202" 
d="M71 734h60v-336h-60v336zM71 229h60v-353h-60v353z" />
    <glyph glyph-name="section" unicode="&#xa7;" horiz-adv-x="510" 
d="M100 39q11 -60 49.5 -85t114.5 -25q43 0 70.5 7t43.5 20t22 30.5t6 37.5q0 16 -4 31.5t-15 29t-32.5 25.5t-55.5 21l-85 24q-85 23 -125.5 59.5t-40.5 102.5q0 44 28 83t81 56q-49 19 -77 47.5t-28 81.5q0 37 16 65t43.5 46t64.5 27t79 9q55 0 92.5 -12.5t61 -32
t35.5 -43.5t18 -46l-53 -12q-7 21 -17 38t-27.5 30t-43.5 20t-65 7q-43 0 -71.5 -7.5t-45.5 -20t-24 -30t-7 -37.5q0 -15 4 -29t15.5 -26.5t32.5 -24t56 -20.5l85 -22q86 -22 126 -60t40 -104q0 -45 -28 -82t-79 -54q50 -20 77.5 -52.5t27.5 -86.5q0 -75 -54.5 -110.5
t-146.5 -35.5q-46 0 -84.5 9t-68 28.5t-47 49.5t-21.5 73h57zM240 200q37 -11 68 -6.5t53.5 19.5t34.5 38t12 50q0 16 -4 31.5t-15.5 29.5t-33 26t-56.5 22l-36 10q-38 10 -67 5t-48.5 -20.5t-30 -38.5t-10.5 -50q0 -17 4 -32t15.5 -29t33 -26t56.5 -22z" />
    <glyph glyph-name="dieresis" unicode="&#xa8;" horiz-adv-x="379" 
d="M76 704h65v-85h-65v85zM236 704h66v-85h-66v85z" />
    <glyph glyph-name="copyright" unicode="&#xa9;" horiz-adv-x="772" 
d="M554 291q-12 -66 -54 -104t-114 -38q-87 0 -135.5 54.5t-48.5 151.5q0 47 13 85.5t37.5 65.5t59 42t77.5 15q67 0 106 -33t51 -93l-50 -10q-10 42 -34 66.5t-74 24.5q-34 0 -58.5 -12t-40 -34t-22.5 -51.5t-7 -64.5q0 -34 7 -63.5t22.5 -51t39.5 -34t58 -12.5
q51 0 77.5 25.5t34.5 70.5h55zM386 0q-75 0 -138 25.5t-108 72t-70 112.5t-25 147t26.5 147t73 112.5t108.5 72t133 25.5q75 0 137.5 -25.5t107.5 -72t69.5 -112.5t24.5 -147t-26.5 -147t-72 -112.5t-107.5 -72t-133 -25.5zM385 50q62 0 113.5 22t89 62.5t58.5 97t21 125.5
t-21 125.5t-58.5 96.5t-89 62t-113.5 22q-63 0 -114.5 -22t-89 -62t-58 -96.5t-20.5 -125.5t20.5 -125.5t58 -97t89 -62.5t114.5 -22z" />
    <glyph glyph-name="ordfeminine" unicode="&#xaa;" horiz-adv-x="424" 
d="M311 390q-21 -23 -54 -39t-73 -16q-63 0 -100.5 29.5t-37.5 85.5q0 39 16 63t42.5 38t61.5 19.5t74 7.5l69 3v8q0 49 -19 75t-74 26q-26 0 -44 -4.5t-30 -12.5t-19 -19.5t-11 -25.5l-44 7q10 48 46 72.5t104 24.5q80 0 112.5 -38t32.5 -104v-246h-52v46zM310 540l-66 -3
q-41 -2 -68.5 -7.5t-44 -16t-23.5 -26t-7 -36.5q0 -32 18.5 -51t65.5 -19q19 0 39.5 4t44.5 18t32.5 34.5t8.5 50.5v52z" />
    <glyph glyph-name="guillemotleft" unicode="&#xab;" horiz-adv-x="469" 
d="M48 257l142 221h56l-131 -220l131 -224h-58zM237 257l142 221h56l-131 -220l131 -224h-58z" />
    <glyph glyph-name="logicalnot" unicode="&#xac;" 
d="M62 427h448v-266h-53v214h-395v52z" />
    <glyph glyph-name="uni00AD" unicode="&#xad;" horiz-adv-x="391" 
d="M50 319h291v-60h-291v60z" />
    <glyph glyph-name="registered" unicode="&#xae;" horiz-adv-x="480" 
d="M162 623h75q27 0 43.5 -5.5t26 -14t12.5 -19.5t3 -23q0 -22 -7.5 -34.5t-27.5 -20.5l44 -85h-45l-38 76h-45v-76h-41v202zM241 532q27 0 33.5 9.5t6.5 22.5q0 11 -8.5 18.5t-37.5 7.5h-32v-58h38zM239 304q-45 0 -82.5 15t-64.5 42.5t-42 67t-15 89.5q0 49 16 89
t43.5 67.5t65 42.5t79.5 15q46 0 83.5 -15t64.5 -42.5t41.5 -67.5t14.5 -89q0 -50 -16 -89.5t-43.5 -67t-65 -42.5t-79.5 -15zM238 344q71 0 115 45.5t44 128.5t-44 128.5t-115 45.5t-114 -45.5t-43 -128.5t43 -128.5t114 -45.5z" />
    <glyph glyph-name="macron" unicode="&#xaf;" horiz-adv-x="379" 
d="M67 678h244v-51h-244v51z" />
    <glyph glyph-name="degree" unicode="&#xb0;" horiz-adv-x="316" 
d="M25 579q0 28 10 52t28 41.5t42.5 27.5t53.5 10q28 0 52 -10t42 -27.5t28 -41.5t10 -52q0 -29 -10 -53t-28 -42t-42 -28t-52 -10q-29 0 -53.5 10t-42.5 28t-28 42t-10 53zM159 491q36 0 58.5 23.5t22.5 63.5q0 38 -22.5 62.5t-58.5 24.5q-38 0 -60.5 -24.5t-22.5 -62.5
q0 -40 22.5 -63.5t60.5 -23.5z" />
    <glyph glyph-name="plusminus" unicode="&#xb1;" 
d="M67 54h458v-54h-458v54zM269 314h-201v53h201v214h54v-214h201v-53h-201v-215h-54v215z" />
    <glyph glyph-name="twosuperior" unicode="&#xb2;" horiz-adv-x="412" 
d="M64 337q26 23 51.5 42.5t51.5 41.5q30 26 52.5 45t37 37t21.5 37t7 45q0 35 -19.5 55t-57.5 20q-43 0 -63.5 -18.5t-32.5 -57.5l-51 9q6 21 15.5 41t26 36.5t42 26.5t62.5 10q34 0 59.5 -9.5t42 -26t24.5 -37.5t8 -44q0 -28 -7 -51.5t-22.5 -46t-41 -46t-62.5 -53.5
q-15 -12 -30.5 -24t-32.5 -26h200l-11 -48h-270v42z" />
    <glyph glyph-name="threesuperior" unicode="&#xb3;" horiz-adv-x="412" 
d="M101 406q3 -17 9 -31.5t17.5 -26t29 -18t43.5 -6.5q47 0 69 21t22 60q0 42 -23.5 58.5t-59.5 16.5h-50v43h50q32 0 53.5 18.5t21.5 54.5q0 34 -22 51t-61 17q-45 0 -66 -21t-31 -53l-47 10q4 17 13 36t25.5 34.5t42 26t61.5 10.5q69 0 102.5 -29.5t33.5 -76.5
q0 -35 -13.5 -56t-38.5 -38q34 -16 48 -40.5t14 -59.5q0 -56 -34.5 -91t-107.5 -35q-44 0 -72 13t-44.5 31.5t-23.5 40.5t-8 40h47z" />
    <glyph glyph-name="acute" unicode="&#xb4;" horiz-adv-x="379" 
d="M206 724h78l-127 -134h-62z" />
    <glyph glyph-name="mu" unicode="&#xb5;" horiz-adv-x="547" 
d="M68 515h58v-333q0 -81 30 -113.5t92 -32.5q27 0 54 11t59 37q26 21 42 49.5t16 65.5v316h58v-515h-58v82q-42 -53 -87.5 -75.5t-95.5 -22.5q-33 0 -61 7t-49 32v-218h-58v710z" />
    <glyph glyph-name="paragraph" unicode="&#xb6;" horiz-adv-x="583" 
d="M248 315q-63 0 -105.5 16.5t-69 44t-37.5 63.5t-11 75q0 41 13 77.5t44 63.5t82 43t126 16h219v-853h-62v801h-137v-801h-62v454z" />
    <glyph glyph-name="periodcentered" unicode="&#xb7;" horiz-adv-x="199" 
d="M62 420h75v-93h-75v93z" />
    <glyph glyph-name="cedilla" unicode="&#xb8;" horiz-adv-x="379" 
d="M102 -154q15 -2 27.5 -3t26.5 -1q34 0 49.5 8.5t15.5 28.5q0 19 -17 27t-62 8h-12l31 89h46l-19 -52q52 -6 70.5 -27t18.5 -49q0 -45 -33 -61.5t-87 -16.5q-14 0 -27.5 1t-27.5 3v45z" />
    <glyph glyph-name="onesuperior" unicode="&#xb9;" horiz-adv-x="412" 
d="M201 635l-98 -49l-22 42l119 65h59v-398h-58v340z" />
    <glyph glyph-name="ordmasculine" unicode="&#xba;" horiz-adv-x="432" 
d="M216 380q34 0 58 11.5t39 32t22 48.5t7 61q0 32 -7 60t-22 49t-39 33t-58 12t-58 -12t-39 -33t-22 -49t-7 -61t7 -60.5t22 -48t39 -32t58 -11.5zM214 334q-41 0 -73.5 14t-56 40t-36 62.5t-12.5 81.5t13.5 82t37.5 63.5t57 40.5t73 14q83 0 131 -53t48 -144
q0 -45 -12.5 -82.5t-36.5 -63.5t-57.5 -40.5t-75.5 -14.5z" />
    <glyph glyph-name="guillemotright" unicode="&#xbb;" horiz-adv-x="479" 
d="M364 254l-131 224h58l140 -223l-142 -221h-56zM165 254l-131 224h58l140 -223l-142 -221h-56z" />
    <glyph glyph-name="onequarter" unicode="&#xbc;" horiz-adv-x="897" 
d="M162 635l-98 -49l-22 42l119 65h59v-398h-58v340zM284 0h-61l352 691h61zM535 137l206 262h49v-254h52l-10 -44h-42v-100h-50v100h-205v36zM740 145v186l-146 -186h146z" />
    <glyph glyph-name="onehalf" unicode="&#xbd;" horiz-adv-x="897" 
d="M162 635l-98 -49l-22 42l119 65h59v-398h-58v340zM261 0h-61l352 691h61zM549 43q26 23 51.5 42.5t51.5 41.5q30 26 52.5 45t37 37t21.5 37t7 45q0 35 -19.5 55t-57.5 20q-43 0 -63.5 -18.5t-32.5 -57.5l-51 9q6 21 15.5 41t26 36.5t42 26.5t62.5 10q34 0 59.5 -9.5
t42 -26t24.5 -37.5t8 -44q0 -28 -7 -51.5t-22.5 -46t-41 -46t-62.5 -53.5q-15 -12 -30.5 -24t-32.5 -26h200l-11 -48h-270v42z" />
    <glyph glyph-name="threequarters" unicode="&#xbe;" horiz-adv-x="897" 
d="M101 406q3 -17 9 -31.5t17.5 -26t29 -18t43.5 -6.5q47 0 69 21t22 60q0 42 -23.5 58.5t-59.5 16.5h-50v43h50q32 0 53.5 18.5t21.5 54.5q0 34 -22 51t-61 17q-45 0 -66 -21t-31 -53l-47 10q4 17 13 36t25.5 34.5t42 26t61.5 10.5q69 0 102.5 -29.5t33.5 -76.5
q0 -35 -13.5 -56t-38.5 -38q34 -16 48 -40.5t14 -59.5q0 -56 -34.5 -91t-107.5 -35q-44 0 -72 13t-44.5 31.5t-23.5 40.5t-8 40h47zM330 0h-61l352 691h61zM535 137l206 262h49v-254h52l-10 -44h-42v-100h-50v100h-205v36zM740 145v186l-146 -186h146z" />
    <glyph glyph-name="questiondown" unicode="&#xbf;" horiz-adv-x="493" 
d="M476 -34q-7 -32 -22 -63t-41 -55.5t-64 -39.5t-92 -15q-49 0 -86 14t-62 38.5t-37.5 58.5t-12.5 73q0 59 23 99.5t57 72.5q19 18 37 35t32.5 36t23.5 41t9 50v11h58v-11q0 -35 -11 -62t-28.5 -49.5t-38 -42t-39.5 -39.5q-23 -23 -43 -54.5t-21 -78.5q-2 -64 32.5 -102
t107.5 -38q72 0 109.5 32.5t55.5 98.5zM233 515h74v-92h-74v92z" />
    <glyph glyph-name="Agrave" unicode="&#xc0;" horiz-adv-x="661" 
d="M295 714h72l282 -714h-66l-86 218h-336l-85 -218h-64zM475 274l-147 373l-145 -373h292zM205 903h79l111 -129h-63z" />
    <glyph glyph-name="Aacute" unicode="&#xc1;" horiz-adv-x="661" 
d="M295 714h72l282 -714h-66l-86 218h-336l-85 -218h-64zM475 274l-147 373l-145 -373h292zM377 903h79l-127 -129h-63z" />
    <glyph glyph-name="Acircumflex" unicode="&#xc2;" horiz-adv-x="661" 
d="M295 714h72l282 -714h-66l-86 218h-336l-85 -218h-64zM475 274l-147 373l-145 -373h292zM302 903h57l112 -129h-61l-80 83l-80 -83h-61z" />
    <glyph glyph-name="Atilde" unicode="&#xc3;" horiz-adv-x="661" 
d="M295 714h72l282 -714h-66l-86 218h-336l-85 -218h-64zM475 274l-147 373l-145 -373h292zM160 782q0 49 25 77t70 28q27 0 46.5 -9t35.5 -20t31.5 -20t35.5 -9q29 0 39 17t10 40h48q0 -50 -25 -77.5t-70 -27.5q-27 0 -46.5 9t-35.5 19.5t-32 19.5t-35 9q-29 0 -39 -16.5
t-10 -39.5h-48z" />
    <glyph glyph-name="Adieresis" unicode="&#xc4;" horiz-adv-x="661" 
d="M295 714h72l282 -714h-66l-86 218h-336l-85 -218h-64zM475 274l-147 373l-145 -373h292zM214 882h67v-87h-67v87zM378 882h68v-87h-68v87z" />
    <glyph glyph-name="Aring" unicode="&#xc5;" horiz-adv-x="661" 
d="M283 684q-21 11 -34.5 32t-13.5 53q0 48 28.5 72t66.5 24q19 0 36 -6t30.5 -18t21.5 -30t8 -42q0 -31 -13.5 -52t-34.5 -32l271 -685h-66l-86 218h-336l-85 -218h-64zM475 274l-147 373l-145 -373h292zM330 715q24 0 37.5 13t13.5 41q0 29 -13.5 42.5t-37.5 13.5
q-23 0 -37 -13.5t-14 -42.5q0 -28 14 -41t37 -13z" />
    <glyph glyph-name="AE" unicode="&#xc6;" horiz-adv-x="1012" 
d="M432 714h523v-55h-363v-262h343v-57h-343v-284h380l-14 -56h-424v249h-313l-149 -249h-67zM534 305v354h-71l-209 -354h280z" />
    <glyph glyph-name="Ccedilla" unicode="&#xc7;" horiz-adv-x="709" 
d="M281 -168q16 -2 28.5 -3t27.5 -1q67 0 67 40q0 20 -18 29t-63 9h-13l27 78q-63 5 -115 31.5t-88.5 73.5t-57 113.5t-20.5 152.5q0 92 25 162.5t67.5 118t99 72t120.5 24.5q65 0 112 -17t79.5 -47.5t52.5 -72.5t32 -91l-58 -13q-11 44 -27.5 79t-42 59t-61.5 37t-87 13
q-59 0 -105 -24t-78 -67t-49 -102t-17 -129q0 -71 16.5 -129.5t48 -101.5t78.5 -66.5t108 -23.5q58 0 97.5 14.5t65 40.5t40 61.5t21.5 76.5h60q-7 -51 -26.5 -95.5t-53 -77.5t-80.5 -52.5t-110 -21.5l-14 -38q54 -6 73 -28.5t19 -51.5q0 -23 -9 -39t-25.5 -25.5
t-39.5 -13.5t-50 -4q-15 0 -28.5 1t-28.5 3v46z" />
    <glyph glyph-name="Egrave" unicode="&#xc8;" horiz-adv-x="588" 
d="M82 714h449v-55h-388v-262h368v-57h-368v-284h405l-14 -56h-452v714zM194 903h79l111 -129h-63z" />
    <glyph glyph-name="Eacute" unicode="&#xc9;" horiz-adv-x="588" 
d="M82 714h449v-55h-388v-262h368v-57h-368v-284h405l-14 -56h-452v714zM350 903h79l-127 -129h-63z" />
    <glyph glyph-name="Ecircumflex" unicode="&#xca;" horiz-adv-x="588" 
d="M82 714h449v-55h-388v-262h368v-57h-368v-284h405l-14 -56h-452v714zM281 903h57l112 -129h-61l-80 83l-80 -83h-61z" />
    <glyph glyph-name="Edieresis" unicode="&#xcb;" horiz-adv-x="588" 
d="M82 714h449v-55h-388v-262h368v-57h-368v-284h405l-14 -56h-452v714zM193 882h67v-87h-67v87zM357 882h68v-87h-68v87z" />
    <glyph glyph-name="Igrave" unicode="&#xcc;" horiz-adv-x="225" 
d="M82 714h61v-714h-61v714zM-22 903h79l111 -129h-63z" />
    <glyph glyph-name="Iacute" unicode="&#xcd;" horiz-adv-x="225" 
d="M82 714h61v-714h-61v714zM170 903h79l-127 -129h-63z" />
    <glyph glyph-name="Icircumflex" unicode="&#xce;" horiz-adv-x="225" 
d="M82 714h61v-714h-61v714zM85 903h57l112 -129h-61l-80 83l-80 -83h-61z" />
    <glyph glyph-name="Idieresis" unicode="&#xcf;" horiz-adv-x="225" 
d="M82 714h61v-714h-61v714zM-3 882h67v-87h-67v87zM161 882h68v-87h-68v87z" />
    <glyph glyph-name="Eth" unicode="&#xd0;" horiz-adv-x="712" 
d="M92 342h-82v54h82v318h241q75 0 135 -21.5t101.5 -65t64 -109.5t22.5 -156q0 -91 -24 -159t-69 -113t-109 -67.5t-143 -22.5h-219v342zM315 54q143 0 210 79.5t67 226.5q0 145 -62.5 223t-196.5 78h-180v-265h199v-54h-199v-288h162z" />
    <glyph glyph-name="Ntilde" unicode="&#xd1;" horiz-adv-x="690" 
d="M82 714h67l400 -618v618h59v-714h-66l-401 620v-620h-59v714zM182 782q0 49 25 77t70 28q27 0 46.5 -9t35.5 -20t31.5 -20t35.5 -9q29 0 39 17t10 40h48q0 -50 -25 -77.5t-70 -27.5q-27 0 -46.5 9t-35.5 19.5t-32 19.5t-35 9q-29 0 -39 -16.5t-10 -39.5h-48z" />
    <glyph glyph-name="Ograve" unicode="&#xd2;" horiz-adv-x="756" 
d="M379 -18q-69 0 -128.5 23.5t-102.5 70.5t-67.5 117t-24.5 162t24.5 162.5t68 118t102.5 72t128 24.5t128 -23.5t101.5 -70.5t67 -116.5t24.5 -161.5q0 -93 -24 -163.5t-66.5 -118t-101.5 -72t-129 -24.5zM379 36q63 0 111 23.5t80.5 66t49 101.5t16.5 130t-17 130
t-49.5 101.5t-80.5 66t-110 23.5q-65 0 -113.5 -23.5t-80.5 -66t-48.5 -101.5t-16.5 -130t16 -130t48.5 -101.5t81 -66t113.5 -23.5zM256 903h79l111 -129h-63z" />
    <glyph glyph-name="Oacute" unicode="&#xd3;" horiz-adv-x="756" 
d="M379 -18q-69 0 -128.5 23.5t-102.5 70.5t-67.5 117t-24.5 162t24.5 162.5t68 118t102.5 72t128 24.5t128 -23.5t101.5 -70.5t67 -116.5t24.5 -161.5q0 -93 -24 -163.5t-66.5 -118t-101.5 -72t-129 -24.5zM379 36q63 0 111 23.5t80.5 66t49 101.5t16.5 130t-17 130
t-49.5 101.5t-80.5 66t-110 23.5q-65 0 -113.5 -23.5t-80.5 -66t-48.5 -101.5t-16.5 -130t16 -130t48.5 -101.5t81 -66t113.5 -23.5zM421 903h79l-127 -129h-63z" />
    <glyph glyph-name="Ocircumflex" unicode="&#xd4;" horiz-adv-x="756" 
d="M379 -18q-69 0 -128.5 23.5t-102.5 70.5t-67.5 117t-24.5 162t24.5 162.5t68 118t102.5 72t128 24.5t128 -23.5t101.5 -70.5t67 -116.5t24.5 -161.5q0 -93 -24 -163.5t-66.5 -118t-101.5 -72t-129 -24.5zM379 36q63 0 111 23.5t80.5 66t49 101.5t16.5 130t-17 130
t-49.5 101.5t-80.5 66t-110 23.5q-65 0 -113.5 -23.5t-80.5 -66t-48.5 -101.5t-16.5 -130t16 -130t48.5 -101.5t81 -66t113.5 -23.5zM350 903h57l112 -129h-61l-80 83l-80 -83h-61z" />
    <glyph glyph-name="Otilde" unicode="&#xd5;" horiz-adv-x="756" 
d="M379 -18q-69 0 -128.5 23.5t-102.5 70.5t-67.5 117t-24.5 162t24.5 162.5t68 118t102.5 72t128 24.5t128 -23.5t101.5 -70.5t67 -116.5t24.5 -161.5q0 -93 -24 -163.5t-66.5 -118t-101.5 -72t-129 -24.5zM379 36q63 0 111 23.5t80.5 66t49 101.5t16.5 130t-17 130
t-49.5 101.5t-80.5 66t-110 23.5q-65 0 -113.5 -23.5t-80.5 -66t-48.5 -101.5t-16.5 -130t16 -130t48.5 -101.5t81 -66t113.5 -23.5zM208 782q0 49 25 77t70 28q27 0 46.5 -9t35.5 -20t31.5 -20t35.5 -9q29 0 39 17t10 40h48q0 -50 -25 -77.5t-70 -27.5q-27 0 -46.5 9
t-35.5 19.5t-32 19.5t-35 9q-29 0 -39 -16.5t-10 -39.5h-48z" />
    <glyph glyph-name="Odieresis" unicode="&#xd6;" horiz-adv-x="756" 
d="M379 -18q-69 0 -128.5 23.5t-102.5 70.5t-67.5 117t-24.5 162t24.5 162.5t68 118t102.5 72t128 24.5t128 -23.5t101.5 -70.5t67 -116.5t24.5 -161.5q0 -93 -24 -163.5t-66.5 -118t-101.5 -72t-129 -24.5zM379 36q63 0 111 23.5t80.5 66t49 101.5t16.5 130t-17 130
t-49.5 101.5t-80.5 66t-110 23.5q-65 0 -113.5 -23.5t-80.5 -66t-48.5 -101.5t-16.5 -130t16 -130t48.5 -101.5t81 -66t113.5 -23.5zM262 882h67v-87h-67v87zM426 882h68v-87h-68v87z" />
    <glyph glyph-name="multiply" unicode="&#xd7;" 
d="M97 173l164 163l-175 174l36 36l174 -172l174 172l36 -36l-175 -174l164 -163l-36 -38l-163 164l-164 -164z" />
    <glyph glyph-name="Oslash" unicode="&#xd8;" horiz-adv-x="756" 
d="M156 68q-48 47 -74 118.5t-26 168.5q0 92 24.5 162.5t68 118t102.5 72t128 24.5q104 0 181 -53l54 82l45 -30l-57 -87q46 -47 72 -117.5t26 -166.5q0 -93 -24 -163.5t-66.5 -118t-101.5 -72t-129 -24.5q-104 0 -182 52l-53 -80l-44 29zM528 630q-62 48 -149 48
q-65 0 -113.5 -23.5t-80.5 -66t-48.5 -101.5t-16.5 -130q0 -75 17.5 -135t52.5 -103zM228 81q62 -45 151 -45q63 0 111 23.5t80.5 66t49 101.5t16.5 130q0 72 -17.5 132t-51.5 103z" />
    <glyph glyph-name="Ugrave" unicode="&#xd9;" horiz-adv-x="676" 
d="M77 714h61v-435q0 -121 47 -182t155 -61q55 0 92.5 15.5t61 46t34 76t10.5 105.5v435h61v-434q0 -79 -17.5 -135.5t-51 -92.5t-82 -53t-109.5 -17q-63 0 -111.5 17t-82 53.5t-51 94t-17.5 137.5v430zM213 903h79l111 -129h-63z" />
    <glyph glyph-name="Uacute" unicode="&#xda;" horiz-adv-x="676" 
d="M77 714h61v-435q0 -121 47 -182t155 -61q55 0 92.5 15.5t61 46t34 76t10.5 105.5v435h61v-434q0 -79 -17.5 -135.5t-51 -92.5t-82 -53t-109.5 -17q-63 0 -111.5 17t-82 53.5t-51 94t-17.5 137.5v430zM385 903h79l-127 -129h-63z" />
    <glyph glyph-name="Ucircumflex" unicode="&#xdb;" horiz-adv-x="676" 
d="M77 714h61v-435q0 -121 47 -182t155 -61q55 0 92.5 15.5t61 46t34 76t10.5 105.5v435h61v-434q0 -79 -17.5 -135.5t-51 -92.5t-82 -53t-109.5 -17q-63 0 -111.5 17t-82 53.5t-51 94t-17.5 137.5v430zM310 903h57l112 -129h-61l-80 83l-80 -83h-61z" />
    <glyph glyph-name="Udieresis" unicode="&#xdc;" horiz-adv-x="676" 
d="M77 714h61v-435q0 -121 47 -182t155 -61q55 0 92.5 15.5t61 46t34 76t10.5 105.5v435h61v-434q0 -79 -17.5 -135.5t-51 -92.5t-82 -53t-109.5 -17q-63 0 -111.5 17t-82 53.5t-51 94t-17.5 137.5v430zM222 882h67v-87h-67v87zM386 882h68v-87h-68v87z" />
    <glyph glyph-name="Yacute" unicode="&#xdd;" horiz-adv-x="588" 
d="M265 309l-250 405h72l209 -353l213 353h64l-247 -405v-309h-61v309zM340 903h79l-127 -129h-63z" />
    <glyph glyph-name="Thorn" unicode="&#xde;" horiz-adv-x="619" 
d="M82 714h60v-139h170q78 0 128 -16.5t78.5 -44.5t39.5 -65.5t11 -79.5q0 -45 -11.5 -84.5t-40.5 -69.5t-79 -47.5t-128 -17.5h-168v-150h-60v714zM311 203q60 0 98 11.5t60 32.5t30 51t8 68q0 40 -9 69t-31.5 48.5t-60.5 29t-96 9.5h-168v-319h169z" />
    <glyph glyph-name="germandbls" unicode="&#xdf;" horiz-adv-x="561" 
d="M72 525q0 91 52 144t143 53q51 0 87.5 -12.5t60 -35t34.5 -53.5t11 -67q0 -60 -24 -100.5t-76 -61.5q29 -5 58 -19.5t52 -39t37.5 -58.5t14.5 -79q0 -43 -11.5 -80.5t-37 -66t-67 -45t-100.5 -16.5q-34 0 -64 6t-45 12l12 49q14 -5 41 -11t56 -6q46 0 76 12t47.5 33
t24.5 50t7 63q0 41 -14 71.5t-38.5 50.5t-59 29.5t-75.5 9.5h-59v51h46q69 0 104.5 37t35.5 107q0 25 -7 47.5t-23 39t-40.5 26t-59.5 9.5q-69 0 -105 -37.5t-36 -107.5v-529h-58v525z" />
    <glyph glyph-name="agrave" unicode="&#xe0;" horiz-adv-x="525" 
d="M398 73q-13 -16 -31 -31.5t-41 -27.5t-50.5 -19t-60.5 -7q-81 0 -130 39t-49 116q0 52 22 85t58.5 52t83 26.5t96.5 9.5l100 4v16q0 76 -29.5 111t-105.5 35q-37 0 -62.5 -6t-42.5 -17.5t-27 -27t-15 -34.5l-53 8q28 126 202 126q54 0 91 -13t59.5 -37.5t32.5 -60
t10 -81.5v-339h-58v73zM397 274l-95 -4q-58 -2 -97 -10.5t-63 -24t-34.5 -38t-10.5 -53.5q0 -47 26.5 -75.5t92.5 -28.5q33 0 65.5 7.5t53.5 24.5q18 13 29.5 25t19 26.5t10.5 32.5t3 42v76zM149 724h78l111 -134h-62z" />
    <glyph glyph-name="aacute" unicode="&#xe1;" horiz-adv-x="525" 
d="M398 73q-13 -16 -31 -31.5t-41 -27.5t-50.5 -19t-60.5 -7q-81 0 -130 39t-49 116q0 52 22 85t58.5 52t83 26.5t96.5 9.5l100 4v16q0 76 -29.5 111t-105.5 35q-37 0 -62.5 -6t-42.5 -17.5t-27 -27t-15 -34.5l-53 8q28 126 202 126q54 0 91 -13t59.5 -37.5t32.5 -60
t10 -81.5v-339h-58v73zM397 274l-95 -4q-58 -2 -97 -10.5t-63 -24t-34.5 -38t-10.5 -53.5q0 -47 26.5 -75.5t92.5 -28.5q33 0 65.5 7.5t53.5 24.5q18 13 29.5 25t19 26.5t10.5 32.5t3 42v76zM310 724h78l-127 -134h-62z" />
    <glyph glyph-name="acircumflex" unicode="&#xe2;" horiz-adv-x="525" 
d="M398 73q-13 -16 -31 -31.5t-41 -27.5t-50.5 -19t-60.5 -7q-81 0 -130 39t-49 116q0 52 22 85t58.5 52t83 26.5t96.5 9.5l100 4v16q0 76 -29.5 111t-105.5 35q-37 0 -62.5 -6t-42.5 -17.5t-27 -27t-15 -34.5l-53 8q28 126 202 126q54 0 91 -13t59.5 -37.5t32.5 -60
t10 -81.5v-339h-58v73zM397 274l-95 -4q-58 -2 -97 -10.5t-63 -24t-34.5 -38t-10.5 -53.5q0 -47 26.5 -75.5t92.5 -28.5q33 0 65.5 7.5t53.5 24.5q18 13 29.5 25t19 26.5t10.5 32.5t3 42v76zM235 724h57l112 -134h-59l-82 90l-82 -90h-59z" />
    <glyph glyph-name="atilde" unicode="&#xe3;" horiz-adv-x="525" 
d="M398 73q-13 -16 -31 -31.5t-41 -27.5t-50.5 -19t-60.5 -7q-81 0 -130 39t-49 116q0 52 22 85t58.5 52t83 26.5t96.5 9.5l100 4v16q0 76 -29.5 111t-105.5 35q-37 0 -62.5 -6t-42.5 -17.5t-27 -27t-15 -34.5l-53 8q28 126 202 126q54 0 91 -13t59.5 -37.5t32.5 -60
t10 -81.5v-339h-58v73zM397 274l-95 -4q-58 -2 -97 -10.5t-63 -24t-34.5 -38t-10.5 -53.5q0 -47 26.5 -75.5t92.5 -28.5q33 0 65.5 7.5t53.5 24.5q18 13 29.5 25t19 26.5t10.5 32.5t3 42v76zM91 606q0 49 25 76.5t68 27.5q27 0 46 -9t35 -19.5t31.5 -19.5t34.5 -9
q28 0 37.5 16.5t9.5 38.5h48q0 -49 -25 -76.5t-68 -27.5q-27 0 -46 9t-35 19.5t-31.5 19.5t-34.5 9q-28 0 -37.5 -16.5t-9.5 -38.5h-48z" />
    <glyph glyph-name="adieresis" unicode="&#xe4;" horiz-adv-x="525" 
d="M398 73q-13 -16 -31 -31.5t-41 -27.5t-50.5 -19t-60.5 -7q-81 0 -130 39t-49 116q0 52 22 85t58.5 52t83 26.5t96.5 9.5l100 4v16q0 76 -29.5 111t-105.5 35q-37 0 -62.5 -6t-42.5 -17.5t-27 -27t-15 -34.5l-53 8q28 126 202 126q54 0 91 -13t59.5 -37.5t32.5 -60
t10 -81.5v-339h-58v73zM397 274l-95 -4q-58 -2 -97 -10.5t-63 -24t-34.5 -38t-10.5 -53.5q0 -47 26.5 -75.5t92.5 -28.5q33 0 65.5 7.5t53.5 24.5q18 13 29.5 25t19 26.5t10.5 32.5t3 42v76zM146 704h65v-85h-65v85zM306 704h66v-85h-66v85z" />
    <glyph glyph-name="aring" unicode="&#xe5;" horiz-adv-x="525" 
d="M398 73q-13 -16 -31 -31.5t-41 -27.5t-50.5 -19t-60.5 -7q-81 0 -130 39t-49 116q0 52 22 85t58.5 52t83 26.5t96.5 9.5l100 4v16q0 76 -29.5 111t-105.5 35q-37 0 -62.5 -6t-42.5 -17.5t-27 -27t-15 -34.5l-53 8q28 126 202 126q54 0 91 -13t59.5 -37.5t32.5 -60
t10 -81.5v-339h-58v73zM397 274l-95 -4q-58 -2 -97 -10.5t-63 -24t-34.5 -38t-10.5 -53.5q0 -47 26.5 -75.5t92.5 -28.5q33 0 65.5 7.5t53.5 24.5q18 13 29.5 25t19 26.5t10.5 32.5t3 42v76zM166 683q0 47 28 71t66 24q18 0 35.5 -6t30.5 -18t21 -30t8 -41q0 -24 -8 -41.5
t-21 -29t-30.5 -17.5t-35.5 -6q-38 0 -66 23.5t-28 70.5zM260 628q23 0 36.5 13.5t13.5 41.5t-13.5 41.5t-36.5 13.5t-36.5 -13.5t-13.5 -41.5t13.5 -41.5t36.5 -13.5z" />
    <glyph glyph-name="ae" unicode="&#xe6;" horiz-adv-x="890" 
d="M61 405q28 126 199 126q77 0 117.5 -25.5t57.5 -73.5q32 49 80 74t106 25q59 0 100.5 -19.5t67.5 -53t38 -79.5t12 -99v-37h-390q0 -44 11 -82.5t33 -67t54 -45t74 -16.5q37 0 63.5 7.5t44.5 21.5t28.5 32.5t16.5 41.5h56q-12 -67 -63.5 -109t-145.5 -42q-39 0 -71 9.5
t-56.5 26t-42.5 38.5t-29 46q-10 -18 -26.5 -38.5t-42 -38t-59.5 -28.5t-78 -11q-40 0 -73 10t-57 29.5t-37 48.5t-13 67q0 52 21.5 85t57 52t81.5 26.5t94 9.5l100 4v16q0 38 -6.5 65.5t-21.5 45.5t-40.5 26.5t-63.5 8.5q-71 0 -102.5 -23.5t-41.5 -61.5zM391 274l-95 -4
q-57 -2 -95 -10.5t-61 -24t-33 -38t-10 -53.5q0 -47 27 -75.5t93 -28.5q33 0 63 7.5t51 24.5q18 13 29.5 25t18 26.5t9.5 32.5t3 42v76zM779 293q0 42 -9 77t-28 60.5t-49 39.5t-72 14q-73 0 -117 -47t-54 -144h329z" />
    <glyph glyph-name="ccedilla" unicode="&#xe7;" horiz-adv-x="554" 
d="M190 -154q15 -2 27.5 -3t26.5 -1q34 0 49.5 8.5t15.5 28.5q0 19 -17 27t-62 8h-12l25 74q-91 14 -140 84t-49 183q0 63 17 114t48 87t75.5 55.5t100.5 19.5q85 0 135.5 -43.5t66.5 -122.5l-56 -14q-6 28 -17 52t-28 41t-42.5 27t-60.5 10q-47 0 -80 -17t-55 -46.5
t-32 -70.5t-10 -89t10 -89t31 -71t54.5 -47t80.5 -17q75 0 109.5 36.5t46.5 97.5h58q-15 -87 -69 -135.5t-147 -48.5h-2l-12 -33q52 -6 70.5 -27t18.5 -49q0 -45 -33 -61.5t-87 -16.5q-14 0 -27.5 1t-27.5 3v45z" />
    <glyph glyph-name="egrave" unicode="&#xe8;" horiz-adv-x="560" 
d="M500 135q-12 -67 -64 -109t-148 -42q-111 0 -172.5 71.5t-61.5 196.5q0 68 17.5 120t49 87.5t74 53.5t93.5 18q60 0 102 -19.5t68.5 -53t38.5 -79.5t12 -99v-37h-396q0 -44 11 -82.5t33 -67t55 -45t76 -16.5q39 0 66 7.5t45 21.5t28.5 32.5t16.5 41.5h56zM449 293
q0 42 -9 77t-28 60.5t-50 39.5t-74 14q-75 0 -120 -47t-54 -144h335zM166 724h78l111 -134h-62z" />
    <glyph glyph-name="eacute" unicode="&#xe9;" horiz-adv-x="560" 
d="M500 135q-12 -67 -64 -109t-148 -42q-111 0 -172.5 71.5t-61.5 196.5q0 68 17.5 120t49 87.5t74 53.5t93.5 18q60 0 102 -19.5t68.5 -53t38.5 -79.5t12 -99v-37h-396q0 -44 11 -82.5t33 -67t55 -45t76 -16.5q39 0 66 7.5t45 21.5t28.5 32.5t16.5 41.5h56zM449 293
q0 42 -9 77t-28 60.5t-50 39.5t-74 14q-75 0 -120 -47t-54 -144h335zM336 724h78l-127 -134h-62z" />
    <glyph glyph-name="ecircumflex" unicode="&#xea;" horiz-adv-x="560" 
d="M500 135q-12 -67 -64 -109t-148 -42q-111 0 -172.5 71.5t-61.5 196.5q0 68 17.5 120t49 87.5t74 53.5t93.5 18q60 0 102 -19.5t68.5 -53t38.5 -79.5t12 -99v-37h-396q0 -44 11 -82.5t33 -67t55 -45t76 -16.5q39 0 66 7.5t45 21.5t28.5 32.5t16.5 41.5h56zM449 293
q0 42 -9 77t-28 60.5t-50 39.5t-74 14q-75 0 -120 -47t-54 -144h335zM256 724h57l112 -134h-59l-82 90l-82 -90h-59z" />
    <glyph glyph-name="edieresis" unicode="&#xeb;" horiz-adv-x="560" 
d="M500 135q-12 -67 -64 -109t-148 -42q-111 0 -172.5 71.5t-61.5 196.5q0 68 17.5 120t49 87.5t74 53.5t93.5 18q60 0 102 -19.5t68.5 -53t38.5 -79.5t12 -99v-37h-396q0 -44 11 -82.5t33 -67t55 -45t76 -16.5q39 0 66 7.5t45 21.5t28.5 32.5t16.5 41.5h56zM449 293
q0 42 -9 77t-28 60.5t-50 39.5t-74 14q-75 0 -120 -47t-54 -144h335zM171 704h65v-85h-65v85zM331 704h66v-85h-66v85z" />
    <glyph glyph-name="igrave" unicode="&#xec;" horiz-adv-x="204" 
d="M73 515h58v-515h-58v515zM-47 724h78l111 -134h-62z" />
    <glyph glyph-name="iacute" unicode="&#xed;" horiz-adv-x="204" 
d="M73 515h58v-515h-58v515zM177 724h78l-127 -134h-62z" />
    <glyph glyph-name="icircumflex" unicode="&#xee;" horiz-adv-x="204" 
d="M73 515h58v-515h-58v515zM75 724h57l112 -134h-59l-82 90l-82 -90h-59z" />
    <glyph glyph-name="idieresis" unicode="&#xef;" horiz-adv-x="204" 
d="M73 515h58v-515h-58v515zM-10 704h65v-85h-65v85zM150 704h66v-85h-66v85z" />
    <glyph glyph-name="eth" unicode="&#xf0;" horiz-adv-x="593" 
d="M199 586l64 64q-57 20 -131 25l10 49q45 -4 85 -12.5t75 -22.5l66 65l34 -35l-54 -53q96 -55 143.5 -155t47.5 -239q0 -67 -17 -120.5t-48.5 -90.5t-77 -57t-102.5 -20t-101.5 19t-75 52.5t-47 79.5t-16.5 100q0 55 17.5 101.5t49 81t75.5 54t97 19.5q58 0 95 -16.5
t71 -48.5q-15 74 -52.5 124t-94.5 80l-79 -78zM477 258q0 74 -39 121q-26 32 -61.5 47t-85.5 15q-46 0 -79 -17t-54.5 -45.5t-31.5 -65t-10 -75.5t10 -75.5t31.5 -65t56 -45.5t82.5 -17q49 0 83 16.5t56 45t32 65t10 77.5v19z" />
    <glyph glyph-name="ntilde" unicode="&#xf1;" horiz-adv-x="558" 
d="M70 515h58v-84q42 53 89.5 76.5t101.5 23.5q88 0 130 -49t42 -139v-343h-58v327q0 81 -29 116.5t-92 35.5q-30 0 -63.5 -11.5t-60.5 -36.5q-30 -26 -45 -53.5t-15 -75.5v-302h-58v515zM121 606q0 49 25 76.5t68 27.5q27 0 46 -9t35 -19.5t31.5 -19.5t34.5 -9
q28 0 37.5 16.5t9.5 38.5h48q0 -49 -25 -76.5t-68 -27.5q-27 0 -46 9t-35 19.5t-31.5 19.5t-34.5 9q-28 0 -37.5 -16.5t-9.5 -38.5h-48z" />
    <glyph glyph-name="ograve" unicode="&#xf2;" horiz-adv-x="593" 
d="M296 34q49 0 83 17.5t56 47.5t32 71t10 89q0 46 -10 86.5t-32 70.5t-56 47.5t-83 17.5q-48 0 -82.5 -17.5t-56 -47.5t-31.5 -70.5t-10 -87.5t10 -88t31.5 -71t56 -47.5t82.5 -17.5zM294 -16q-57 0 -101.5 19t-75 54.5t-47 85.5t-16.5 112q0 63 17.5 114t49 87t76.5 55.5
t101 19.5t101 -19t76 -54.5t47.5 -85.5t16.5 -111q0 -63 -17 -114t-48.5 -87.5t-77 -56t-102.5 -19.5zM177 724h78l111 -134h-62z" />
    <glyph glyph-name="oacute" unicode="&#xf3;" horiz-adv-x="593" 
d="M296 34q49 0 83 17.5t56 47.5t32 71t10 89q0 46 -10 86.5t-32 70.5t-56 47.5t-83 17.5q-48 0 -82.5 -17.5t-56 -47.5t-31.5 -70.5t-10 -87.5t10 -88t31.5 -71t56 -47.5t82.5 -17.5zM294 -16q-57 0 -101.5 19t-75 54.5t-47 85.5t-16.5 112q0 63 17.5 114t49 87t76.5 55.5
t101 19.5t101 -19t76 -54.5t47.5 -85.5t16.5 -111q0 -63 -17 -114t-48.5 -87.5t-77 -56t-102.5 -19.5zM353 724h78l-127 -134h-62z" />
    <glyph glyph-name="ocircumflex" unicode="&#xf4;" horiz-adv-x="593" 
d="M296 34q49 0 83 17.5t56 47.5t32 71t10 89q0 46 -10 86.5t-32 70.5t-56 47.5t-83 17.5q-48 0 -82.5 -17.5t-56 -47.5t-31.5 -70.5t-10 -87.5t10 -88t31.5 -71t56 -47.5t82.5 -17.5zM294 -16q-57 0 -101.5 19t-75 54.5t-47 85.5t-16.5 112q0 63 17.5 114t49 87t76.5 55.5
t101 19.5t101 -19t76 -54.5t47.5 -85.5t16.5 -111q0 -63 -17 -114t-48.5 -87.5t-77 -56t-102.5 -19.5zM268 724h57l112 -134h-59l-82 90l-82 -90h-59z" />
    <glyph glyph-name="otilde" unicode="&#xf5;" horiz-adv-x="593" 
d="M296 34q49 0 83 17.5t56 47.5t32 71t10 89q0 46 -10 86.5t-32 70.5t-56 47.5t-83 17.5q-48 0 -82.5 -17.5t-56 -47.5t-31.5 -70.5t-10 -87.5t10 -88t31.5 -71t56 -47.5t82.5 -17.5zM294 -16q-57 0 -101.5 19t-75 54.5t-47 85.5t-16.5 112q0 63 17.5 114t49 87t76.5 55.5
t101 19.5t101 -19t76 -54.5t47.5 -85.5t16.5 -111q0 -63 -17 -114t-48.5 -87.5t-77 -56t-102.5 -19.5zM129 606q0 49 25 76.5t68 27.5q27 0 46 -9t35 -19.5t31.5 -19.5t34.5 -9q28 0 37.5 16.5t9.5 38.5h48q0 -49 -25 -76.5t-68 -27.5q-27 0 -46 9t-35 19.5t-31.5 19.5
t-34.5 9q-28 0 -37.5 -16.5t-9.5 -38.5h-48z" />
    <glyph glyph-name="odieresis" unicode="&#xf6;" horiz-adv-x="593" 
d="M296 34q49 0 83 17.5t56 47.5t32 71t10 89q0 46 -10 86.5t-32 70.5t-56 47.5t-83 17.5q-48 0 -82.5 -17.5t-56 -47.5t-31.5 -70.5t-10 -87.5t10 -88t31.5 -71t56 -47.5t82.5 -17.5zM294 -16q-57 0 -101.5 19t-75 54.5t-47 85.5t-16.5 112q0 63 17.5 114t49 87t76.5 55.5
t101 19.5t101 -19t76 -54.5t47.5 -85.5t16.5 -111q0 -63 -17 -114t-48.5 -87.5t-77 -56t-102.5 -19.5zM183 704h65v-85h-65v85zM343 704h66v-85h-66v85z" />
    <glyph glyph-name="divide" unicode="&#xf7;" 
d="M260 565h71v-86h-71v86zM260 201h71v-86h-71v86zM81 368h430v-55h-430v55z" />
    <glyph glyph-name="oslash" unicode="&#xf8;" horiz-adv-x="593" 
d="M128 46q-74 72 -74 209q0 63 17.5 114t49 87t76.5 55.5t101 19.5q75 0 130 -35l44 66l41 -28l-46 -69q35 -35 53.5 -87t18.5 -117q0 -63 -17 -114t-48.5 -87.5t-77 -56t-102.5 -19.5q-74 0 -127 32l-44 -67l-41 28zM399 452q-41 29 -103 29q-48 0 -82.5 -17.5t-56 -47.5
t-31.5 -70.5t-10 -87.5q0 -49 10.5 -91t33.5 -72zM197 60q40 -26 99 -26q49 0 83 17.5t56 47.5t32 71t10 89q0 47 -10 87.5t-32 70.5z" />
    <glyph glyph-name="ugrave" unicode="&#xf9;" horiz-adv-x="547" 
d="M68 515h58v-327q0 -81 25.5 -116.5t87.5 -35.5q31 0 62 12t59 36q29 26 44 53.5t15 75.5v302h58v-515h-58v84q-81 -100 -187 -100q-88 0 -126 48t-38 140v343zM139 724h78l111 -134h-62z" />
    <glyph glyph-name="uacute" unicode="&#xfa;" horiz-adv-x="547" 
d="M68 515h58v-327q0 -81 25.5 -116.5t87.5 -35.5q31 0 62 12t59 36q29 26 44 53.5t15 75.5v302h58v-515h-58v84q-81 -100 -187 -100q-88 0 -126 48t-38 140v343zM331 724h78l-127 -134h-62z" />
    <glyph glyph-name="ucircumflex" unicode="&#xfb;" horiz-adv-x="547" 
d="M68 515h58v-327q0 -81 25.5 -116.5t87.5 -35.5q31 0 62 12t59 36q29 26 44 53.5t15 75.5v302h58v-515h-58v84q-81 -100 -187 -100q-88 0 -126 48t-38 140v343zM246 724h57l112 -134h-59l-82 90l-82 -90h-59z" />
    <glyph glyph-name="udieresis" unicode="&#xfc;" horiz-adv-x="547" 
d="M68 515h58v-327q0 -81 25.5 -116.5t87.5 -35.5q31 0 62 12t59 36q29 26 44 53.5t15 75.5v302h58v-515h-58v84q-81 -100 -187 -100q-88 0 -126 48t-38 140v343zM159 704h65v-85h-65v85zM319 704h66v-85h-66v85z" />
    <glyph glyph-name="yacute" unicode="&#xfd;" horiz-adv-x="498" 
d="M59 -131q12 -5 25.5 -8t28.5 -3q18 0 30 4t22 14.5t18.5 27t19.5 42.5l24 61l-221 508h67l187 -441l167 441h65l-234 -583q-12 -29 -24.5 -52.5t-28 -40t-36.5 -25t-50 -8.5q-23 0 -38.5 2.5t-35.5 9.5zM296 724h78l-127 -134h-62z" />
    <glyph glyph-name="thorn" unicode="&#xfe;" horiz-adv-x="583" 
d="M70 714h58v-276q35 44 77 68.5t102 24.5q57 0 98.5 -20.5t69 -56.5t41 -85t13.5 -106q0 -66 -16.5 -117.5t-46.5 -87.5t-72.5 -55t-95.5 -19q-47 0 -90.5 19t-79.5 67v-264h-58v908zM126 237q0 -34 3.5 -59.5t12 -45.5t21.5 -35.5t32 -28.5q23 -18 47 -26t55 -8
q37 0 68 12.5t53.5 39.5t35.5 70.5t13 105.5q0 63 -14.5 105t-37.5 67.5t-52 36t-57 10.5q-31 0 -56 -7t-50 -26q-35 -26 -54.5 -65.5t-19.5 -100.5v-45z" />
    <glyph glyph-name="ydieresis" unicode="&#xff;" horiz-adv-x="498" 
d="M59 -131q12 -5 25.5 -8t28.5 -3q18 0 30 4t22 14.5t18.5 27t19.5 42.5l24 61l-221 508h67l187 -441l167 441h65l-234 -583q-12 -29 -24.5 -52.5t-28 -40t-36.5 -25t-50 -8.5q-23 0 -38.5 2.5t-35.5 9.5zM136 704h65v-85h-65v85zM296 704h66v-85h-66v85z" />
    <glyph glyph-name="Amacron" unicode="&#x100;" horiz-adv-x="661" 
d="M295 714h72l282 -714h-66l-86 218h-336l-85 -218h-64zM475 274l-147 373l-145 -373h292zM189 851h282v-53h-282v53z" />
    <glyph glyph-name="amacron" unicode="&#x101;" horiz-adv-x="525" 
d="M398 73q-13 -16 -31 -31.5t-41 -27.5t-50.5 -19t-60.5 -7q-81 0 -130 39t-49 116q0 52 22 85t58.5 52t83 26.5t96.5 9.5l100 4v16q0 76 -29.5 111t-105.5 35q-37 0 -62.5 -6t-42.5 -17.5t-27 -27t-15 -34.5l-53 8q28 126 202 126q54 0 91 -13t59.5 -37.5t32.5 -60
t10 -81.5v-339h-58v73zM397 274l-95 -4q-58 -2 -97 -10.5t-63 -24t-34.5 -38t-10.5 -53.5q0 -47 26.5 -75.5t92.5 -28.5q33 0 65.5 7.5t53.5 24.5q18 13 29.5 25t19 26.5t10.5 32.5t3 42v76zM134 678h244v-51h-244v51z" />
    <glyph glyph-name="Abreve" unicode="&#x102;" horiz-adv-x="661" 
d="M295 714h72l282 -714h-66l-86 218h-336l-85 -218h-64zM475 274l-147 373l-145 -373h292zM253 903q0 -42 21.5 -63.5t55.5 -21.5q33 0 55 21.5t22 63.5h49q0 -62 -33 -95.5t-93 -33.5t-93 33.5t-33 95.5h49z" />
    <glyph glyph-name="abreve" unicode="&#x103;" horiz-adv-x="525" 
d="M398 73q-13 -16 -31 -31.5t-41 -27.5t-50.5 -19t-60.5 -7q-81 0 -130 39t-49 116q0 52 22 85t58.5 52t83 26.5t96.5 9.5l100 4v16q0 76 -29.5 111t-105.5 35q-37 0 -62.5 -6t-42.5 -17.5t-27 -27t-15 -34.5l-53 8q28 126 202 126q54 0 91 -13t59.5 -37.5t32.5 -60
t10 -81.5v-339h-58v73zM397 274l-95 -4q-58 -2 -97 -10.5t-63 -24t-34.5 -38t-10.5 -53.5q0 -47 26.5 -75.5t92.5 -28.5q33 0 65.5 7.5t53.5 24.5q18 13 29.5 25t19 26.5t10.5 32.5t3 42v76zM182 720q0 -44 22 -66t56 -22q33 0 55.5 22t22.5 66h48q0 -62 -33 -96.5
t-93 -34.5t-93 34.5t-33 96.5h48z" />
    <glyph glyph-name="Aogonek" unicode="&#x104;" horiz-adv-x="661" 
d="M295 714h72l282 -714q-64 -51 -64 -90q0 -23 13.5 -30.5t35.5 -7.5h8t12 1v-48q-8 -2 -15 -2h-12q-52 0 -76 20t-24 58q0 48 61 99h-5l-86 218h-336l-85 -218h-64zM475 274l-147 373l-145 -373h292z" />
    <glyph glyph-name="aogonek" unicode="&#x105;" horiz-adv-x="525" 
d="M462 -170q-8 -2 -15 -2h-12q-98 0 -98 75q0 24 15 49t46 48v73q-13 -16 -31 -31.5t-41 -27.5t-50.5 -19t-60.5 -7q-81 0 -130 39t-49 116q0 52 22 85t58.5 52t83 26.5t96.5 9.5l100 4v16q0 76 -29.5 111t-105.5 35q-37 0 -62.5 -6t-42.5 -17.5t-27 -27t-15 -34.5l-53 8
q28 126 202 126q54 0 91 -13t59.5 -37.5t32.5 -60t10 -81.5v-339h-1q-61 -48 -61 -88q0 -23 13.5 -30t34.5 -7h8t12 1v-46zM397 274l-95 -4q-58 -2 -97 -10.5t-63 -24t-34.5 -38t-10.5 -53.5q0 -47 26.5 -75.5t92.5 -28.5q33 0 65.5 7.5t53.5 24.5q18 13 29.5 25t19 26.5
t10.5 32.5t3 42v76z" />
    <glyph glyph-name="Cacute" unicode="&#x106;" horiz-adv-x="709" 
d="M654 229q-7 -53 -27.5 -98t-55.5 -78t-85 -52t-116 -19q-70 0 -127.5 24t-99 71.5t-64.5 117t-23 160.5q0 92 25 162.5t67.5 118t99 72t120.5 24.5q65 0 112 -17t79.5 -47.5t52.5 -72.5t32 -91l-58 -13q-11 44 -27.5 79t-42 59t-61.5 37t-87 13q-59 0 -105 -24t-78 -67
t-49 -102t-17 -129q0 -71 16.5 -129.5t48 -101.5t78.5 -66.5t108 -23.5q58 0 97.5 14.5t65 40.5t40 61.5t21.5 76.5h60zM410 903h79l-127 -129h-63z" />
    <glyph glyph-name="cacute" unicode="&#x107;" horiz-adv-x="554" 
d="M506 168q-15 -87 -69 -135.5t-147 -48.5q-56 0 -100 18.5t-74 54t-46 85.5t-16 113t17 114t48 87t75.5 55.5t100.5 19.5q85 0 135.5 -43.5t66.5 -122.5l-56 -14q-6 28 -17 52t-28 41t-42.5 27t-60.5 10q-47 0 -80 -17t-55 -46.5t-32 -70.5t-10 -89t10 -89t31 -71
t54.5 -47t80.5 -17q75 0 109.5 36.5t46.5 97.5h58zM339 724h78l-127 -134h-62z" />
    <glyph glyph-name="Ccircumflex" unicode="&#x108;" horiz-adv-x="709" 
d="M654 229q-7 -53 -27.5 -98t-55.5 -78t-85 -52t-116 -19q-70 0 -127.5 24t-99 71.5t-64.5 117t-23 160.5q0 92 25 162.5t67.5 118t99 72t120.5 24.5q65 0 112 -17t79.5 -47.5t52.5 -72.5t32 -91l-58 -13q-11 44 -27.5 79t-42 59t-61.5 37t-87 13q-59 0 -105 -24t-78 -67
t-49 -102t-17 -129q0 -71 16.5 -129.5t48 -101.5t78.5 -66.5t108 -23.5q58 0 97.5 14.5t65 40.5t40 61.5t21.5 76.5h60zM344 903h57l112 -129h-61l-80 83l-80 -83h-61z" />
    <glyph glyph-name="ccircumflex" unicode="&#x109;" horiz-adv-x="554" 
d="M506 168q-15 -87 -69 -135.5t-147 -48.5q-56 0 -100 18.5t-74 54t-46 85.5t-16 113t17 114t48 87t75.5 55.5t100.5 19.5q85 0 135.5 -43.5t66.5 -122.5l-56 -14q-6 28 -17 52t-28 41t-42.5 27t-60.5 10q-47 0 -80 -17t-55 -46.5t-32 -70.5t-10 -89t10 -89t31 -71
t54.5 -47t80.5 -17q75 0 109.5 36.5t46.5 97.5h58zM266 724h57l112 -134h-59l-82 90l-82 -90h-59z" />
    <glyph glyph-name="Cdotaccent" unicode="&#x10a;" horiz-adv-x="709" 
d="M654 229q-7 -53 -27.5 -98t-55.5 -78t-85 -52t-116 -19q-70 0 -127.5 24t-99 71.5t-64.5 117t-23 160.5q0 92 25 162.5t67.5 118t99 72t120.5 24.5q65 0 112 -17t79.5 -47.5t52.5 -72.5t32 -91l-58 -13q-11 44 -27.5 79t-42 59t-61.5 37t-87 13q-59 0 -105 -24t-78 -67
t-49 -102t-17 -129q0 -71 16.5 -129.5t48 -101.5t78.5 -66.5t108 -23.5q58 0 97.5 14.5t65 40.5t40 61.5t21.5 76.5h60zM338 883h68v-89h-68v89z" />
    <glyph glyph-name="cdotaccent" unicode="&#x10b;" horiz-adv-x="554" 
d="M506 168q-15 -87 -69 -135.5t-147 -48.5q-56 0 -100 18.5t-74 54t-46 85.5t-16 113t17 114t48 87t75.5 55.5t100.5 19.5q85 0 135.5 -43.5t66.5 -122.5l-56 -14q-6 28 -17 52t-28 41t-42.5 27t-60.5 10q-47 0 -80 -17t-55 -46.5t-32 -70.5t-10 -89t10 -89t31 -71
t54.5 -47t80.5 -17q75 0 109.5 36.5t46.5 97.5h58zM261 705h66v-87h-66v87z" />
    <glyph glyph-name="Ccaron" unicode="&#x10c;" horiz-adv-x="709" 
d="M654 229q-7 -53 -27.5 -98t-55.5 -78t-85 -52t-116 -19q-70 0 -127.5 24t-99 71.5t-64.5 117t-23 160.5q0 92 25 162.5t67.5 118t99 72t120.5 24.5q65 0 112 -17t79.5 -47.5t52.5 -72.5t32 -91l-58 -13q-11 44 -27.5 79t-42 59t-61.5 37t-87 13q-59 0 -105 -24t-78 -67
t-49 -102t-17 -129q0 -71 16.5 -129.5t48 -101.5t78.5 -66.5t108 -23.5q58 0 97.5 14.5t65 40.5t40 61.5t21.5 76.5h60zM231 906h62l80 -84l80 84h60l-112 -129h-57z" />
    <glyph glyph-name="ccaron" unicode="&#x10d;" horiz-adv-x="554" 
d="M506 168q-15 -87 -69 -135.5t-147 -48.5q-56 0 -100 18.5t-74 54t-46 85.5t-16 113t17 114t48 87t75.5 55.5t100.5 19.5q85 0 135.5 -43.5t66.5 -122.5l-56 -14q-6 28 -17 52t-28 41t-42.5 27t-60.5 10q-47 0 -80 -17t-55 -46.5t-32 -70.5t-10 -89t10 -89t31 -71
t54.5 -47t80.5 -17q75 0 109.5 36.5t46.5 97.5h58zM321 592h-57l-112 134h59l82 -90l82 90h59z" />
    <glyph glyph-name="Dcaron" unicode="&#x10e;" horiz-adv-x="702" 
d="M82 714h241q75 0 135 -21.5t101.5 -65t64 -109.5t22.5 -156q0 -91 -24 -159t-69 -113t-109 -67.5t-143 -22.5h-219v714zM305 54q143 0 210 79.5t67 226.5q0 145 -62.5 223t-196.5 78h-180v-607h162zM159 906h62l80 -84l80 84h60l-112 -129h-57z" />
    <glyph glyph-name="dcaron" unicode="&#x10f;" horiz-adv-x="581" 
d="M453 77q-33 -43 -75.5 -68t-103.5 -25q-57 0 -98.5 22t-68.5 59t-40 85.5t-13 101.5q0 132 61.5 205.5t169.5 73.5q42 0 86 -18t82 -68v269h58v-714h-58v77zM456 278q0 35 -4 60.5t-12 45t-21.5 34.5t-31.5 29q-24 18 -47.5 26t-53.5 8q-37 0 -68 -12.5t-53.5 -39.5
t-35.5 -70t-13 -105q0 -63 14.5 -105.5t37.5 -68t51.5 -36t57.5 -10.5q31 0 55.5 7t50.5 26q35 26 54 66t19 100v45zM601 714h61l-38 -182h-48z" />
    <glyph glyph-name="Dcroat" unicode="&#x110;" horiz-adv-x="712" 
d="M92 342h-82v54h82v318h241q75 0 135 -21.5t101.5 -65t64 -109.5t22.5 -156q0 -91 -24 -159t-69 -113t-109 -67.5t-143 -22.5h-219v342zM315 54q143 0 210 79.5t67 226.5q0 145 -62.5 223t-196.5 78h-180v-265h199v-54h-199v-288h162z" />
    <glyph glyph-name="dcroat" unicode="&#x111;" 
d="M453 77q-33 -43 -75.5 -68t-103.5 -25q-57 0 -98.5 22t-68.5 58t-40 82.5t-13 95.5q0 61 16 110.5t46 85t72.5 54.5t96.5 19q42 0 86 -18t82 -68v162h-175v50h175v77h58v-77h71v-50h-71v-587h-58v77zM456 258q0 34 -4 60t-12 45.5t-21.5 34.5t-31.5 29q-24 17 -47.5 25.5
t-53.5 8.5q-37 0 -68 -12.5t-53.5 -39t-35.5 -67.5t-13 -99q0 -59 14.5 -98.5t37.5 -64.5t51.5 -35.5t57.5 -10.5q31 0 55.5 7t50.5 26q35 26 54 64t19 92v35z" />
    <glyph glyph-name="Emacron" unicode="&#x112;" horiz-adv-x="588" 
d="M82 714h449v-55h-388v-262h368v-57h-368v-284h405l-14 -56h-452v714zM168 851h282v-53h-282v53z" />
    <glyph glyph-name="emacron" unicode="&#x113;" horiz-adv-x="560" 
d="M500 135q-12 -67 -64 -109t-148 -42q-111 0 -172.5 71.5t-61.5 196.5q0 68 17.5 120t49 87.5t74 53.5t93.5 18q60 0 102 -19.5t68.5 -53t38.5 -79.5t12 -99v-37h-396q0 -44 11 -82.5t33 -67t55 -45t76 -16.5q39 0 66 7.5t45 21.5t28.5 32.5t16.5 41.5h56zM449 293
q0 42 -9 77t-28 60.5t-50 39.5t-74 14q-75 0 -120 -47t-54 -144h335zM167 678h244v-51h-244v51z" />
    <glyph glyph-name="Ebreve" unicode="&#x114;" horiz-adv-x="588" 
d="M82 714h449v-55h-388v-262h368v-57h-368v-284h405l-14 -56h-452v714zM232 903q0 -42 21.5 -63.5t55.5 -21.5q33 0 55 21.5t22 63.5h49q0 -62 -33 -95.5t-93 -33.5t-93 33.5t-33 95.5h49z" />
    <glyph glyph-name="ebreve" unicode="&#x115;" horiz-adv-x="560" 
d="M500 135q-12 -67 -64 -109t-148 -42q-111 0 -172.5 71.5t-61.5 196.5q0 68 17.5 120t49 87.5t74 53.5t93.5 18q60 0 102 -19.5t68.5 -53t38.5 -79.5t12 -99v-37h-396q0 -44 11 -82.5t33 -67t55 -45t76 -16.5q39 0 66 7.5t45 21.5t28.5 32.5t16.5 41.5h56zM449 293
q0 42 -9 77t-28 60.5t-50 39.5t-74 14q-75 0 -120 -47t-54 -144h335zM210 720q0 -44 22 -66t56 -22q33 0 55.5 22t22.5 66h48q0 -62 -33 -96.5t-93 -34.5t-93 34.5t-33 96.5h48z" />
    <glyph glyph-name="Edotaccent" unicode="&#x116;" horiz-adv-x="588" 
d="M82 714h449v-55h-388v-262h368v-57h-368v-284h405l-14 -56h-452v714zM275 883h68v-89h-68v89z" />
    <glyph glyph-name="edotaccent" unicode="&#x117;" horiz-adv-x="560" 
d="M500 135q-12 -67 -64 -109t-148 -42q-111 0 -172.5 71.5t-61.5 196.5q0 68 17.5 120t49 87.5t74 53.5t93.5 18q60 0 102 -19.5t68.5 -53t38.5 -79.5t12 -99v-37h-396q0 -44 11 -82.5t33 -67t55 -45t76 -16.5q39 0 66 7.5t45 21.5t28.5 32.5t16.5 41.5h56zM449 293
q0 42 -9 77t-28 60.5t-50 39.5t-74 14q-75 0 -120 -47t-54 -144h335zM256 705h66v-87h-66v87z" />
    <glyph glyph-name="Eogonek" unicode="&#x118;" horiz-adv-x="588" 
d="M82 714h449v-55h-388v-262h368v-57h-368v-284h405l-14 -56q-64 -51 -64 -90q0 -23 13.5 -30.5t35.5 -7.5h8t12 1v-48q-8 -2 -15 -2h-12q-52 0 -76 20t-24 58q0 48 61 99h-391v714z" />
    <glyph glyph-name="eogonek" unicode="&#x119;" horiz-adv-x="560" 
d="M393 -170q-8 -2 -15 -2h-12q-98 0 -98 75q0 41 42 82q-5 -1 -10.5 -1h-11.5q-111 0 -172.5 71.5t-61.5 196.5q0 68 17.5 120t49 87.5t74 53.5t93.5 18q60 0 102 -19.5t68.5 -53t38.5 -79.5t12 -99v-37h-396q0 -44 11 -82.5t33 -67t55 -45t76 -16.5q39 0 66 7.5t45 21.5
t28.5 32.5t16.5 41.5h56q-9 -48 -37 -83t-78 -52q-60 -48 -60 -88q0 -23 13.5 -30t34.5 -7h8t12 1v-46zM449 293q0 42 -9 77t-28 60.5t-50 39.5t-74 14q-75 0 -120 -47t-54 -144h335z" />
    <glyph glyph-name="Ecaron" unicode="&#x11a;" horiz-adv-x="588" 
d="M82 714h449v-55h-388v-262h368v-57h-368v-284h405l-14 -56h-452v714zM168 906h62l80 -84l80 84h60l-112 -129h-57z" />
    <glyph glyph-name="ecaron" unicode="&#x11b;" horiz-adv-x="560" 
d="M500 135q-12 -67 -64 -109t-148 -42q-111 0 -172.5 71.5t-61.5 196.5q0 68 17.5 120t49 87.5t74 53.5t93.5 18q60 0 102 -19.5t68.5 -53t38.5 -79.5t12 -99v-37h-396q0 -44 11 -82.5t33 -67t55 -45t76 -16.5q39 0 66 7.5t45 21.5t28.5 32.5t16.5 41.5h56zM449 293
q0 42 -9 77t-28 60.5t-50 39.5t-74 14q-75 0 -120 -47t-54 -144h335zM317 592h-57l-112 134h59l82 -90l82 90h59z" />
    <glyph glyph-name="Gcircumflex" unicode="&#x11c;" horiz-adv-x="711" 
d="M387 353h262v-276q-26 -25 -58.5 -43t-67 -29.5t-70.5 -17t-70 -5.5q-76 0 -136.5 24.5t-103 72t-65 117t-22.5 159.5q0 92 24.5 162.5t67 118t100.5 72t125 24.5q112 0 174.5 -51.5t86.5 -143.5l-57 -13q-10 34 -25.5 62.5t-39.5 49t-58 32t-81 11.5q-62 0 -109.5 -24
t-79.5 -67t-48.5 -102t-16.5 -129q0 -71 16 -129.5t49 -101.5t82.5 -66.5t116.5 -23.5q57 0 111.5 15.5t96.5 47.5v199h-204v55zM345 903h57l112 -129h-61l-80 83l-80 -83h-61z" />
    <glyph glyph-name="gcircumflex" unicode="&#x11d;" horiz-adv-x="580" 
d="M126 -56q11 -51 48 -75.5t113 -24.5q85 0 125 41.5t40 139.5v77q-32 -45 -75.5 -69.5t-103.5 -24.5q-57 0 -99 21.5t-69 57.5t-40 82.5t-13 96.5q0 60 16 109t46 83.5t73 53.5t97 19q43 0 87 -18.5t81 -67.5v70h58v-496q0 -104 -53.5 -164t-168.5 -60q-44 0 -81.5 8
t-66 25.5t-46.5 46t-23 69.5h55zM454 278q0 35 -3.5 60.5t-12 45t-21.5 34.5t-31 29q-25 18 -48 26t-53 8q-37 0 -68 -12t-54 -38t-36 -66.5t-13 -97.5q0 -58 14.5 -97.5t37.5 -64t52 -35.5t59 -11q33 0 56 7t49 25q35 26 53.5 66.5t18.5 101.5v19zM267 724h57l112 -134h-59
l-82 90l-82 -90h-59z" />
    <glyph glyph-name="Gbreve" unicode="&#x11e;" horiz-adv-x="711" 
d="M387 353h262v-276q-26 -25 -58.5 -43t-67 -29.5t-70.5 -17t-70 -5.5q-76 0 -136.5 24.5t-103 72t-65 117t-22.5 159.5q0 92 24.5 162.5t67 118t100.5 72t125 24.5q112 0 174.5 -51.5t86.5 -143.5l-57 -13q-10 34 -25.5 62.5t-39.5 49t-58 32t-81 11.5q-62 0 -109.5 -24
t-79.5 -67t-48.5 -102t-16.5 -129q0 -71 16 -129.5t49 -101.5t82.5 -66.5t116.5 -23.5q57 0 111.5 15.5t96.5 47.5v199h-204v55zM296 903q0 -42 21.5 -63.5t55.5 -21.5q33 0 55 21.5t22 63.5h49q0 -62 -33 -95.5t-93 -33.5t-93 33.5t-33 95.5h49z" />
    <glyph glyph-name="gbreve" unicode="&#x11f;" horiz-adv-x="580" 
d="M126 -56q11 -51 48 -75.5t113 -24.5q85 0 125 41.5t40 139.5v77q-32 -45 -75.5 -69.5t-103.5 -24.5q-57 0 -99 21.5t-69 57.5t-40 82.5t-13 96.5q0 60 16 109t46 83.5t73 53.5t97 19q43 0 87 -18.5t81 -67.5v70h58v-496q0 -104 -53.5 -164t-168.5 -60q-44 0 -81.5 8
t-66 25.5t-46.5 46t-23 69.5h55zM454 278q0 35 -3.5 60.5t-12 45t-21.5 34.5t-31 29q-25 18 -48 26t-53 8q-37 0 -68 -12t-54 -38t-36 -66.5t-13 -97.5q0 -58 14.5 -97.5t37.5 -64t52 -35.5t59 -11q33 0 56 7t49 25q35 26 53.5 66.5t18.5 101.5v19zM217 720q0 -44 22 -66
t56 -22q33 0 55.5 22t22.5 66h48q0 -62 -33 -96.5t-93 -34.5t-93 34.5t-33 96.5h48z" />
    <glyph glyph-name="Gdotaccent" unicode="&#x120;" horiz-adv-x="711" 
d="M387 353h262v-276q-26 -25 -58.5 -43t-67 -29.5t-70.5 -17t-70 -5.5q-76 0 -136.5 24.5t-103 72t-65 117t-22.5 159.5q0 92 24.5 162.5t67 118t100.5 72t125 24.5q112 0 174.5 -51.5t86.5 -143.5l-57 -13q-10 34 -25.5 62.5t-39.5 49t-58 32t-81 11.5q-62 0 -109.5 -24
t-79.5 -67t-48.5 -102t-16.5 -129q0 -71 16 -129.5t49 -101.5t82.5 -66.5t116.5 -23.5q57 0 111.5 15.5t96.5 47.5v199h-204v55zM339 883h68v-89h-68v89z" />
    <glyph glyph-name="gdotaccent" unicode="&#x121;" horiz-adv-x="580" 
d="M126 -56q11 -51 48 -75.5t113 -24.5q85 0 125 41.5t40 139.5v77q-32 -45 -75.5 -69.5t-103.5 -24.5q-57 0 -99 21.5t-69 57.5t-40 82.5t-13 96.5q0 60 16 109t46 83.5t73 53.5t97 19q43 0 87 -18.5t81 -67.5v70h58v-496q0 -104 -53.5 -164t-168.5 -60q-44 0 -81.5 8
t-66 25.5t-46.5 46t-23 69.5h55zM454 278q0 35 -3.5 60.5t-12 45t-21.5 34.5t-31 29q-25 18 -48 26t-53 8q-37 0 -68 -12t-54 -38t-36 -66.5t-13 -97.5q0 -58 14.5 -97.5t37.5 -64t52 -35.5t59 -11q33 0 56 7t49 25q35 26 53.5 66.5t18.5 101.5v19zM260 705h66v-87h-66v87z
" />
    <glyph glyph-name="Gcommaaccent" unicode="&#x122;" horiz-adv-x="711" 
d="M387 353h262v-276q-26 -25 -58.5 -43t-67 -29.5t-70.5 -17t-70 -5.5q-76 0 -136.5 24.5t-103 72t-65 117t-22.5 159.5q0 92 24.5 162.5t67 118t100.5 72t125 24.5q112 0 174.5 -51.5t86.5 -143.5l-57 -13q-10 34 -25.5 62.5t-39.5 49t-58 32t-81 11.5q-62 0 -109.5 -24
t-79.5 -67t-48.5 -102t-16.5 -129q0 -71 16 -129.5t49 -101.5t82.5 -66.5t116.5 -23.5q57 0 111.5 15.5t96.5 47.5v199h-204v55zM357 -68h74l-89 -144h-59z" />
    <glyph glyph-name="gcommaaccent" unicode="&#x123;" horiz-adv-x="580" 
d="M126 -56q11 -51 48 -75.5t113 -24.5q85 0 125 41.5t40 139.5v77q-32 -45 -75.5 -69.5t-103.5 -24.5q-57 0 -99 21.5t-69 57.5t-40 82.5t-13 96.5q0 60 16 109t46 83.5t73 53.5t97 19q43 0 87 -18.5t81 -67.5v70h58v-496q0 -104 -53.5 -164t-168.5 -60q-44 0 -81.5 8
t-66 25.5t-46.5 46t-23 69.5h55zM454 278q0 35 -3.5 60.5t-12 45t-21.5 34.5t-31 29q-25 18 -48 26t-53 8q-37 0 -68 -12t-54 -38t-36 -66.5t-13 -97.5q0 -58 14.5 -97.5t37.5 -64t52 -35.5t59 -11q33 0 56 7t49 25q35 26 53.5 66.5t18.5 101.5v19zM334 724h57l-72 -140h-72
z" />
    <glyph glyph-name="Hcircumflex" unicode="&#x124;" horiz-adv-x="689" 
d="M82 714h61v-316h403v316h61v-714h-61v341h-403v-341h-61v714zM317 903h57l112 -129h-61l-80 83l-80 -83h-61z" />
    <glyph glyph-name="hcircumflex" unicode="&#x125;" horiz-adv-x="558" 
d="M70 714h58v-283q42 53 89.5 76.5t101.5 23.5q88 0 130 -49t42 -139v-343h-58v327q0 81 -29 116.5t-92 35.5q-30 0 -63.5 -11.5t-60.5 -36.5q-30 -26 -45 -53.5t-15 -75.5v-302h-58v714zM183 903h57l112 -129h-61l-80 83l-80 -83h-61z" />
    <glyph glyph-name="Hbar" unicode="&#x126;" horiz-adv-x="709" 
d="M92 529h-82v53h82v132h61v-132h403v132h61v-132h82v-53h-82v-529h-61v333h-403v-333h-61v529zM556 390v139h-403v-139h403z" />
    <glyph glyph-name="hbar" unicode="&#x127;" horiz-adv-x="569" 
d="M81 587h-71v50h71v77h58v-77h176v-50h-176v-176q42 53 90 76.5t101 23.5q88 0 130 -49.5t42 -138.5v-323h-58v307q0 81 -29 116.5t-92 35.5q-30 0 -63.5 -12t-60.5 -36q-29 -26 -44.5 -54t-15.5 -75v-282h-58v587z" />
    <glyph glyph-name="Itilde" unicode="&#x128;" horiz-adv-x="225" 
d="M82 714h61v-714h-61v714zM-57 782q0 49 25 77t70 28q27 0 46.5 -9t35.5 -20t31.5 -20t35.5 -9q29 0 39 17t10 40h48q0 -50 -25 -77.5t-70 -27.5q-27 0 -46.5 9t-35.5 19.5t-32 19.5t-35 9q-29 0 -39 -16.5t-10 -39.5h-48z" />
    <glyph glyph-name="itilde" unicode="&#x129;" horiz-adv-x="204" 
d="M73 515h58v-515h-58v515zM-64 606q0 49 25 76.5t68 27.5q27 0 46 -9t35 -19.5t31.5 -19.5t34.5 -9q28 0 37.5 16.5t9.5 38.5h48q0 -49 -25 -76.5t-68 -27.5q-27 0 -46 9t-35 19.5t-31.5 19.5t-34.5 9q-28 0 -37.5 -16.5t-9.5 -38.5h-48z" />
    <glyph glyph-name="Imacron" unicode="&#x12a;" horiz-adv-x="225" 
d="M82 714h61v-714h-61v714zM-28 851h282v-53h-282v53z" />
    <glyph glyph-name="imacron" unicode="&#x12b;" horiz-adv-x="204" 
d="M73 515h58v-515h-58v515zM-19 678h244v-51h-244v51z" />
    <glyph glyph-name="Ibreve" unicode="&#x12c;" horiz-adv-x="225" 
d="M82 714h61v-714h-61v714zM36 903q0 -42 21.5 -63.5t55.5 -21.5q33 0 55 21.5t22 63.5h49q0 -62 -33 -95.5t-93 -33.5t-93 33.5t-33 95.5h49z" />
    <glyph glyph-name="ibreve" unicode="&#x12d;" horiz-adv-x="204" 
d="M73 515h58v-515h-58v515zM25 720q0 -44 22 -66t56 -22q33 0 55.5 22t22.5 66h48q0 -62 -33 -96.5t-93 -34.5t-93 34.5t-33 96.5h48z" />
    <glyph glyph-name="Iogonek" unicode="&#x12e;" horiz-adv-x="225" 
d="M148 -175q-8 -2 -15 -2h-12q-52 0 -76 20t-24 58q0 48 61 99v714h61v-714q-64 -51 -64 -90q0 -23 13.5 -30.5t35.5 -7.5h8t12 1v-48z" />
    <glyph glyph-name="iogonek" unicode="&#x12f;" horiz-adv-x="204" 
d="M138 -170q-8 -2 -15 -2h-12q-98 0 -98 75q0 24 15 49t46 48h-1v515h58v-515q-61 -48 -61 -88q0 -23 13.5 -30t34.5 -7h8t12 1v-46zM69 714h66v-87h-66v87z" />
    <glyph glyph-name="Idotaccent" unicode="&#x130;" horiz-adv-x="225" 
d="M82 714h61v-714h-61v714zM79 883h68v-89h-68v89z" />
    <glyph glyph-name="dotlessi" unicode="&#x131;" horiz-adv-x="204" 
d="M73 515h58v-515h-58v515z" />
    <glyph glyph-name="IJ" unicode="&#x132;" horiz-adv-x="801" 
d="M82 714h61v-714h-61v714zM312 197q5 -34 16.5 -63.5t32 -51t52.5 -34t79 -12.5q96 0 133.5 52t37.5 148v478h61v-484q0 -125 -60.5 -186.5t-169.5 -61.5q-101 0 -165.5 52t-78.5 163h62z" />
    <glyph glyph-name="ij" unicode="&#x133;" horiz-adv-x="408" 
d="M73 515h58v-515h-58v515zM69 714h66v-87h-66v87zM133 -122q14 -5 31 -8.5t42 -3.5q41 0 56 25t15 66v558h58v-523q0 -35 -3.5 -67t-16 -56.5t-37 -39.5t-67.5 -15q-34 0 -54.5 4.5t-35.5 10.5zM273 714h66v-87h-66v87z" />
    <glyph glyph-name="Jcircumflex" unicode="&#x134;" horiz-adv-x="576" 
d="M87 197q5 -34 16.5 -63.5t32 -51t52.5 -34t79 -12.5q96 0 133.5 52t37.5 148v478h61v-484q0 -125 -60.5 -186.5t-169.5 -61.5q-101 0 -165.5 52t-78.5 163h62zM439 903h57l112 -129h-61l-80 83l-80 -83h-61z" />
    <glyph glyph-name="jcircumflex" unicode="&#x135;" horiz-adv-x="204" 
d="M-71 -122q14 -5 31 -8.5t42 -3.5q41 0 56 25t15 66v558h58v-523q0 -35 -3.5 -67t-16 -56.5t-37 -39.5t-67.5 -15q-34 0 -54.5 4.5t-35.5 10.5zM75 724h57l112 -134h-59l-82 90l-82 -90h-59z" />
    <glyph glyph-name="Kcommaaccent" unicode="&#x136;" horiz-adv-x="636" 
d="M82 714h61v-373l375 373h73l-265 -267l292 -447h-74l-264 407l-137 -135v-272h-61v714zM308 -68h74l-89 -144h-59z" />
    <glyph glyph-name="kcommaaccent" unicode="&#x137;" horiz-adv-x="493" 
d="M70 714h58v-439l265 240h72l-182 -170l205 -345h-70l-180 309l-110 -99v-210h-58v714zM236 -68h72l-87 -140h-57z" />
    <glyph glyph-name="kgreenlandic" unicode="&#x138;" horiz-adv-x="493" 
d="M70 515h58v-268l266 268h70l-181 -187l205 -328h-70l-180 290l-110 -109v-181h-58v515z" />
    <glyph glyph-name="Lacute" unicode="&#x139;" horiz-adv-x="550" 
d="M82 714h61v-657h388l-13 -57h-436v714zM184 903h79l-127 -129h-63z" />
    <glyph glyph-name="lacute" unicode="&#x13a;" horiz-adv-x="204" 
d="M73 714h58v-714h-58v714zM174 903h79l-127 -129h-63z" />
    <glyph glyph-name="Lcommaaccent" unicode="&#x13b;" horiz-adv-x="550" 
d="M82 714h61v-657h388l-13 -57h-436v714zM273 -68h74l-89 -144h-59z" />
    <glyph glyph-name="lcommaaccent" unicode="&#x13c;" horiz-adv-x="204" 
d="M73 714h58v-714h-58v714zM67 -68h72l-87 -140h-57z" />
    <glyph glyph-name="Lcaron" unicode="&#x13d;" horiz-adv-x="550" 
d="M82 714h61v-657h388l-13 -57h-436v714zM348.548 715.691h64.0498l-39.9004 -191.098h-50.3994z" />
    <glyph glyph-name="lcaron" unicode="&#x13e;" horiz-adv-x="204" 
d="M73 714h58v-714h-58v714zM220 714h61l-38 -182h-48z" />
    <glyph glyph-name="Ldot" unicode="&#x13f;" horiz-adv-x="550" 
d="M82 714h61v-657h388l-13 -57h-436v714zM339 440h75v-93h-75v93z" />
    <glyph glyph-name="ldot" unicode="&#x140;" horiz-adv-x="291" 
d="M73 714h58v-714h-58v714zM207 420h75v-93h-75v93z" />
    <glyph glyph-name="Lslash" unicode="&#x141;" horiz-adv-x="560" 
d="M92 259l-82 -59v62l82 59v393h61v-349l220 158v-62l-220 -158v-246h388l-13 -57h-436v259z" />
    <glyph glyph-name="lslash" unicode="&#x142;" horiz-adv-x="250" 
d="M96 341l-91 -69v56l91 69v317h58v-277l91 70v-57l-91 -69v-381h-58v341z" />
    <glyph glyph-name="Nacute" unicode="&#x143;" horiz-adv-x="690" 
d="M82 714h67l400 -618v618h59v-714h-66l-401 620v-620h-59v714zM401 903h79l-127 -129h-63z" />
    <glyph glyph-name="nacute" unicode="&#x144;" horiz-adv-x="558" 
d="M70 515h58v-84q42 53 89.5 76.5t101.5 23.5q88 0 130 -49t42 -139v-343h-58v327q0 81 -29 116.5t-92 35.5q-30 0 -63.5 -11.5t-60.5 -36.5q-30 -26 -45 -53.5t-15 -75.5v-302h-58v515zM315 724h78l-127 -134h-62z" />
    <glyph glyph-name="Ncommaaccent" unicode="&#x145;" horiz-adv-x="690" 
d="M82 714h67l400 -618v618h59v-714h-66l-401 620v-620h-59v714zM315 -68h74l-89 -144h-59z" />
    <glyph glyph-name="ncommaaccent" unicode="&#x146;" horiz-adv-x="558" 
d="M70 515h58v-84q42 53 89.5 76.5t101.5 23.5q88 0 130 -49t42 -139v-343h-58v327q0 81 -29 116.5t-92 35.5q-30 0 -63.5 -11.5t-60.5 -36.5q-30 -26 -45 -53.5t-15 -75.5v-302h-58v515zM250 -68h72l-87 -140h-57z" />
    <glyph glyph-name="Ncaron" unicode="&#x147;" horiz-adv-x="690" 
d="M82 714h67l400 -618v618h59v-714h-66l-401 620v-620h-59v714zM213 906h62l80 -84l80 84h60l-112 -129h-57z" />
    <glyph glyph-name="ncaron" unicode="&#x148;" horiz-adv-x="558" 
d="M70 515h58v-84q42 53 89.5 76.5t101.5 23.5q88 0 130 -49t42 -139v-343h-58v327q0 81 -29 116.5t-92 35.5q-30 0 -63.5 -11.5t-60.5 -36.5q-30 -26 -45 -53.5t-15 -75.5v-302h-58v515zM316 592h-57l-112 134h59l82 -90l82 90h59z" />
    <glyph glyph-name="napostrophe" unicode="&#x149;" horiz-adv-x="589" 
d="M101 515h58v-84q42 53 89.5 76.5t101.5 23.5q88 0 130 -49t42 -139v-343h-58v327q0 81 -29 116.5t-92 35.5q-30 0 -63.5 -11.5t-60.5 -36.5q-30 -26 -45 -53.5t-15 -75.5v-302h-58v515zM26 714h67l-47 -186h-45z" />
    <glyph glyph-name="Eng" unicode="&#x14a;" horiz-adv-x="690" 
d="M261 -124q23 -11 53.5 -18.5t76.5 -7.5q85 0 119.5 37.5t34.5 108.5l-404 624v-620h-59v714h67l400 -618v618h59v-714q0 -107 -56.5 -156t-158.5 -49q-45 0 -80.5 5t-70.5 22z" />
    <glyph glyph-name="eng" unicode="&#x14b;" horiz-adv-x="558" 
d="M70 515h58v-84q42 53 89.5 76.5t101.5 23.5q88 0 130 -49t42 -139v-351q0 -35 -3 -67t-15.5 -56.5t-37 -39.5t-67.5 -15q-35 0 -55 4.5t-35 10.5l12 49q14 -5 30.5 -8.5t42.5 -3.5q41 0 55.5 24.5t14.5 66.5v370q0 81 -29 116.5t-92 35.5q-30 0 -63.5 -11.5t-60.5 -36.5
q-30 -26 -45 -53.5t-15 -75.5v-302h-58v515z" />
    <glyph glyph-name="Omacron" unicode="&#x14c;" horiz-adv-x="756" 
d="M379 -18q-69 0 -128.5 23.5t-102.5 70.5t-67.5 117t-24.5 162t24.5 162.5t68 118t102.5 72t128 24.5t128 -23.5t101.5 -70.5t67 -116.5t24.5 -161.5q0 -93 -24 -163.5t-66.5 -118t-101.5 -72t-129 -24.5zM379 36q63 0 111 23.5t80.5 66t49 101.5t16.5 130t-17 130
t-49.5 101.5t-80.5 66t-110 23.5q-65 0 -113.5 -23.5t-80.5 -66t-48.5 -101.5t-16.5 -130t16 -130t48.5 -101.5t81 -66t113.5 -23.5zM237 851h282v-53h-282v53z" />
    <glyph glyph-name="omacron" unicode="&#x14d;" horiz-adv-x="593" 
d="M296 34q49 0 83 17.5t56 47.5t32 71t10 89q0 46 -10 86.5t-32 70.5t-56 47.5t-83 17.5q-48 0 -82.5 -17.5t-56 -47.5t-31.5 -70.5t-10 -87.5t10 -88t31.5 -71t56 -47.5t82.5 -17.5zM294 -16q-57 0 -101.5 19t-75 54.5t-47 85.5t-16.5 112q0 63 17.5 114t49 87t76.5 55.5
t101 19.5t101 -19t76 -54.5t47.5 -85.5t16.5 -111q0 -63 -17 -114t-48.5 -87.5t-77 -56t-102.5 -19.5zM174 678h244v-51h-244v51z" />
    <glyph glyph-name="Obreve" unicode="&#x14e;" horiz-adv-x="756" 
d="M379 -18q-69 0 -128.5 23.5t-102.5 70.5t-67.5 117t-24.5 162t24.5 162.5t68 118t102.5 72t128 24.5t128 -23.5t101.5 -70.5t67 -116.5t24.5 -161.5q0 -93 -24 -163.5t-66.5 -118t-101.5 -72t-129 -24.5zM379 36q63 0 111 23.5t80.5 66t49 101.5t16.5 130t-17 130
t-49.5 101.5t-80.5 66t-110 23.5q-65 0 -113.5 -23.5t-80.5 -66t-48.5 -101.5t-16.5 -130t16 -130t48.5 -101.5t81 -66t113.5 -23.5zM301 903q0 -42 21.5 -63.5t55.5 -21.5q33 0 55 21.5t22 63.5h49q0 -62 -33 -95.5t-93 -33.5t-93 33.5t-33 95.5h49z" />
    <glyph glyph-name="obreve" unicode="&#x14f;" horiz-adv-x="593" 
d="M296 34q49 0 83 17.5t56 47.5t32 71t10 89q0 46 -10 86.5t-32 70.5t-56 47.5t-83 17.5q-48 0 -82.5 -17.5t-56 -47.5t-31.5 -70.5t-10 -87.5t10 -88t31.5 -71t56 -47.5t82.5 -17.5zM294 -16q-57 0 -101.5 19t-75 54.5t-47 85.5t-16.5 112q0 63 17.5 114t49 87t76.5 55.5
t101 19.5t101 -19t76 -54.5t47.5 -85.5t16.5 -111q0 -63 -17 -114t-48.5 -87.5t-77 -56t-102.5 -19.5zM218 720q0 -44 22 -66t56 -22q33 0 55.5 22t22.5 66h48q0 -62 -33 -96.5t-93 -34.5t-93 34.5t-33 96.5h48z" />
    <glyph glyph-name="Ohungarumlaut" unicode="&#x150;" horiz-adv-x="756" 
d="M379 -18q-69 0 -128.5 23.5t-102.5 70.5t-67.5 117t-24.5 162t24.5 162.5t68 118t102.5 72t128 24.5t128 -23.5t101.5 -70.5t67 -116.5t24.5 -161.5q0 -93 -24 -163.5t-66.5 -118t-101.5 -72t-129 -24.5zM379 36q63 0 111 23.5t80.5 66t49 101.5t16.5 130t-17 130
t-49.5 101.5t-80.5 66t-110 23.5q-65 0 -113.5 -23.5t-80.5 -66t-48.5 -101.5t-16.5 -130t16 -130t48.5 -101.5t81 -66t113.5 -23.5zM366 903h73l-119 -129h-57zM527 903h73l-120 -129h-56z" />
    <glyph glyph-name="ohungarumlaut" unicode="&#x151;" horiz-adv-x="593" 
d="M296 34q49 0 83 17.5t56 47.5t32 71t10 89q0 46 -10 86.5t-32 70.5t-56 47.5t-83 17.5q-48 0 -82.5 -17.5t-56 -47.5t-31.5 -70.5t-10 -87.5t10 -88t31.5 -71t56 -47.5t82.5 -17.5zM294 -16q-57 0 -101.5 19t-75 54.5t-47 85.5t-16.5 112q0 63 17.5 114t49 87t76.5 55.5
t101 19.5t101 -19t76 -54.5t47.5 -85.5t16.5 -111q0 -63 -17 -114t-48.5 -87.5t-77 -56t-102.5 -19.5zM282 724h76l-119 -134h-60zM443 724h76l-120 -134h-59z" />
    <glyph glyph-name="OE" unicode="&#x152;" horiz-adv-x="1083" 
d="M605 128q-43 -72 -100.5 -109t-141.5 -37q-63 0 -119 23.5t-97.5 70.5t-66 117t-24.5 162t24.5 162.5t66.5 118t97.5 72t118.5 24.5q83 0 141 -34.5t101 -105.5v122h421v-55h-362v-262h342v-57h-342v-284h379l-14 -56h-424v128zM363 34q57 0 102 23.5t76 66.5t47.5 102.5
t16.5 130.5t-16.5 130.5t-48 102t-76 66.5t-101.5 24q-58 0 -103.5 -24t-76.5 -66.5t-47 -102t-16 -130.5t16 -130.5t47 -102.5t76 -66.5t104 -23.5z" />
    <glyph glyph-name="oe" unicode="&#x153;" horiz-adv-x="973" 
d="M913 135q-12 -67 -63.5 -109t-145.5 -42q-76 0 -126 36t-77 99q-30 -66 -82.5 -100.5t-127.5 -34.5q-56 0 -99.5 19t-74.5 54.5t-47 85.5t-16 112q0 63 17.5 114t49 87t76 55.5t98.5 19.5q72 0 125 -33.5t81 -96.5q29 64 82 97t121 33q58 0 99.5 -19.5t68 -53t38.5 -79.5
t12 -99v-37h-390q0 -44 11 -82.5t33 -67t54 -45t74 -16.5q37 0 63.5 7.5t44.5 21.5t28.5 32.5t16.5 41.5h56zM293 34q48 0 81.5 17.5t55 47.5t31.5 71t10 89q0 46 -10 86.5t-31.5 70.5t-55 47.5t-81.5 17.5q-47 0 -80.5 -17.5t-55 -47.5t-31.5 -70.5t-10 -87.5t10 -88
t31.5 -71t55 -47.5t80.5 -17.5zM862 293q0 42 -9 77t-28 60.5t-49 39.5t-72 14q-73 0 -117.5 -47t-53.5 -144h329z" />
    <glyph glyph-name="Racute" unicode="&#x154;" horiz-adv-x="621" 
d="M82 714h224q77 0 126.5 -17t78 -44t39 -62t10.5 -71q0 -68 -30.5 -116t-99.5 -73l154 -331h-71l-143 317q-17 -2 -35 -3.5t-38 -1.5h-155v-312h-60v714zM314 366q54 0 89.5 10.5t56.5 30.5t29.5 48t8.5 64q0 35 -9 61.5t-31.5 44.5t-60 27t-94.5 9h-161v-295h172z
M346 903h79l-127 -129h-63z" />
    <glyph glyph-name="racute" unicode="&#x155;" horiz-adv-x="337" 
d="M70 515h58v-84q31 44 71 68t85 24q11 0 20.5 -0.5t20.5 -2.5l-7 -55q-18 3 -33 3q-26 0 -53 -9.5t-51 -32.5q-23 -20 -38 -48.5t-15 -67.5v-310h-58v515zM251 724h78l-127 -134h-62z" />
    <glyph glyph-name="Rcommaaccent" unicode="&#x156;" horiz-adv-x="621" 
d="M82 714h224q77 0 126.5 -17t78 -44t39 -62t10.5 -71q0 -68 -30.5 -116t-99.5 -73l154 -331h-71l-143 317q-17 -2 -35 -3.5t-38 -1.5h-155v-312h-60v714zM314 366q54 0 89.5 10.5t56.5 30.5t29.5 48t8.5 64q0 35 -9 61.5t-31.5 44.5t-60 27t-94.5 9h-161v-295h172z
M290 -68h74l-89 -144h-59z" />
    <glyph glyph-name="rcommaaccent" unicode="&#x157;" horiz-adv-x="337" 
d="M70 515h58v-84q31 44 71 68t85 24q11 0 20.5 -0.5t20.5 -2.5l-7 -55q-18 3 -33 3q-26 0 -53 -9.5t-51 -32.5q-23 -20 -38 -48.5t-15 -67.5v-310h-58v515zM70 -68h72l-87 -140h-57z" />
    <glyph glyph-name="Rcaron" unicode="&#x158;" horiz-adv-x="621" 
d="M82 714h224q77 0 126.5 -17t78 -44t39 -62t10.5 -71q0 -68 -30.5 -116t-99.5 -73l154 -331h-71l-143 317q-17 -2 -35 -3.5t-38 -1.5h-155v-312h-60v714zM314 366q54 0 89.5 10.5t56.5 30.5t29.5 48t8.5 64q0 35 -9 61.5t-31.5 44.5t-60 27t-94.5 9h-161v-295h172z
M141 906h62l80 -84l80 84h60l-112 -129h-57z" />
    <glyph glyph-name="rcaron" unicode="&#x159;" horiz-adv-x="337" 
d="M70 515h58v-84q31 44 71 68t85 24q11 0 20.5 -0.5t20.5 -2.5l-7 -55q-18 3 -33 3q-26 0 -53 -9.5t-51 -32.5q-23 -20 -38 -48.5t-15 -67.5v-310h-58v515zM230 592h-57l-112 134h59l82 -90l82 90h59z" />
    <glyph glyph-name="Sacute" unicode="&#x15a;" horiz-adv-x="642" 
d="M105 187q16 -80 69 -115.5t158 -35.5q54 0 89.5 12t56.5 32t30 47t9 57q0 25 -5.5 47.5t-21 41t-44.5 32.5t-76 22l-89 15q-52 9 -92.5 23t-68.5 36.5t-42.5 56.5t-14.5 83t20.5 85t55 59.5t81 35t98.5 11.5q67 0 112 -14.5t74 -38.5t45 -54.5t25 -61.5l-56 -16
q-10 31 -23.5 55.5t-36 41.5t-56.5 26t-83 9q-55 0 -92 -10.5t-60 -29t-33 -44t-10 -54.5q0 -30 7 -52t24 -38t45.5 -27t71.5 -19l101 -18q54 -10 93.5 -26t65.5 -40.5t38.5 -58.5t12.5 -80q0 -41 -16 -77.5t-47.5 -63.5t-78.5 -43t-110 -16q-58 0 -107.5 11t-87 35.5
t-61.5 63.5t-30 95h60zM369 903h79l-127 -129h-63z" />
    <glyph glyph-name="sacute" unicode="&#x15b;" horiz-adv-x="514" 
d="M101 143q11 -60 51 -85t114 -25q75 0 106 28t31 70q0 18 -4 33.5t-15.5 28.5t-33 22t-55.5 15l-63 10q-41 7 -73.5 17t-55 26.5t-34 41t-11.5 60.5q0 34 15 61.5t41 46t61.5 28.5t76.5 10q53 0 88.5 -10.5t58 -28.5t35 -42t19.5 -51l-53 -11q-8 23 -18.5 40.5t-26.5 29
t-40 17.5t-60 6q-40 0 -67 -7.5t-43.5 -20.5t-23.5 -30t-7 -35t4 -32.5t16 -25.5t33.5 -19t56.5 -14l79 -13q81 -14 121 -48.5t40 -105.5q0 -30 -12.5 -57t-37 -46.5t-61.5 -31t-85 -11.5q-47 0 -86.5 9t-68.5 28t-47 49t-22 73h57zM312 724h78l-127 -134h-62z" />
    <glyph glyph-name="Scircumflex" unicode="&#x15c;" horiz-adv-x="642" 
d="M105 187q16 -80 69 -115.5t158 -35.5q54 0 89.5 12t56.5 32t30 47t9 57q0 25 -5.5 47.5t-21 41t-44.5 32.5t-76 22l-89 15q-52 9 -92.5 23t-68.5 36.5t-42.5 56.5t-14.5 83t20.5 85t55 59.5t81 35t98.5 11.5q67 0 112 -14.5t74 -38.5t45 -54.5t25 -61.5l-56 -16
q-10 31 -23.5 55.5t-36 41.5t-56.5 26t-83 9q-55 0 -92 -10.5t-60 -29t-33 -44t-10 -54.5q0 -30 7 -52t24 -38t45.5 -27t71.5 -19l101 -18q54 -10 93.5 -26t65.5 -40.5t38.5 -58.5t12.5 -80q0 -41 -16 -77.5t-47.5 -63.5t-78.5 -43t-110 -16q-58 0 -107.5 11t-87 35.5
t-61.5 63.5t-30 95h60zM293 903h57l112 -129h-61l-80 83l-80 -83h-61z" />
    <glyph glyph-name="scircumflex" unicode="&#x15d;" horiz-adv-x="514" 
d="M101 143q11 -60 51 -85t114 -25q75 0 106 28t31 70q0 18 -4 33.5t-15.5 28.5t-33 22t-55.5 15l-63 10q-41 7 -73.5 17t-55 26.5t-34 41t-11.5 60.5q0 34 15 61.5t41 46t61.5 28.5t76.5 10q53 0 88.5 -10.5t58 -28.5t35 -42t19.5 -51l-53 -11q-8 23 -18.5 40.5t-26.5 29
t-40 17.5t-60 6q-40 0 -67 -7.5t-43.5 -20.5t-23.5 -30t-7 -35t4 -32.5t16 -25.5t33.5 -19t56.5 -14l79 -13q81 -14 121 -48.5t40 -105.5q0 -30 -12.5 -57t-37 -46.5t-61.5 -31t-85 -11.5q-47 0 -86.5 9t-68.5 28t-47 49t-22 73h57zM229 724h57l112 -134h-59l-82 90l-82 -90
h-59z" />
    <glyph glyph-name="Scedilla" unicode="&#x15e;" horiz-adv-x="642" 
d="M223 -168q16 -2 28.5 -3t27.5 -1q67 0 67 40q0 20 -18 29t-63 9h-13l27 78q-48 4 -88.5 18t-71 38.5t-49.5 60.5t-25 86h60q16 -80 69 -115.5t158 -35.5q54 0 89.5 12t56.5 32t30 47t9 57q0 25 -5.5 47.5t-21 41t-44.5 32.5t-76 22l-89 15q-52 9 -92.5 23t-68.5 36.5
t-42.5 56.5t-14.5 83t20.5 85t55 59.5t81 35t98.5 11.5q67 0 112 -14.5t74 -38.5t45 -54.5t25 -61.5l-56 -16q-10 31 -23.5 55.5t-36 41.5t-56.5 26t-83 9q-55 0 -92 -10.5t-60 -29t-33 -44t-10 -54.5q0 -30 7 -52t24 -38t45.5 -27t71.5 -19l101 -18q54 -10 93.5 -26
t65.5 -40.5t38.5 -58.5t12.5 -80q0 -41 -16 -77.5t-47.5 -63.5t-78.5 -43t-110 -16h-5l-14 -38q54 -6 73 -28.5t19 -51.5q0 -23 -9 -39t-25.5 -25.5t-39.5 -13.5t-50 -4q-15 0 -28.5 1t-28.5 3v46z" />
    <glyph glyph-name="scedilla" unicode="&#x15f;" horiz-adv-x="514" 
d="M168 -154q15 -2 27.5 -3t26.5 -1q34 0 49.5 8.5t15.5 28.5q0 19 -17 27t-62 8h-12l25 72q-75 8 -123 45.5t-54 111.5h57q11 -60 51 -85t114 -25q75 0 106 28t31 70q0 18 -4 33.5t-15.5 28.5t-33 22t-55.5 15l-63 10q-41 7 -73.5 17t-55 26.5t-34 41t-11.5 60.5
q0 34 15 61.5t41 46t61.5 28.5t76.5 10q53 0 88.5 -10.5t58 -28.5t35 -42t19.5 -51l-53 -11q-8 23 -18.5 40.5t-26.5 29t-40 17.5t-60 6q-40 0 -67 -7.5t-43.5 -20.5t-23.5 -30t-7 -35t4 -32.5t16 -25.5t33.5 -19t56.5 -14l79 -13q81 -14 121 -48.5t40 -105.5
q0 -30 -12.5 -57t-37 -46.5t-61.5 -31t-85 -11.5h-2l-12 -33q52 -6 70.5 -27t18.5 -49q0 -45 -33 -61.5t-87 -16.5q-14 0 -27.5 1t-27.5 3v45z" />
    <glyph glyph-name="Scaron" unicode="&#x160;" horiz-adv-x="642" 
d="M105 187q16 -80 69 -115.5t158 -35.5q54 0 89.5 12t56.5 32t30 47t9 57q0 25 -5.5 47.5t-21 41t-44.5 32.5t-76 22l-89 15q-52 9 -92.5 23t-68.5 36.5t-42.5 56.5t-14.5 83t20.5 85t55 59.5t81 35t98.5 11.5q67 0 112 -14.5t74 -38.5t45 -54.5t25 -61.5l-56 -16
q-10 31 -23.5 55.5t-36 41.5t-56.5 26t-83 9q-55 0 -92 -10.5t-60 -29t-33 -44t-10 -54.5q0 -30 7 -52t24 -38t45.5 -27t71.5 -19l101 -18q54 -10 93.5 -26t65.5 -40.5t38.5 -58.5t12.5 -80q0 -41 -16 -77.5t-47.5 -63.5t-78.5 -43t-110 -16q-58 0 -107.5 11t-87 35.5
t-61.5 63.5t-30 95h60zM180 906h62l80 -84l80 84h60l-112 -129h-57z" />
    <glyph glyph-name="scaron" unicode="&#x161;" horiz-adv-x="514" 
d="M101 143q11 -60 51 -85t114 -25q75 0 106 28t31 70q0 18 -4 33.5t-15.5 28.5t-33 22t-55.5 15l-63 10q-41 7 -73.5 17t-55 26.5t-34 41t-11.5 60.5q0 34 15 61.5t41 46t61.5 28.5t76.5 10q53 0 88.5 -10.5t58 -28.5t35 -42t19.5 -51l-53 -11q-8 23 -18.5 40.5t-26.5 29
t-40 17.5t-60 6q-40 0 -67 -7.5t-43.5 -20.5t-23.5 -30t-7 -35t4 -32.5t16 -25.5t33.5 -19t56.5 -14l79 -13q81 -14 121 -48.5t40 -105.5q0 -30 -12.5 -57t-37 -46.5t-61.5 -31t-85 -11.5q-47 0 -86.5 9t-68.5 28t-47 49t-22 73h57zM287 592h-57l-112 134h59l82 -90l82 90
h59z" />
    <glyph glyph-name="uni0162" unicode="&#x162;" horiz-adv-x="590" 
d="M265 658h-248v56h556v-56h-247v-658h-7l-18 -49q52 -6 70.5 -27t18.5 -49q0 -45 -33 -61.5t-87 -16.5q-14 0 -27.5 1t-27.5 3v45q15 -2 27.5 -3t26.5 -1q34 0 49.5 8.5t15.5 28.5q0 19 -17 27t-62 8h-12l30 86h-8v658z" />
    <glyph glyph-name="uni0163" unicode="&#x163;" horiz-adv-x="330" 
d="M143 -154q15 -2 27.5 -3t26.5 -1q34 0 49.5 8.5t15.5 28.5q0 19 -17 27t-62 8h-12l26 77q-34 4 -53.5 20.5t-29.5 40.5t-12.5 53.5t-2.5 61.5v300h-80v48h80v142h58v-142h146v-48h-146v-337q0 -38 16 -64.5t56 -26.5q26 0 44 4t32 9l12 -47q-13 -5 -30.5 -9t-43.5 -6
l-14 -39q52 -6 70.5 -27t18.5 -49q0 -45 -33 -61.5t-87 -16.5q-14 0 -27.5 1t-27.5 3v45z" />
    <glyph glyph-name="Tcaron" unicode="&#x164;" horiz-adv-x="590" 
d="M265 658h-248v56h556v-56h-247v-658h-61v658zM154 906h62l80 -84l80 84h60l-112 -129h-57z" />
    <glyph glyph-name="tcaron" unicode="&#x165;" horiz-adv-x="330" 
d="M248 724h60l-37 -153h-48zM99 467h-80v48h80v142h58v-142h146v-48h-146v-337q0 -38 16 -64.5t56 -26.5q26 0 44 4t32 9l12 -47q-15 -6 -36.5 -11t-56.5 -5q-44 0 -69 15t-37.5 39.5t-15.5 56.5t-3 67v300z" />
    <glyph glyph-name="Tbar" unicode="&#x166;" horiz-adv-x="590" 
d="M265 330h-161v54h161v274h-248v56h556v-56h-247v-274h161v-54h-161v-330h-61v330z" />
    <glyph glyph-name="tbar" unicode="&#x167;" horiz-adv-x="330" 
d="M99 250h-80v51h80v166h-80v48h80v142h58v-142h146v-48h-146v-166h146v-51h-146v-120q0 -38 16 -64.5t56 -26.5q26 0 44 4t32 9l12 -47q-15 -6 -36.5 -11t-56.5 -5q-44 0 -69 15t-37.5 39.5t-15.5 56.5t-3 67v83z" />
    <glyph glyph-name="Utilde" unicode="&#x168;" horiz-adv-x="676" 
d="M77 714h61v-435q0 -121 47 -182t155 -61q55 0 92.5 15.5t61 46t34 76t10.5 105.5v435h61v-434q0 -79 -17.5 -135.5t-51 -92.5t-82 -53t-109.5 -17q-63 0 -111.5 17t-82 53.5t-51 94t-17.5 137.5v430zM173 782q0 49 25 77t70 28q27 0 46.5 -9t35.5 -20t31.5 -20t35.5 -9
q29 0 39 17t10 40h48q0 -50 -25 -77.5t-70 -27.5q-27 0 -46.5 9t-35.5 19.5t-32 19.5t-35 9q-29 0 -39 -16.5t-10 -39.5h-48z" />
    <glyph glyph-name="utilde" unicode="&#x169;" horiz-adv-x="547" 
d="M68 515h58v-327q0 -81 25.5 -116.5t87.5 -35.5q31 0 62 12t59 36q29 26 44 53.5t15 75.5v302h58v-515h-58v84q-81 -100 -187 -100q-88 0 -126 48t-38 140v343zM109 606q0 49 25 76.5t68 27.5q27 0 46 -9t35 -19.5t31.5 -19.5t34.5 -9q28 0 37.5 16.5t9.5 38.5h48
q0 -49 -25 -76.5t-68 -27.5q-27 0 -46 9t-35 19.5t-31.5 19.5t-34.5 9q-28 0 -37.5 -16.5t-9.5 -38.5h-48z" />
    <glyph glyph-name="Umacron" unicode="&#x16a;" horiz-adv-x="676" 
d="M77 714h61v-435q0 -121 47 -182t155 -61q55 0 92.5 15.5t61 46t34 76t10.5 105.5v435h61v-434q0 -79 -17.5 -135.5t-51 -92.5t-82 -53t-109.5 -17q-63 0 -111.5 17t-82 53.5t-51 94t-17.5 137.5v430zM197 851h282v-53h-282v53z" />
    <glyph glyph-name="umacron" unicode="&#x16b;" horiz-adv-x="547" 
d="M68 515h58v-327q0 -81 25.5 -116.5t87.5 -35.5q31 0 62 12t59 36q29 26 44 53.5t15 75.5v302h58v-515h-58v84q-81 -100 -187 -100q-88 0 -126 48t-38 140v343zM152 678h244v-51h-244v51z" />
    <glyph glyph-name="Ubreve" unicode="&#x16c;" horiz-adv-x="676" 
d="M77 714h61v-435q0 -121 47 -182t155 -61q55 0 92.5 15.5t61 46t34 76t10.5 105.5v435h61v-434q0 -79 -17.5 -135.5t-51 -92.5t-82 -53t-109.5 -17q-63 0 -111.5 17t-82 53.5t-51 94t-17.5 137.5v430zM261 903q0 -42 21.5 -63.5t55.5 -21.5q33 0 55 21.5t22 63.5h49
q0 -62 -33 -95.5t-93 -33.5t-93 33.5t-33 95.5h49z" />
    <glyph glyph-name="ubreve" unicode="&#x16d;" horiz-adv-x="547" 
d="M68 515h58v-327q0 -81 25.5 -116.5t87.5 -35.5q31 0 62 12t59 36q29 26 44 53.5t15 75.5v302h58v-515h-58v84q-81 -100 -187 -100q-88 0 -126 48t-38 140v343zM196 720q0 -44 22 -66t56 -22q33 0 55.5 22t22.5 66h48q0 -62 -33 -96.5t-93 -34.5t-93 34.5t-33 96.5h48z
" />
    <glyph glyph-name="Uring" unicode="&#x16e;" horiz-adv-x="676" 
d="M77 714h61v-435q0 -121 47 -182t155 -61q55 0 92.5 15.5t61 46t34 76t10.5 105.5v435h61v-434q0 -79 -17.5 -135.5t-51 -92.5t-82 -53t-109.5 -17q-63 0 -111.5 17t-82 53.5t-51 94t-17.5 137.5v430zM243 830q0 48 28.5 72t66.5 24q19 0 36 -6t30.5 -18t21.5 -30t8 -42
q0 -23 -8 -41t-21.5 -30t-30.5 -18t-36 -6q-38 0 -66.5 24t-28.5 71zM338 776q24 0 37.5 13t13.5 41q0 29 -13.5 42.5t-37.5 13.5q-23 0 -37 -13.5t-14 -42.5q0 -28 14 -41t37 -13z" />
    <glyph glyph-name="uring" unicode="&#x16f;" horiz-adv-x="547" 
d="M68 515h58v-327q0 -81 25.5 -116.5t87.5 -35.5q31 0 62 12t59 36q29 26 44 53.5t15 75.5v302h58v-515h-58v84q-81 -100 -187 -100q-88 0 -126 48t-38 140v343zM180 683q0 47 28 71t66 24q18 0 35.5 -6t30.5 -18t21 -30t8 -41q0 -24 -8 -41.5t-21 -29t-30.5 -17.5
t-35.5 -6q-38 0 -66 23.5t-28 70.5zM274 628q23 0 36.5 13.5t13.5 41.5t-13.5 41.5t-36.5 13.5t-36.5 -13.5t-13.5 -41.5t13.5 -41.5t36.5 -13.5z" />
    <glyph glyph-name="Uhungarumlaut" unicode="&#x170;" horiz-adv-x="676" 
d="M77 714h61v-435q0 -121 47 -182t155 -61q55 0 92.5 15.5t61 46t34 76t10.5 105.5v435h61v-434q0 -79 -17.5 -135.5t-51 -92.5t-82 -53t-109.5 -17q-63 0 -111.5 17t-82 53.5t-51 94t-17.5 137.5v430zM307 903h73l-119 -129h-57zM468 903h73l-120 -129h-56z" />
    <glyph glyph-name="uhungarumlaut" unicode="&#x171;" horiz-adv-x="547" 
d="M68 515h58v-327q0 -81 25.5 -116.5t87.5 -35.5q31 0 62 12t59 36q29 26 44 53.5t15 75.5v302h58v-515h-58v84q-81 -100 -187 -100q-88 0 -126 48t-38 140v343zM248 724h76l-119 -134h-60zM409 724h76l-120 -134h-59z" />
    <glyph glyph-name="Uogonek" unicode="&#x172;" horiz-adv-x="676" 
d="M456 -175q-8 -2 -15 -2h-12q-52 0 -76 20t-24 58q0 41 42 82q-8 -1 -16 -1h-16q-63 0 -111.5 17t-82 53.5t-51 94t-17.5 137.5v430h61v-435q0 -121 47 -182t155 -61q55 0 92.5 15.5t61 46t34 76t10.5 105.5v435h61v-434q0 -118 -38.5 -186t-109.5 -94q-64 -51 -64 -90
q0 -23 13.5 -30.5t35.5 -7.5h8t12 1v-48z" />
    <glyph glyph-name="uogonek" unicode="&#x173;" horiz-adv-x="547" 
d="M68 515h58v-327q0 -81 25.5 -116.5t87.5 -35.5q31 0 62 12t59 36q29 26 44 53.5t15 75.5v302h58v-515q-61 -48 -61 -88q0 -23 13.5 -30t34.5 -7h8t12 1v-46q-8 -2 -15 -2h-12q-98 0 -98 75q0 24 15 49t46 48h-1v84q-81 -100 -187 -100q-88 0 -126 48t-38 140v343z" />
    <glyph glyph-name="Wcircumflex" unicode="&#x174;" horiz-adv-x="911" 
d="M13 714h68l168 -638l177 635h66l172 -634l170 637h64l-201 -714h-71l-172 635l-172 -635h-67zM428 903h57l112 -129h-61l-80 83l-80 -83h-61z" />
    <glyph glyph-name="wcircumflex" unicode="&#x175;" horiz-adv-x="711" 
d="M9 515h64l120 -450l131 447h68l128 -447l120 450h62l-151 -515h-67l-129 450l-130 -450h-67zM328 724h57l112 -134h-59l-82 90l-82 -90h-59z" />
    <glyph glyph-name="Ycircumflex" unicode="&#x176;" horiz-adv-x="588" 
d="M265 309l-250 405h72l209 -353l213 353h64l-247 -405v-309h-61v309zM266 903h57l112 -129h-61l-80 83l-80 -83h-61z" />
    <glyph glyph-name="ycircumflex" unicode="&#x177;" horiz-adv-x="498" 
d="M59 -131q12 -5 25.5 -8t28.5 -3q18 0 30 4t22 14.5t18.5 27t19.5 42.5l24 61l-221 508h67l187 -441l167 441h65l-234 -583q-12 -29 -24.5 -52.5t-28 -40t-36.5 -25t-50 -8.5q-23 0 -38.5 2.5t-35.5 9.5zM221 724h57l112 -134h-59l-82 90l-82 -90h-59z" />
    <glyph glyph-name="Ydieresis" unicode="&#x178;" horiz-adv-x="588" 
d="M265 309l-250 405h72l209 -353l213 353h64l-247 -405v-309h-61v309zM168 882h67v-87h-67v87zM332 882h68v-87h-68v87z" />
    <glyph glyph-name="Zacute" unicode="&#x179;" horiz-adv-x="585" 
d="M35 50l440 609h-432v55h503v-51l-439 -607h448l-13 -56h-507v50zM345 903h79l-127 -129h-63z" />
    <glyph glyph-name="zacute" unicode="&#x17a;" horiz-adv-x="449" 
d="M23 49l327 417h-320v49h389v-49l-327 -417h344l-10 -49h-403v49zM285 724h78l-127 -134h-62z" />
    <glyph glyph-name="Zdotaccent" unicode="&#x17b;" horiz-adv-x="585" 
d="M35 50l440 609h-432v55h503v-51l-439 -607h448l-13 -56h-507v50zM263 883h68v-89h-68v89z" />
    <glyph glyph-name="zdotaccent" unicode="&#x17c;" horiz-adv-x="449" 
d="M23 49l327 417h-320v49h389v-49l-327 -417h344l-10 -49h-403v49zM192 705h66v-87h-66v87z" />
    <glyph glyph-name="Zcaron" unicode="&#x17d;" horiz-adv-x="585" 
d="M35 50l440 609h-432v55h503v-51l-439 -607h448l-13 -56h-507v50zM157 906h62l80 -84l80 84h60l-112 -129h-57z" />
    <glyph glyph-name="zcaron" unicode="&#x17e;" horiz-adv-x="449" 
d="M23 49l327 417h-320v49h389v-49l-327 -417h344l-10 -49h-403v49zM252 592h-57l-112 134h59l82 -90l82 90h59z" />
    <glyph glyph-name="longs" unicode="&#x17f;" horiz-adv-x="202" 
d="M73 574q0 38 11.5 66t31.5 46t46 27t55 9q20 0 38 -2.5t38 -8.5l-12 -49q-16 5 -30 7t-28 2q-39 0 -65.5 -20.5t-26.5 -74.5v-576h-58v574z" />
    <glyph glyph-name="florin" unicode="&#x192;" 
d="M3 -111q31 -13 63 -13q22 0 38.5 4t27.5 15t19 30t14 49l93 477h-81l9 51h82l11 59q14 76 51 112.5t113 36.5q26 0 44.5 -4.5t34.5 -11.5l-15 -48q-14 6 -29.5 10t-35.5 4q-47 0 -70.5 -20.5t-34.5 -78.5l-11 -59h138l-10 -51h-138l-93 -477q-7 -38 -18.5 -66t-30 -46.5
t-45 -27.5t-64.5 -9q-23 0 -42 4.5t-35 11.5z" />
    <glyph glyph-name="Scommaaccent" unicode="&#x218;" horiz-adv-x="642" 
d="M105 187q16 -80 69 -115.5t158 -35.5q54 0 89.5 12t56.5 32t30 47t9 57q0 25 -5.5 47.5t-21 41t-44.5 32.5t-76 22l-89 15q-52 9 -92.5 23t-68.5 36.5t-42.5 56.5t-14.5 83t20.5 85t55 59.5t81 35t98.5 11.5q67 0 112 -14.5t74 -38.5t45 -54.5t25 -61.5l-56 -16
q-10 31 -23.5 55.5t-36 41.5t-56.5 26t-83 9q-55 0 -92 -10.5t-60 -29t-33 -44t-10 -54.5q0 -30 7 -52t24 -38t45.5 -27t71.5 -19l101 -18q54 -10 93.5 -26t65.5 -40.5t38.5 -58.5t12.5 -80q0 -41 -16 -77.5t-47.5 -63.5t-78.5 -43t-110 -16q-58 0 -107.5 11t-87 35.5
t-61.5 63.5t-30 95h60zM298 -68h74l-89 -144h-59z" />
    <glyph glyph-name="scommaaccent" unicode="&#x219;" horiz-adv-x="514" 
d="M101 143q11 -60 51 -85t114 -25q75 0 106 28t31 70q0 18 -4 33.5t-15.5 28.5t-33 22t-55.5 15l-63 10q-41 7 -73.5 17t-55 26.5t-34 41t-11.5 60.5q0 34 15 61.5t41 46t61.5 28.5t76.5 10q53 0 88.5 -10.5t58 -28.5t35 -42t19.5 -51l-53 -11q-8 23 -18.5 40.5t-26.5 29
t-40 17.5t-60 6q-40 0 -67 -7.5t-43.5 -20.5t-23.5 -30t-7 -35t4 -32.5t16 -25.5t33.5 -19t56.5 -14l79 -13q81 -14 121 -48.5t40 -105.5q0 -30 -12.5 -57t-37 -46.5t-61.5 -31t-85 -11.5q-47 0 -86.5 9t-68.5 28t-47 49t-22 73h57zM237 -68h72l-87 -140h-57z" />
    <glyph glyph-name="uni021A" unicode="&#x21a;" horiz-adv-x="590" 
d="M265 658h-248v56h556v-56h-247v-658h-61v658zM261 -68h74l-89 -144h-59z" />
    <glyph glyph-name="uni021B" unicode="&#x21b;" horiz-adv-x="330" 
d="M99 467h-80v48h80v142h58v-142h146v-48h-146v-337q0 -38 16 -64.5t56 -26.5q26 0 44 4t32 9l12 -47q-15 -6 -36.5 -11t-56.5 -5q-44 0 -69 15t-37.5 39.5t-15.5 56.5t-3 67v300zM176 -68h72l-87 -140h-57z" />
    <glyph glyph-name="dotlessj" unicode="&#x237;" horiz-adv-x="204" 
d="M-71 -122q14 -5 31 -8.5t42 -3.5q41 0 56 25t15 66v558h58v-523q0 -35 -3.5 -67t-16 -56.5t-37 -39.5t-67.5 -15q-34 0 -54.5 4.5t-35.5 10.5z" />
    <glyph glyph-name="apostrophe" unicode="&#x2bc;" horiz-adv-x="182" 
d="M68 714h67l-47 -186h-45z" />
    <glyph glyph-name="circumflex" unicode="&#x2c6;" horiz-adv-x="379" 
d="M161 724h57l112 -134h-59l-82 90l-82 -90h-59z" />
    <glyph glyph-name="caron" unicode="&#x2c7;" horiz-adv-x="379" 
d="M217 592h-57l-112 134h59l82 -90l82 90h59z" />
    <glyph glyph-name="uni02C9" unicode="&#x2c9;" horiz-adv-x="379" 
d="M67 678h244v-51h-244v51z" />
    <glyph glyph-name="breve" unicode="&#x2d8;" horiz-adv-x="379" 
d="M111 720q0 -44 22 -66t56 -22q33 0 55.5 22t22.5 66h48q0 -62 -33 -96.5t-93 -34.5t-93 34.5t-33 96.5h48z" />
    <glyph glyph-name="dotaccent" unicode="&#x2d9;" horiz-adv-x="379" 
d="M156 705h66v-87h-66v87z" />
    <glyph glyph-name="ring" unicode="&#x2da;" horiz-adv-x="379" 
d="M95 683q0 47 28 71t66 24q18 0 35.5 -6t30.5 -18t21 -30t8 -41q0 -24 -8 -41.5t-21 -29t-30.5 -17.5t-35.5 -6q-38 0 -66 23.5t-28 70.5zM189 628q23 0 36.5 13.5t13.5 41.5t-13.5 41.5t-36.5 13.5t-36.5 -13.5t-13.5 -41.5t13.5 -41.5t36.5 -13.5z" />
    <glyph glyph-name="ogonek" unicode="&#x2db;" horiz-adv-x="379" 
d="M251 -170q-8 -2 -15 -2h-12q-98 0 -98 75q0 24 15 49t46 48h57q-61 -48 -61 -88q0 -23 13.5 -30t34.5 -7h8t12 1v-46z" />
    <glyph glyph-name="tilde" unicode="&#x2dc;" horiz-adv-x="379" 
d="M22 606q0 49 25 76.5t68 27.5q27 0 46 -9t35 -19.5t31.5 -19.5t34.5 -9q28 0 37.5 16.5t9.5 38.5h48q0 -49 -25 -76.5t-68 -27.5q-27 0 -46 9t-35 19.5t-31.5 19.5t-34.5 9q-28 0 -37.5 -16.5t-9.5 -38.5h-48z" />
    <glyph glyph-name="hungarumlaut" unicode="&#x2dd;" horiz-adv-x="379" 
d="M122 724h76l-119 -134h-60zM283 724h76l-120 -134h-59z" />
    <glyph glyph-name="tonos" unicode="&#x384;" horiz-adv-x="379" 
d="M183 734h68l-85 -144h-52z" />
    <glyph glyph-name="dieresistonos" unicode="&#x385;" horiz-adv-x="379" 
d="M46 700h61v-77h-61v77zM271 700h62v-77h-62v77zM186 734h68l-68 -144h-52z" />
    <glyph glyph-name="Alphatonos" unicode="&#x386;" horiz-adv-x="661" 
d="M109 714h68l-77 -154h-52zM295 714h72l282 -714h-66l-86 218h-336l-85 -218h-64zM475 274l-147 373l-145 -373h292z" />
    <glyph glyph-name="Epsilontonos" unicode="&#x388;" horiz-adv-x="701" 
d="M48 714h68l-77 -154h-52zM195 714h449v-55h-388v-262h368v-57h-368v-284h405l-14 -56h-452v714z" />
    <glyph glyph-name="Etatonos" unicode="&#x389;" horiz-adv-x="802" 
d="M48 714h68l-77 -154h-52zM195 714h61v-316h403v316h61v-714h-61v341h-403v-341h-61v714z" />
    <glyph glyph-name="Iotatonos" unicode="&#x38a;" horiz-adv-x="338" 
d="M48 714h68l-77 -154h-52zM195 714h61v-714h-61v714z" />
    <glyph glyph-name="Omicrontonos" unicode="&#x38c;" horiz-adv-x="810" 
d="M58 714h68l-77 -154h-52zM433 -18q-69 0 -128.5 23.5t-102.5 70.5t-67.5 117t-24.5 162t24.5 162.5t68 118t102.5 72t128 24.5t128 -23.5t101.5 -70.5t67 -116.5t24.5 -161.5q0 -93 -24 -163.5t-66.5 -118t-101.5 -72t-129 -24.5zM433 36q63 0 111 23.5t80.5 66t49 101.5
t16.5 130t-17 130t-49.5 101.5t-80.5 66t-110 23.5q-65 0 -113.5 -23.5t-80.5 -66t-48.5 -101.5t-16.5 -130t16 -130t48.5 -101.5t81 -66t113.5 -23.5z" />
    <glyph glyph-name="Upsilontonos" unicode="&#x38e;" horiz-adv-x="743" 
d="M48 714h68l-77 -154h-52zM420 309l-250 405h72l209 -353l213 353h64l-247 -405v-309h-61v309z" />
    <glyph glyph-name="Omegatonos" unicode="&#x38f;" horiz-adv-x="783" 
d="M83 55h162q-29 24 -54 56.5t-43.5 72.5t-29 86t-10.5 97q0 90 22.5 158.5t63 114t96 69t122.5 23.5q66 0 121 -22.5t94.5 -67.5t61.5 -112.5t22 -157.5q0 -100 -39 -182t-102 -135h170l-12 -55h-245v45q88 59 126 137t38 187q0 71 -14 128.5t-43.5 97.5t-73.5 61.5
t-104 21.5q-62 0 -107.5 -21.5t-75 -61.5t-43.5 -97.5t-14 -128.5q0 -108 39.5 -186.5t123.5 -137.5v-45h-252v55zM48 714h68l-77 -154h-52z" />
    <glyph glyph-name="iotadieresistonos" unicode="&#x390;" horiz-adv-x="252" 
d="M70 515h58v-376q0 -56 15 -78.5t53 -22.5q15 0 29.5 2.5t19.5 4.5l7 -48q-7 -2 -25.5 -5.5t-44.5 -3.5q-60 0 -86 34.5t-26 95.5v397zM-14 700h61v-77h-61v77zM211 700h62v-77h-62v77zM126 734h68l-68 -144h-52z" />
    <glyph glyph-name="Alpha" unicode="&#x391;" horiz-adv-x="661" 
d="M295 714h72l282 -714h-66l-86 218h-336l-85 -218h-64zM475 274l-147 373l-145 -373h292z" />
    <glyph glyph-name="Beta" unicode="&#x392;" horiz-adv-x="624" 
d="M82 714h226q75 0 122.5 -14t75.5 -38.5t38.5 -56.5t10.5 -68q0 -54 -25 -94t-84 -65q38 -13 63.5 -31.5t41 -41.5t22 -49.5t6.5 -53.5q0 -42 -13 -79t-43 -64.5t-78 -43t-118 -15.5h-245v714zM317 401q93 0 135.5 33.5t42.5 99.5t-42.5 96.5t-146.5 30.5h-164v-260h175z
M325 54q57 0 93.5 10t58 28.5t30 45t8.5 59.5q0 73 -44 111t-143 38h-186v-292h183z" />
    <glyph glyph-name="Gamma" unicode="&#x393;" horiz-adv-x="518" 
d="M506 714v-55h-363v-659h-61v714h424z" />
    <glyph glyph-name="uni0394" unicode="&#x394;" horiz-adv-x="644" 
d="M288 714h67l276 -714h-618zM545 56l-225 592l-225 -592h450z" />
    <glyph glyph-name="Epsilon" unicode="&#x395;" horiz-adv-x="588" 
d="M82 714h449v-55h-388v-262h368v-57h-368v-284h405l-14 -56h-452v714z" />
    <glyph glyph-name="Zeta" unicode="&#x396;" horiz-adv-x="585" 
d="M35 50l440 609h-432v55h503v-51l-439 -607h448l-13 -56h-507v50z" />
    <glyph glyph-name="Eta" unicode="&#x397;" horiz-adv-x="689" 
d="M82 714h61v-316h403v316h61v-714h-61v341h-403v-341h-61v714z" />
    <glyph glyph-name="Theta" unicode="&#x398;" horiz-adv-x="756" 
d="M198 398h360v-57h-360v57zM379 -18q-69 0 -128.5 23.5t-102.5 70.5t-67.5 117t-24.5 162t24.5 162.5t68 118t102.5 72t128 24.5t128 -23.5t101.5 -70.5t67 -116.5t24.5 -161.5q0 -93 -24 -163.5t-66.5 -118t-101.5 -72t-129 -24.5zM379 36q63 0 111 23.5t80.5 66
t49 101.5t16.5 130t-17 130t-49.5 101.5t-80.5 66t-110 23.5q-65 0 -113.5 -23.5t-80.5 -66t-48.5 -101.5t-16.5 -130t16 -130t48.5 -101.5t81 -66t113.5 -23.5z" />
    <glyph glyph-name="Iota" unicode="&#x399;" horiz-adv-x="225" 
d="M82 714h61v-714h-61v714z" />
    <glyph glyph-name="Kappa" unicode="&#x39a;" horiz-adv-x="636" 
d="M82 714h61v-373l375 373h73l-265 -267l292 -447h-74l-264 407l-137 -135v-272h-61v714z" />
    <glyph glyph-name="Lambda" unicode="&#x39b;" horiz-adv-x="643" 
d="M631 0h-70l-242 645l-243 -645h-64l275 714h66z" />
    <glyph glyph-name="Mu" unicode="&#x39c;" horiz-adv-x="838" 
d="M82 714h79l258 -643l262 643h75v-714h-57v612q-5 -9 -32 -77q-12 -29 -30 -73.5t-44.5 -109t-62.5 -151.5t-83 -201h-58l-250 608v-608h-57v714z" />
    <glyph glyph-name="Nu" unicode="&#x39d;" horiz-adv-x="690" 
d="M82 714h67l400 -618v618h59v-714h-66l-401 620v-620h-59v714z" />
    <glyph glyph-name="Xi" unicode="&#x39e;" horiz-adv-x="539" 
d="M45 714h446v-56h-446v56zM40 56h459l-14 -56h-445v56zM65 398h406v-57h-406v57z" />
    <glyph glyph-name="Omicron" unicode="&#x39f;" horiz-adv-x="756" 
d="M379 -18q-69 0 -128.5 23.5t-102.5 70.5t-67.5 117t-24.5 162t24.5 162.5t68 118t102.5 72t128 24.5t128 -23.5t101.5 -70.5t67 -116.5t24.5 -161.5q0 -93 -24 -163.5t-66.5 -118t-101.5 -72t-129 -24.5zM379 36q63 0 111 23.5t80.5 66t49 101.5t16.5 130t-17 130
t-49.5 101.5t-80.5 66t-110 23.5q-65 0 -113.5 -23.5t-80.5 -66t-48.5 -101.5t-16.5 -130t16 -130t48.5 -101.5t81 -66t113.5 -23.5z" />
    <glyph glyph-name="Pi" unicode="&#x3a0;" horiz-adv-x="678" 
d="M535 659h-392v-659h-61v714h514v-714h-61v659z" />
    <glyph glyph-name="Rho" unicode="&#x3a1;" horiz-adv-x="619" 
d="M82 714h230q78 0 128 -16.5t78.5 -44.5t39.5 -65.5t11 -79.5q0 -44 -11.5 -84t-40.5 -70t-79 -47.5t-128 -17.5h-168v-289h-60v714zM311 342q60 0 98 11.5t60 32.5t30 51t8 68q0 40 -9 69t-31.5 48.5t-60.5 29t-96 9.5h-168v-319h169z" />
    <glyph glyph-name="Sigma" unicode="&#x3a3;" horiz-adv-x="568" 
d="M35 51l252 306l-246 307v50h487v-56h-409l237 -298l-249 -304h431l-14 -56h-489v51z" />
    <glyph glyph-name="Tau" unicode="&#x3a4;" horiz-adv-x="590" 
d="M265 658h-248v56h556v-56h-247v-658h-61v658z" />
    <glyph glyph-name="Upsilon" unicode="&#x3a5;" horiz-adv-x="588" 
d="M265 309l-250 405h72l209 -353l213 353h64l-247 -405v-309h-61v309z" />
    <glyph glyph-name="Phi" unicode="&#x3a6;" horiz-adv-x="805" 
d="M432 663q75 -3 134.5 -23.5t101 -57t64 -88.5t22.5 -118q0 -71 -24.5 -123t-67.5 -86.5t-102 -53t-128 -22.5v-91h-60v91q-69 4 -128 21.5t-102 52t-67.5 86.5t-24.5 124q0 66 22.5 118t64 89t101 57.5t134.5 23.5v81h60v-81zM690 378q0 103 -63.5 166.5t-194.5 69.5
v-474q62 4 110 19t81 43.5t50 72t17 103.5zM114 377q0 -60 17 -103t50 -71.5t81 -43.5t110 -19v474q-68 -3 -116.5 -21t-80 -49t-46.5 -73.5t-15 -93.5z" />
    <glyph glyph-name="Chi" unicode="&#x3a7;" horiz-adv-x="613" 
d="M268 378l-234 336h73l199 -295l201 295h65l-233 -341l260 -373h-73l-225 329l-221 -329h-66z" />
    <glyph glyph-name="Psi" unicode="&#x3a8;" horiz-adv-x="816" 
d="M378 203q-69 3 -125.5 20.5t-97 54t-62.5 95t-22 142.5v199h60v-199q0 -71 17.5 -120.5t49.5 -80t77.5 -45.5t102.5 -17v462h60v-462q57 2 102.5 17t77.5 46t49.5 80t17.5 120v199h60v-199q0 -78 -22.5 -135.5t-63 -96t-97 -58t-124.5 -22.5v-203h-60v203z" />
    <glyph glyph-name="Omega" unicode="&#x3a9;" horiz-adv-x="747" 
d="M47 55h162q-29 24 -54 56.5t-43.5 72.5t-29 86t-10.5 97q0 90 22.5 158.5t63 114t96 69t122.5 23.5q66 0 121 -22.5t94.5 -67.5t61.5 -112.5t22 -157.5q0 -100 -39 -182t-102 -135h170l-12 -55h-245v45q88 59 126 137t38 187q0 71 -14 128.5t-43.5 97.5t-73.5 61.5
t-104 21.5q-62 0 -107.5 -21.5t-75 -61.5t-43.5 -97.5t-14 -128.5q0 -108 39.5 -186.5t123.5 -137.5v-45h-252v55z" />
    <glyph glyph-name="Iotadieresis" unicode="&#x3aa;" horiz-adv-x="225" 
d="M82 714h61v-714h-61v714zM-3 882h67v-87h-67v87zM161 882h68v-87h-68v87z" />
    <glyph glyph-name="Upsilondieresis" unicode="&#x3ab;" horiz-adv-x="588" 
d="M265 309l-250 405h72l209 -353l213 353h64l-247 -405v-309h-61v309zM182 882h67v-87h-67v87zM346 882h68v-87h-68v87z" />
    <glyph glyph-name="alphatonos" unicode="&#x3ac;" horiz-adv-x="663" 
d="M516 249l37 -123q8 -27 14.5 -44.5t13.5 -27.5t15 -14t19 -4t22 3q5 1 11 3l10 -44q-8 -3 -17 -6q-8 -2 -17 -4t-18 -2q-35 0 -54.5 19.5t-35.5 69.5l-33 110q-14 -38 -32 -74t-43 -64.5t-57.5 -45.5t-76.5 -17q-56 0 -97.5 20t-68.5 56t-40.5 85t-13.5 106
q0 69 16.5 121.5t46.5 88t71 53t90 17.5q48 0 82.5 -15t59 -42.5t41.5 -66t31 -85.5l67 193h55zM276 34q36 0 63.5 17.5t48.5 48t38 71t33 85.5q-15 54 -30.5 96t-35.5 70.5t-48 43.5t-68 15q-36 0 -65 -13t-49.5 -41t-32 -71t-11.5 -104q0 -106 40.5 -162t116.5 -56z
M327 734h68l-85 -144h-52z" />
    <glyph glyph-name="epsilontonos" unicode="&#x3ad;" horiz-adv-x="517" 
d="M481 140q-3 -28 -11.5 -55.5t-30.5 -50t-61.5 -36.5t-104.5 -14q-59 0 -100 11t-67 31.5t-38 48.5t-12 61q0 48 25.5 83t73.5 49q-35 11 -61.5 40.5t-26.5 75.5q0 28 10 54.5t34.5 47t65.5 33t102 12.5q55 0 90.5 -12.5t57 -31.5t32 -43t14.5 -46l-52 -9q-3 17 -11 33.5
t-24 30t-43 22t-69 8.5q-147 0 -147 -94q0 -51 29.5 -73.5t88.5 -22.5h107v-48h-103q-133 0 -133 -103q0 -57 37.5 -83.5t123.5 -26.5q44 0 72 7.5t44.5 21.5t24 34t10.5 45h53zM299 734h68l-85 -144h-52z" />
    <glyph glyph-name="etatonos" unicode="&#x3ae;" horiz-adv-x="560" 
d="M70 515h58v-84q42 53 89.5 76.5t101.5 23.5q88 0 130 -49t42 -139v-537h-58v521q0 81 -29 116.5t-92 35.5q-30 0 -63.5 -11.5t-60.5 -36.5q-30 -26 -45 -53.5t-15 -75.5v-302h-58v515zM323 734h68l-85 -144h-52z" />
    <glyph glyph-name="iotatonos" unicode="&#x3af;" horiz-adv-x="252" 
d="M70 515h58v-376q0 -56 15 -78.5t53 -22.5q15 0 29.5 2.5t19.5 4.5l7 -48q-7 -2 -25.5 -5.5t-44.5 -3.5q-60 0 -86 34.5t-26 95.5v397zM140 734h68l-85 -144h-52z" />
    <glyph glyph-name="upsilondieresistonos" unicode="&#x3b0;" horiz-adv-x="548" 
d="M70 515h58v-298q0 -95 34.5 -139t112.5 -44t111.5 44t33.5 139v298h58v-298q0 -65 -15 -109t-42 -72t-64.5 -40t-82.5 -12q-49 0 -87 12t-64 40t-39.5 72t-13.5 109v298zM132 700h61v-77h-61v77zM357 700h62v-77h-62v77zM272 734h68l-68 -144h-52z" />
    <glyph glyph-name="alpha" unicode="&#x3b1;" horiz-adv-x="663" 
d="M516 249l37 -123q8 -27 14.5 -44.5t13.5 -27.5t15 -14t19 -4t22 3q5 1 11 3l10 -44q-8 -3 -17 -6q-8 -2 -17 -4t-18 -2q-35 0 -54.5 19.5t-35.5 69.5l-33 110q-14 -38 -32 -74t-43 -64.5t-57.5 -45.5t-76.5 -17q-56 0 -97.5 20t-68.5 56t-40.5 85t-13.5 106
q0 69 16.5 121.5t46.5 88t71 53t90 17.5q48 0 82.5 -15t59 -42.5t41.5 -66t31 -85.5l67 193h55zM276 34q36 0 63.5 17.5t48.5 48t38 71t33 85.5q-15 54 -30.5 96t-35.5 70.5t-48 43.5t-68 15q-36 0 -65 -13t-49.5 -41t-32 -71t-11.5 -104q0 -106 40.5 -162t116.5 -56z" />
    <glyph glyph-name="beta" unicode="&#x3b2;" horiz-adv-x="569" 
d="M70 515q0 97 54 152t154 55q96 0 144.5 -47t48.5 -127q0 -32 -8.5 -57.5t-23 -45t-33.5 -32.5t-40 -21q25 -4 52.5 -16.5t50 -36t37.5 -59t15 -83.5q0 -52 -18.5 -91t-48.5 -65t-68.5 -39t-78.5 -13q-52 0 -100 21t-79 65v-269h-58v709zM128 215q0 -44 15.5 -77t40.5 -55
t56.5 -33t63.5 -11q81 0 119 41.5t38 108.5q0 37 -10.5 68t-31.5 53t-53 34.5t-75 12.5h-63v50h41q29 0 54.5 8.5t45 25.5t31 43.5t11.5 61.5q0 62 -33.5 94t-99.5 32q-77 0 -113.5 -39t-36.5 -122v-296z" />
    <glyph glyph-name="gamma" unicode="&#x3b3;" horiz-adv-x="497" 
d="M218 14l-212 501h67l177 -439l176 439h65l-215 -504v-205h-58v208z" />
    <glyph glyph-name="delta" unicode="&#x3b4;" horiz-adv-x="571" 
d="M54 226q0 53 16 95t42.5 72.5t59.5 50.5t67 29q-27 15 -47.5 28t-34 28t-20.5 32.5t-7 41.5q0 22 9.5 43t30.5 38t54 27.5t79 10.5q87 0 129.5 -35t50.5 -95l-50 -10q-10 50 -41 71.5t-91 21.5q-52 0 -84.5 -18t-32.5 -53q0 -14 4.5 -25.5t17.5 -23t36 -24.5t60 -31
q66 -33 108.5 -63t67 -62.5t34 -68.5t9.5 -81t-14 -88.5t-43 -77.5t-72.5 -54.5t-103.5 -20.5q-58 0 -102 18.5t-73 51.5t-44 77t-15 95zM286 447q-35 -8 -66 -25t-54 -44t-36.5 -64t-13.5 -85q0 -90 44.5 -142.5t129.5 -52.5q45 0 77 14.5t53 40t30.5 60t9.5 75.5
q0 45 -12.5 79t-35 60t-54.5 46t-72 38z" />
    <glyph glyph-name="epsilon" unicode="&#x3b5;" horiz-adv-x="517" 
d="M481 140q-3 -28 -11.5 -55.5t-30.5 -50t-61.5 -36.5t-104.5 -14q-59 0 -100 11t-67 31.5t-38 48.5t-12 61q0 48 25.5 83t73.5 49q-35 11 -61.5 40.5t-26.5 75.5q0 28 10 54.5t34.5 47t65.5 33t102 12.5q55 0 90.5 -12.5t57 -31.5t32 -43t14.5 -46l-52 -9q-3 17 -11 33.5
t-24 30t-43 22t-69 8.5q-147 0 -147 -94q0 -51 29.5 -73.5t88.5 -22.5h107v-48h-103q-133 0 -133 -103q0 -57 37.5 -83.5t123.5 -26.5q44 0 72 7.5t44.5 21.5t24 34t10.5 45h53z" />
    <glyph glyph-name="zeta" unicode="&#x3b6;" horiz-adv-x="461" 
d="M87 714h360v-50l-55 -40t-69.5 -55t-73 -67.5t-66 -77.5t-47.5 -85.5t-18 -90.5q0 -43 8 -74t25.5 -53.5t45.5 -38.5t68 -28l59 -18q77 -23 110 -55.5t33 -77.5q0 -20 -5 -37t-12.5 -30.5t-16.5 -24t-16 -16.5l-37 29q8 8 20 28t12 46t-22 47t-78 38l-55 16
q-53 15 -90.5 35.5t-62.5 49t-36.5 66.5t-11.5 88q0 48 16.5 94t43.5 87.5t61.5 78.5t69.5 68t67.5 56t56.5 42h-284v50z" />
    <glyph glyph-name="eta" unicode="&#x3b7;" horiz-adv-x="560" 
d="M70 515h58v-84q42 53 89.5 76.5t101.5 23.5q88 0 130 -49t42 -139v-537h-58v521q0 81 -29 116.5t-92 35.5q-30 0 -63.5 -11.5t-60.5 -36.5q-30 -26 -45 -53.5t-15 -75.5v-302h-58v515z" />
    <glyph glyph-name="theta" unicode="&#x3b8;" horiz-adv-x="589" 
d="M293 -18q-113 0 -175 90.5t-62 278.5q0 94 17 164t48.5 116t76 68.5t99.5 22.5q112 0 174 -91t62 -280q0 -188 -63 -278.5t-177 -90.5zM296 32q50 0 83.5 21t54 60t29.5 94t10 124h-357q1 -69 11 -124t31 -94t55 -60t83 -21zM295 672q-48 0 -81.5 -20.5t-54.5 -59
t-31 -92t-12 -119.5h356q-2 66 -11.5 119.5t-30.5 92t-54 59t-81 20.5z" />
    <glyph glyph-name="iota" unicode="&#x3b9;" horiz-adv-x="252" 
d="M70 515h58v-376q0 -56 15 -78.5t53 -22.5q15 0 29.5 2.5t19.5 4.5l7 -48q-7 -2 -25.5 -5.5t-44.5 -3.5q-60 0 -86 34.5t-26 95.5v397z" />
    <glyph glyph-name="kappa" unicode="&#x3ba;" horiz-adv-x="493" 
d="M70 515h58v-272l265 272h70l-177 -185l202 -330h-70l-176 289l-114 -114v-175h-58v515z" />
    <glyph glyph-name="lambda" unicode="&#x3bb;" horiz-adv-x="498" 
d="M50 709q19 7 38 11t39 4q24 0 43 -6t34.5 -19.5t28.5 -35.5t26 -55l233 -608h-65l-171 460l-188 -460h-62l222 527l-24 61q-11 26 -20 42.5t-19 25.5t-21 12.5t-26 3.5q-26 0 -54 -11z" />
    <glyph glyph-name="uni03BC" unicode="&#x3bc;" horiz-adv-x="547" 
d="M68 515h58v-333q0 -81 30 -113.5t92 -32.5q27 0 54 11t59 37q26 21 42 49.5t16 65.5v316h58v-515h-58v82q-42 -53 -87.5 -75.5t-95.5 -22.5q-33 0 -61 7t-49 32v-218h-58v710z" />
    <glyph glyph-name="nu" unicode="&#x3bd;" horiz-adv-x="496" 
d="M6 515h67l175 -452l179 452h63l-208 -515h-68z" />
    <glyph glyph-name="xi" unicode="&#x3be;" horiz-adv-x="483" 
d="M417 574q-10 56 -43 82t-102 26q-74 0 -111.5 -34t-37.5 -95q0 -39 11.5 -65.5t30.5 -42.5t42.5 -23t47.5 -7h110v-48h-98q-75 0 -119.5 -37t-44.5 -115q0 -37 9.5 -63.5t29 -45.5t47.5 -31.5t66 -20.5l85 -19q42 -9 69 -24t42 -33t20.5 -37t5.5 -37q0 -20 -5 -37
t-12.5 -31t-16.5 -24.5t-16 -16.5l-37 29q8 8 20 28t12 46q0 29 -24 51t-76 34l-89 20q-89 20 -139.5 70t-50.5 133q0 77 35 122t86 62q-45 13 -73 54t-28 102q0 37 13 71t39.5 59.5t66 40.5t93.5 15q81 0 133 -37t61 -110z" />
    <glyph glyph-name="omicron" unicode="&#x3bf;" horiz-adv-x="589" 
d="M294 34q48 0 82 17.5t55.5 47.5t31.5 71t10 89q0 46 -10 86.5t-31.5 70.5t-55.5 47.5t-82 17.5t-82 -17.5t-55 -47.5t-31 -70.5t-10 -87.5t10 -88t31 -71t55 -47.5t82 -17.5zM292 -16q-56 0 -100.5 19t-75 54.5t-46.5 85.5t-16 112q0 63 17 114t48.5 87t76.5 55.5
t100 19.5q56 0 100.5 -19t75 -54.5t47 -85.5t16.5 -111q0 -63 -16.5 -114t-48 -87.5t-76.5 -56t-102 -19.5z" />
    <glyph glyph-name="pi" unicode="&#x3c0;" horiz-adv-x="580" 
d="M390 465h-217v-465h-58v465h-99v50h536v-50h-104v-337q0 -51 14.5 -70.5t43.5 -19.5q13 0 22 1t14 3l6 -47q-6 -2 -19 -4.5t-31 -2.5q-57 0 -82.5 35t-25.5 104v338z" />
    <glyph glyph-name="rho" unicode="&#x3c1;" horiz-adv-x="583" 
d="M70 269q0 65 17 114t48 82t73.5 49.5t92.5 16.5q112 0 170 -73t58 -202q0 -57 -15 -106.5t-44 -86.5t-72.5 -58t-101.5 -21q-57 0 -99.5 24.5t-68.5 59.5v-262h-58v463zM127 221q0 -37 10.5 -71t32 -59.5t54 -41t77.5 -15.5q73 0 119.5 54.5t46.5 170.5q0 60 -12 102
t-34 69t-53 39t-69 12q-36 0 -67 -12t-54.5 -37t-37 -63.5t-13.5 -92.5v-55z" />
    <glyph glyph-name="sigma1" unicode="&#x3c2;" horiz-adv-x="523" 
d="M253 0q-54 12 -92 33.5t-61 54t-33.5 76t-10.5 100.5t16.5 106t47 84.5t74.5 56t100 20.5q83 0 135.5 -42t69.5 -124l-56 -14q-12 58 -46.5 94t-101.5 36q-47 0 -80 -17.5t-55 -46.5t-32 -67.5t-10 -80.5q0 -56 10 -93.5t29 -61.5t46 -38t60 -21l76 -17q79 -18 113.5 -51
t34.5 -81q0 -21 -5.5 -39t-13 -32.5t-16.5 -24.5t-15 -15l-37 29q6 7 19 26t13 48q0 35 -27.5 55t-73.5 30z" />
    <glyph glyph-name="sigma" unicode="&#x3c3;" horiz-adv-x="590" 
d="M283 -16q-57 0 -99.5 18.5t-71.5 53t-43.5 83t-14.5 108.5q0 56 16.5 105t50 85t84.5 57t120 21h229v-50h-128q48 -44 72 -103.5t24 -122.5q0 -56 -16 -102.5t-46.5 -80.5t-75 -53t-101.5 -19zM285 34q48 0 81.5 16t54 43.5t30 65t9.5 80.5q0 65 -21.5 121.5t-71.5 104.5
h-53q-92 0 -145 -51t-53 -164q0 -45 8.5 -84.5t28.5 -68.5t52 -46t80 -17z" />
    <glyph glyph-name="tau" unicode="&#x3c4;" horiz-adv-x="482" 
d="M16 515h438v-50h-209v-310q0 -69 24.5 -94t75.5 -25q32 0 56 7t32 10l10 -47q-11 -5 -40 -12.5t-70 -7.5q-146 0 -146 155v324h-171v50z" />
    <glyph glyph-name="upsilon" unicode="&#x3c5;" horiz-adv-x="548" 
d="M70 515h58v-298q0 -95 34.5 -139t112.5 -44t111.5 44t33.5 139v298h58v-298q0 -65 -15 -109t-42 -72t-64.5 -40t-82.5 -12q-49 0 -87 12t-64 40t-39.5 72t-13.5 109v298z" />
    <glyph glyph-name="phi" unicode="&#x3c6;" horiz-adv-x="738" 
d="M341 -14q-77 4 -132 24.5t-90.5 55.5t-52 83.5t-16.5 108.5q0 57 19.5 107t59 87t99.5 58t142 21q84 0 144 -22t99 -59.5t57 -88t18 -107.5q0 -59 -21.5 -107.5t-60 -83t-92 -55t-117.5 -23.5v-179h-56v180zM112 263q0 -109 58 -166.5t171 -62.5v448q-107 -5 -168 -61.5
t-61 -157.5zM626 250q0 112 -58.5 169.5t-170.5 62.5v-448q51 3 93.5 18t72.5 42t46.5 66t16.5 90z" />
    <glyph glyph-name="chi" unicode="&#x3c7;" horiz-adv-x="493" 
d="M411 -65q12 -25 22.5 -42t20 -27.5t19 -15.5t20.5 -5q20 0 40 10l16 -44q-11 -6 -26 -11t-35 -5q-24 0 -42.5 9t-34 26t-29.5 42.5t-30 58.5l-98 202l-174 -327h-61l204 380l-105 217q-18 38 -37 57.5t-44 19.5q-11 0 -19 -2.5t-16 -6.5l-16 44q28 15 59 15
q46 0 74.5 -31.5t56.5 -89.5l83 -174l146 280h60l-176 -332z" />
    <glyph glyph-name="psi" unicode="&#x3c8;" horiz-adv-x="766" 
d="M355 515h56v-477q54 0 96.5 13.5t71.5 44t44 80t15 121.5v218h58v-237q0 -75 -22 -130t-60 -91t-90 -53t-113 -17v-181h-56v181q-61 0 -113 16.5t-90.5 52t-60 90.5t-21.5 132v237h58v-218q0 -71 15 -120t44 -80t71.5 -45t96.5 -14v477z" />
    <glyph glyph-name="omega" unicode="&#x3c9;" horiz-adv-x="792" 
d="M396 99q-6 -21 -17 -41.5t-29.5 -37t-45 -26.5t-62.5 -10q-38 0 -72.5 14t-60 45t-40.5 80.5t-15 121.5q0 46 11 89.5t26 80t31.5 64.5t27.5 43l46 -25q-8 -14 -22.5 -37t-28.5 -55t-24 -72t-10 -89q0 -57 10.5 -97t28.5 -65t42 -36.5t51 -11.5q61 0 93 47.5t32 137.5
v135h56v-135q0 -90 32 -137.5t93 -47.5q27 0 51 11.5t42 36.5t28.5 65t10.5 97q0 47 -8.5 85.5t-21.5 69.5t-27.5 55t-27.5 43l46 25q13 -18 30 -46t31.5 -63.5t24.5 -78t10 -89.5q0 -66 -15 -115.5t-40.5 -81.5t-60 -48t-72.5 -16q-36 0 -62.5 10t-45 26.5t-29.5 37
t-17 41.5z" />
    <glyph glyph-name="iotadieresis" unicode="&#x3ca;" horiz-adv-x="252" 
d="M70 515h58v-376q0 -56 15 -78.5t53 -22.5q15 0 29.5 2.5t19.5 4.5l7 -48q-7 -2 -25.5 -5.5t-44.5 -3.5q-60 0 -86 34.5t-26 95.5v397zM-11 704h65v-85h-65v85zM149 704h66v-85h-66v85z" />
    <glyph glyph-name="upsilondieresis" unicode="&#x3cb;" horiz-adv-x="548" 
d="M70 515h58v-298q0 -95 34.5 -139t112.5 -44t111.5 44t33.5 139v298h58v-298q0 -65 -15 -109t-42 -72t-64.5 -40t-82.5 -12q-49 0 -87 12t-64 40t-39.5 72t-13.5 109v298zM162 704h65v-85h-65v85zM322 704h66v-85h-66v85z" />
    <glyph glyph-name="omicrontonos" unicode="&#x3cc;" horiz-adv-x="593" 
d="M296 34q49 0 83 17.5t56 47.5t32 71t10 89q0 46 -10 86.5t-32 70.5t-56 47.5t-83 17.5q-48 0 -82.5 -17.5t-56 -47.5t-31.5 -70.5t-10 -87.5t10 -88t31.5 -71t56 -47.5t82.5 -17.5zM294 -16q-57 0 -101.5 19t-75 54.5t-47 85.5t-16.5 112q0 63 17.5 114t49 87t76.5 55.5
t101 19.5t101 -19t76 -54.5t47.5 -85.5t16.5 -111q0 -63 -17 -114t-48.5 -87.5t-77 -56t-102.5 -19.5zM328 734h68l-85 -144h-52z" />
    <glyph glyph-name="upsilontonos" unicode="&#x3cd;" horiz-adv-x="548" 
d="M70 515h58v-298q0 -95 34.5 -139t112.5 -44t111.5 44t33.5 139v298h58v-298q0 -65 -15 -109t-42 -72t-64.5 -40t-82.5 -12q-49 0 -87 12t-64 40t-39.5 72t-13.5 109v298zM317 734h68l-85 -144h-52z" />
    <glyph glyph-name="omegatonos" unicode="&#x3ce;" horiz-adv-x="792" 
d="M396 99q-6 -21 -17 -41.5t-29.5 -37t-45 -26.5t-62.5 -10q-38 0 -72.5 14t-60 45t-40.5 80.5t-15 121.5q0 46 11 89.5t26 80t31.5 64.5t27.5 43l46 -25q-8 -14 -22.5 -37t-28.5 -55t-24 -72t-10 -89q0 -57 10.5 -97t28.5 -65t42 -36.5t51 -11.5q61 0 93 47.5t32 137.5
v135h56v-135q0 -90 32 -137.5t93 -47.5q27 0 51 11.5t42 36.5t28.5 65t10.5 97q0 47 -8.5 85.5t-21.5 69.5t-27.5 55t-27.5 43l46 25q13 -18 30 -46t31.5 -63.5t24.5 -78t10 -89.5q0 -66 -15 -115.5t-40.5 -81.5t-60 -48t-72.5 -16q-36 0 -62.5 10t-45 26.5t-29.5 37
t-17 41.5zM411 734h68l-85 -144h-52z" />
    <glyph glyph-name="uni0400" unicode="&#x400;" horiz-adv-x="588" 
d="M82 714h449v-55h-388v-262h368v-57h-368v-284h405l-14 -56h-452v714zM194 903h79l111 -129h-63z" />
    <glyph glyph-name="afii10023" unicode="&#x401;" horiz-adv-x="588" 
d="M82 714h449v-55h-388v-262h368v-57h-368v-284h405l-14 -56h-452v714zM192 882h67v-87h-67v87zM356 882h68v-87h-68v87z" />
    <glyph glyph-name="afii10051" unicode="&#x402;" horiz-adv-x="758" 
d="M268 0h-60v660h-196v54h514v-54h-258v-255q38 16 87 25t97 9q78 0 128.5 -19t80 -49.5t40.5 -70.5t11 -82q0 -47 -14 -86.5t-46 -69t-85.5 -46t-131.5 -16.5h-45v53h56q109 0 156.5 39.5t47.5 123.5q0 40 -10 71.5t-33.5 53.5t-62.5 33.5t-98 11.5q-45 0 -91.5 -8
t-86.5 -24v-354z" />
    <glyph glyph-name="afii10052" unicode="&#x403;" horiz-adv-x="518" 
d="M506 714v-55h-363v-659h-61v714h424zM342 903h79l-127 -129h-63z" />
    <glyph glyph-name="afii10053" unicode="&#x404;" horiz-adv-x="716" 
d="M453 340h-335q2 -67 19.5 -123t49.5 -96t78 -62.5t105 -22.5q54 0 92.5 12t64.5 34.5t41 54t22 70.5h60q-14 -102 -85 -163.5t-195 -61.5q-70 0 -127.5 24t-99 71.5t-64.5 117t-23 160.5q0 92 25 162.5t67.5 118t99 72t120.5 24.5q59 0 105 -15t79.5 -42t54.5 -64.5
t32 -83.5l-58 -13q-20 81 -71 123t-142 42q-55 0 -99.5 -21t-76 -59t-50.5 -90.5t-23 -115.5h334v-53z" />
    <glyph glyph-name="afii10054" unicode="&#x405;" horiz-adv-x="642" 
d="M105 187q16 -80 69 -115.5t158 -35.5q54 0 89.5 12t56.5 32t30 47t9 57q0 25 -5.5 47.5t-21 41t-44.5 32.5t-76 22l-89 15q-52 9 -92.5 23t-68.5 36.5t-42.5 56.5t-14.5 83t20.5 85t55 59.5t81 35t98.5 11.5q67 0 112 -14.5t74 -38.5t45 -54.5t25 -61.5l-56 -16
q-10 31 -23.5 55.5t-36 41.5t-56.5 26t-83 9q-55 0 -92 -10.5t-60 -29t-33 -44t-10 -54.5q0 -30 7 -52t24 -38t45.5 -27t71.5 -19l101 -18q54 -10 93.5 -26t65.5 -40.5t38.5 -58.5t12.5 -80q0 -41 -16 -77.5t-47.5 -63.5t-78.5 -43t-110 -16q-58 0 -107.5 11t-87 35.5
t-61.5 63.5t-30 95h60z" />
    <glyph glyph-name="afii10055" unicode="&#x406;" horiz-adv-x="225" 
d="M82 714h61v-714h-61v714z" />
    <glyph glyph-name="afii10056" unicode="&#x407;" horiz-adv-x="225" 
d="M82 714h61v-714h-61v714zM-3 882h67v-87h-67v87zM161 882h68v-87h-68v87z" />
    <glyph glyph-name="afii10057" unicode="&#x408;" horiz-adv-x="576" 
d="M87 197q5 -34 16.5 -63.5t32 -51t52.5 -34t79 -12.5q96 0 133.5 52t37.5 148v478h61v-484q0 -125 -60.5 -186.5t-169.5 -61.5q-101 0 -165.5 52t-78.5 163h62z" />
    <glyph glyph-name="afii10058" unicode="&#x409;" horiz-adv-x="1081" 
d="M271 376q-14 -111 -37 -184.5t-55 -117t-72.5 -61.5t-88.5 -18h-13v56h12q35 0 65 14.5t54.5 53.5t43.5 108t33 179l38 308h351v-279h183q75 0 123 -18t76.5 -48.5t39.5 -70t11 -81.5q0 -44 -11.5 -83.5t-41 -69t-79.5 -47t-128 -17.5h-233v660h-236zM602 382v-329h184
q54 0 89.5 10t57.5 30.5t31 50.5t9 70q0 38 -8.5 69t-31 53t-63 34t-104.5 12h-164z" />
    <glyph glyph-name="afii10059" unicode="&#x40a;" horiz-adv-x="1045" 
d="M82 714h61v-305h365v305h61v-305h180q75 0 123 -18t76.5 -47t39.5 -65.5t11 -74.5q0 -41 -11.5 -77.5t-41 -65t-79.5 -45t-128 -16.5h-231v354h-365v-354h-61v714zM569 356v-303h181q54 0 89.5 10t57.5 29t31 46.5t9 62.5t-8.5 63.5t-30.5 49t-59.5 31.5t-95.5 11h-174z
" />
    <glyph glyph-name="afii10060" unicode="&#x40b;" horiz-adv-x="736" 
d="M254 387q38 16 78.5 25t86.5 9q65 0 110 -14.5t72.5 -42t40 -68.5t12.5 -93v-203h-60v181q0 48 -8 83t-28 58t-55 34.5t-90 11.5q-42 0 -80.5 -8t-78.5 -24v-336h-61v661h-181v53h499v-53h-257v-274z" />
    <glyph glyph-name="afii10061" unicode="&#x40c;" horiz-adv-x="618" 
d="M203 400q54 0 90.5 30.5t64.5 89.5l43 90q14 30 29.5 50t32.5 32t37.5 17t44.5 5q8 0 16 -1t15 -2q8 -2 15 -3l-6 -52l-10 2t-11 1.5t-14 0.5q-17 0 -30.5 -2.5t-25.5 -10.5t-23 -23t-23 -41l-45 -94q-39 -81 -97 -109q29 -8 50 -29t50 -62l202 -289h-73l-170 245
q-19 28 -35 46.5t-32 30t-35 16.5t-44 5h-77v-343h-60v714h60v-314h61zM364 903h79l-127 -129h-63z" />
    <glyph glyph-name="uni040D" unicode="&#x40d;" horiz-adv-x="676" 
d="M594 0h-59v624l-386 -624h-67v714h60v-623l385 623h67v-714zM206 903h79l111 -129h-63z" />
    <glyph glyph-name="afii10062" unicode="&#x40e;" horiz-adv-x="559" 
d="M40 52q11 -5 31 -11t49 -6q22 0 39.5 6.5t32.5 20t29 35t28 52.5l20 43l-257 522h70l218 -462l182 462h65l-224 -540q-21 -51 -42 -87.5t-45 -60t-54 -34t-69 -10.5q-27 0 -50 6t-37 13zM278 774q-36 0 -63.5 10.5t-45.5 28.5t-27 42t-9 50h48q2 -38 26.5 -63t71.5 -25
t71.5 25t26.5 63h48q0 -26 -9.5 -50t-28 -42t-46 -28.5t-63.5 -10.5z" />
    <glyph glyph-name="afii10145" unicode="&#x40f;" horiz-adv-x="672" 
d="M143 55h386v659h61v-714h-217v-173h-58v173h-233v714h61v-659z" />
    <glyph glyph-name="afii10017" unicode="&#x410;" horiz-adv-x="661" 
d="M295 714h72l282 -714h-66l-86 218h-336l-85 -218h-64zM475 274l-147 373l-145 -373h292z" />
    <glyph glyph-name="afii10018" unicode="&#x411;" horiz-adv-x="621" 
d="M83 714h416v-55h-356v-234h182q74 0 122.5 -17.5t77 -47t39.5 -68.5t11 -81q0 -44 -11.5 -82.5t-41 -67t-79.5 -45t-128 -16.5h-232v714zM143 372v-319h183q54 0 89.5 9.5t57.5 29t31 48.5t9 68q0 37 -9.5 67.5t-33 52t-63.5 33t-101 11.5h-163z" />
    <glyph glyph-name="afii10019" unicode="&#x412;" horiz-adv-x="624" 
d="M82 714h226q75 0 122.5 -14t75.5 -38.5t38.5 -56.5t10.5 -68q0 -54 -25 -94t-84 -65q38 -13 63.5 -31.5t41 -41.5t22 -49.5t6.5 -53.5q0 -42 -13 -79t-43 -64.5t-78 -43t-118 -15.5h-245v714zM317 401q93 0 135.5 33.5t42.5 99.5t-42.5 96.5t-146.5 30.5h-164v-260h175z
M325 54q57 0 93.5 10t58 28.5t30 45t8.5 59.5q0 73 -44 111t-143 38h-186v-292h183z" />
    <glyph glyph-name="afii10020" unicode="&#x413;" horiz-adv-x="518" 
d="M506 714v-55h-363v-659h-61v714h424z" />
    <glyph glyph-name="afii10021" unicode="&#x414;" horiz-adv-x="690" 
d="M58 0v-173h-58v228h52q55 48 95 172t62 344l14 143h381v-659h63v-228h-58v173h-551zM266 541q-10 -97 -24 -174t-31.5 -136t-39 -102.5t-45.5 -73.5h417v605h-265z" />
    <glyph glyph-name="afii10022" unicode="&#x415;" horiz-adv-x="588" 
d="M82 714h449v-55h-388v-262h368v-57h-368v-284h405l-14 -56h-452v714z" />
    <glyph glyph-name="afii10024" unicode="&#x416;" horiz-adv-x="972" 
d="M662 380q15 -4 27 -11t23.5 -18t23.5 -26t26 -36l200 -289h-73l-168 245q-19 28 -35 46.5t-32 30t-35 16.5t-44 5h-59v-343h-60v343h-62q-25 0 -44 -5t-35.5 -16.5t-32.5 -30t-35 -46.5l-168 -245h-69l198 288q28 41 50 62t51 29q-32 14 -55 41t-40 68l-45 104
q-10 23 -19.5 36.5t-20.5 20.5t-24 9t-29 2q-8 0 -15.5 -1t-12.5 -2q-7 -1 -12 -2l-6 52q7 1 16 3q7 2 16 3t17 1q24 0 44 -3.5t36.5 -13.5t31 -28.5t27.5 -49.5l43 -99q26 -60 61.5 -90t89.5 -30h44v314h60v-314h43q54 0 90.5 29.5t63.5 89.5l41 90q28 61 62 83t83 22
q8 0 16 -1t15 -2q8 -2 15 -3l-6 -52l-10 2t-11 1.5t-14 0.5q-17 0 -31 -2.5t-26 -10.5t-23 -23.5t-23 -41.5l-43 -95q-19 -41 -43 -67t-53 -40z" />
    <glyph glyph-name="afii10025" unicode="&#x417;" horiz-adv-x="601" 
d="M103 175q11 -69 59 -104.5t139 -35.5q95 0 140.5 41t45.5 119q0 41 -12 69.5t-33.5 46.5t-52 26t-67.5 8h-116v55h116q65 0 107.5 35.5t42.5 109.5q0 66 -45 99.5t-124 33.5q-43 0 -74.5 -8t-54.5 -24t-38.5 -39.5t-25.5 -54.5l-57 10q7 30 24.5 60.5t48.5 55t76 39.5
t107 15q55 0 97 -14.5t70 -39t42 -57t14 -69.5q0 -57 -24 -102t-79 -71q60 -22 89.5 -69t29.5 -115q0 -46 -15 -85t-46 -67.5t-78 -44.5t-110 -16q-72 0 -120 18t-77.5 45.5t-42 62t-14.5 67.5h58z" />
    <glyph glyph-name="afii10026" unicode="&#x418;" horiz-adv-x="676" 
d="M594 0h-59v624l-386 -624h-67v714h60v-623l385 623h67v-714z" />
    <glyph glyph-name="afii10027" unicode="&#x419;" horiz-adv-x="676" 
d="M594 0h-59v624l-386 -624h-67v714h60v-623l385 623h67v-714zM336 774q-36 0 -63.5 10.5t-45.5 28.5t-27 42t-9 50h48q2 -38 26.5 -63t71.5 -25t71.5 25t26.5 63h48q0 -26 -9.5 -50t-28 -42t-46 -28.5t-63.5 -10.5z" />
    <glyph glyph-name="afii10028" unicode="&#x41a;" horiz-adv-x="618" 
d="M203 400q54 0 90.5 30.5t64.5 89.5l43 90q14 30 29.5 50t32.5 32t37.5 17t44.5 5q8 0 16 -1t15 -2q8 -2 15 -3l-6 -52l-10 2t-11 1.5t-14 0.5q-17 0 -30.5 -2.5t-25.5 -10.5t-23 -23t-23 -41l-45 -94q-39 -81 -97 -109q29 -8 50 -29t50 -62l202 -289h-73l-170 245
q-19 28 -35 46.5t-32 30t-35 16.5t-44 5h-77v-343h-60v714h60v-314h61z" />
    <glyph glyph-name="afii10029" unicode="&#x41b;" horiz-adv-x="711" 
d="M568 660h-262l-35 -284q-14 -111 -37 -184.5t-55 -117t-72.5 -61.5t-88.5 -18h-13v56h12q35 0 65 14.5t54.5 53.5t43.5 108t33 179l38 308h378v-714h-61v660z" />
    <glyph glyph-name="afii10030" unicode="&#x41c;" horiz-adv-x="838" 
d="M82 714h79l258 -643l262 643h75v-714h-57v612q-5 -9 -32 -77q-12 -29 -30 -73.5t-44.5 -109t-62.5 -151.5t-83 -201h-58l-250 608v-608h-57v714z" />
    <glyph glyph-name="afii10031" unicode="&#x41d;" horiz-adv-x="689" 
d="M82 714h61v-316h403v316h61v-714h-61v341h-403v-341h-61v714z" />
    <glyph glyph-name="afii10032" unicode="&#x41e;" horiz-adv-x="756" 
d="M379 -18q-69 0 -128.5 23.5t-102.5 70.5t-67.5 117t-24.5 162t24.5 162.5t68 118t102.5 72t128 24.5t128 -23.5t101.5 -70.5t67 -116.5t24.5 -161.5q0 -93 -24 -163.5t-66.5 -118t-101.5 -72t-129 -24.5zM379 36q63 0 111 23.5t80.5 66t49 101.5t16.5 130t-17 130
t-49.5 101.5t-80.5 66t-110 23.5q-65 0 -113.5 -23.5t-80.5 -66t-48.5 -101.5t-16.5 -130t16 -130t48.5 -101.5t81 -66t113.5 -23.5z" />
    <glyph glyph-name="afii10033" unicode="&#x41f;" horiz-adv-x="678" 
d="M535 659h-392v-659h-61v714h514v-714h-61v659z" />
    <glyph glyph-name="afii10034" unicode="&#x420;" horiz-adv-x="619" 
d="M82 714h230q78 0 128 -16.5t78.5 -44.5t39.5 -65.5t11 -79.5q0 -44 -11.5 -84t-40.5 -70t-79 -47.5t-128 -17.5h-168v-289h-60v714zM311 342q60 0 98 11.5t60 32.5t30 51t8 68q0 40 -9 69t-31.5 48.5t-60.5 29t-96 9.5h-168v-319h169z" />
    <glyph glyph-name="afii10035" unicode="&#x421;" horiz-adv-x="709" 
d="M654 229q-7 -53 -27.5 -98t-55.5 -78t-85 -52t-116 -19q-70 0 -127.5 24t-99 71.5t-64.5 117t-23 160.5q0 92 25 162.5t67.5 118t99 72t120.5 24.5q65 0 112 -17t79.5 -47.5t52.5 -72.5t32 -91l-58 -13q-11 44 -27.5 79t-42 59t-61.5 37t-87 13q-59 0 -105 -24t-78 -67
t-49 -102t-17 -129q0 -71 16.5 -129.5t48 -101.5t78.5 -66.5t108 -23.5q58 0 97.5 14.5t65 40.5t40 61.5t21.5 76.5h60z" />
    <glyph glyph-name="afii10036" unicode="&#x422;" horiz-adv-x="590" 
d="M265 658h-248v56h556v-56h-247v-658h-61v658z" />
    <glyph glyph-name="afii10037" unicode="&#x423;" horiz-adv-x="559" 
d="M40 52q11 -5 31 -11t49 -6q22 0 39.5 6.5t32.5 20t29 35t28 52.5l20 43l-257 522h70l218 -462l182 462h65l-224 -540q-21 -51 -42 -87.5t-45 -60t-54 -34t-69 -10.5q-27 0 -50 6t-37 13z" />
    <glyph glyph-name="afii10038" unicode="&#x424;" horiz-adv-x="808" 
d="M434 663q75 -3 134.5 -23.5t101 -57t64 -88.5t22.5 -118q0 -71 -24.5 -123t-67.5 -86.5t-102 -53t-128 -22.5v-91h-61v91q-69 4 -128 21.5t-102 52t-67.5 86.5t-24.5 124q0 66 22.5 118t64 89t101 57.5t134.5 23.5v81h61v-81zM692 378q0 103 -63.5 166.5t-194.5 69.5
v-474q62 4 110 19t81 43.5t50 72t17 103.5zM115 377q0 -60 17 -103t50 -71.5t81 -43.5t110 -19v474q-68 -3 -116.5 -21t-80 -49t-46.5 -73.5t-15 -93.5z" />
    <glyph glyph-name="afii10039" unicode="&#x425;" horiz-adv-x="613" 
d="M268 378l-234 336h73l199 -295l201 295h65l-233 -341l260 -373h-73l-225 329l-221 -329h-66z" />
    <glyph glyph-name="afii10040" unicode="&#x426;" horiz-adv-x="659" 
d="M82 0v714h61v-659h369v659h61v-659h63v-228h-58v173h-496z" />
    <glyph glyph-name="afii10041" unicode="&#x427;" horiz-adv-x="617" 
d="M474 331q-38 -16 -83.5 -25t-93.5 -9q-67 0 -114 14.5t-76.5 42t-43 68t-13.5 93.5v199h60v-177q0 -48 9 -83t30.5 -58t59 -34.5t94.5 -11.5q90 0 171 32v332h61v-714h-61v331z" />
    <glyph glyph-name="afii10042" unicode="&#x428;" horiz-adv-x="933" 
d="M82 0v714h61v-659h293v659h61v-659h293v659h61v-714h-769z" />
    <glyph glyph-name="afii10043" unicode="&#x429;" horiz-adv-x="937" 
d="M82 0v714h61v-659h293v659h61v-659h293v659h61v-659h63v-228h-58v173h-774z" />
    <glyph glyph-name="afii10044" unicode="&#x42a;" horiz-adv-x="692" 
d="M154 659h-151v55h211v-279h172q78 0 128.5 -18t80 -48.5t40.5 -70t11 -82.5q0 -47 -12.5 -86.5t-43 -68t-82 -45t-129.5 -16.5h-225v659zM214 382v-329h176q54 0 91.5 9.5t60 29.5t32.5 50t10 72q0 40 -10 71.5t-33.5 53t-62.5 32.5t-98 11h-166z" />
    <glyph glyph-name="afii10045" unicode="&#x42b;" horiz-adv-x="824" 
d="M681 714h61v-714h-61v714zM314 435q78 0 128.5 -18t80 -48.5t40.5 -70t11 -82.5q0 -47 -12.5 -86.5t-43 -68t-82 -45t-129.5 -16.5h-225v714h60v-279h172zM142 382v-329h176q54 0 91.5 9.5t60 29.5t32.5 50t10 72q0 40 -10 71.5t-33.5 53t-62.5 32.5t-98 11h-166z" />
    <glyph glyph-name="afii10046" unicode="&#x42c;" horiz-adv-x="632" 
d="M326 435q78 0 128.5 -18t80 -48.5t40.5 -70t11 -82.5q0 -47 -12.5 -86.5t-43 -68t-82 -45t-129.5 -16.5h-237v714h60v-279h184zM142 382v-329h188q54 0 91.5 9.5t60 29.5t32.5 50t10 72q0 40 -10 71.5t-33.5 53t-62.5 32.5t-98 11h-178z" />
    <glyph glyph-name="afii10047" unicode="&#x42d;" horiz-adv-x="710" 
d="M126 207q6 -34 18.5 -65t37.5 -54.5t64.5 -37.5t101.5 -14q120 0 179 78t64 226h-334v53h334q-3 60 -19 112.5t-44.5 91t-70 60.5t-95.5 22q-92 0 -148.5 -38t-83.5 -127l-57 13q13 45 37 83t59 65t82.5 42t109.5 15q63 0 116.5 -24t93 -70t61.5 -114.5t22 -156.5
q0 -93 -21.5 -164.5t-61 -120.5t-94.5 -74.5t-122 -25.5q-81 0 -135 19.5t-86.5 51.5t-47.5 72t-19 82h59z" />
    <glyph glyph-name="afii10048" unicode="&#x42e;" horiz-adv-x="969" 
d="M602 -18q-68 0 -124.5 22.5t-97.5 67t-64.5 112t-24.5 157.5h-148v-341h-61v714h61v-317h149q5 83 29.5 145.5t65 104.5t95.5 63.5t120 21.5q69 0 126 -23.5t98.5 -70t64 -116t22.5 -162.5q0 -94 -22.5 -164.5t-63 -118t-98 -71.5t-127.5 -24zM602 36q63 0 109 23t77 65
t46 101.5t15 131.5t-15.5 131t-46 101.5t-77 65.5t-108.5 23q-65 0 -112 -23t-78 -65.5t-46 -101.5t-15 -131t15 -131.5t45.5 -101.5t78 -65t112.5 -23z" />
    <glyph glyph-name="afii10049" unicode="&#x42f;" horiz-adv-x="647" 
d="M40 0l104 223q15 32 34 58.5t52 44.5l-13 5q-69 25 -99.5 71t-30.5 108q0 40 12.5 76.5t42.5 65t80 45.5t125 17h218v-714h-60v312h-142q-62 0 -101.5 -29t-66.5 -89l-88 -194h-67zM505 364v297h-161q-56 0 -93 -10.5t-60 -29.5t-32.5 -45t-9.5 -57q0 -75 48 -115
t136 -40h172z" />
    <glyph glyph-name="afii10065" unicode="&#x430;" horiz-adv-x="526" 
d="M398 73q-13 -16 -31 -31.5t-41 -27.5t-50.5 -19t-60.5 -7q-81 0 -130 40t-49 117q0 52 22 85t58.5 52.5t83 27.5t96.5 10l100 4v16q0 76 -29.5 111.5t-105.5 35.5q-37 0 -62.5 -6t-42.5 -17.5t-27 -27t-15 -34.5l-53 8q28 126 202 126q54 0 91 -13t59.5 -38t32.5 -60.5
t10 -81.5v-343h-58v73zM397 278l-95 -4q-58 -2 -97 -11t-63 -24.5t-34.5 -38.5t-10.5 -54q0 -47 26.5 -76.5t92.5 -29.5q76 0 120 33q18 13 29.5 25.5t18.5 27t10 32.5t3 42v78z" />
    <glyph glyph-name="afii10066" unicode="&#x431;" horiz-adv-x="584" 
d="M309 440q-36 0 -69 -12t-58 -36q-26 -25 -42.5 -57t-16.5 -74q0 -52 9.5 -94t31 -72t55.5 -46.5t82 -16.5q44 0 75.5 15t52 42t30 65.5t9.5 86.5q0 92 -37.5 145.5t-121.5 53.5zM474 679l-89 -16q-45 -8 -77.5 -18t-56 -21t-39.5 -23t-29 -25q-29 -31 -47.5 -83.5
t-21.5 -118.5q33 53 82 84.5t117 31.5q49 0 89 -16t68.5 -47.5t44 -77.5t15.5 -106q0 -57 -14 -104.5t-42.5 -82.5t-72 -54.5t-101.5 -19.5q-70 0 -117 26t-75 69.5t-40 101.5t-12 121q0 68 6.5 117t18.5 84.5t28.5 61.5t37.5 48q32 34 90 61t153 43l77 13z" />
    <glyph glyph-name="afii10067" unicode="&#x432;" horiz-adv-x="533" 
d="M70 521h211q59 0 96.5 -12t59 -31t29.5 -42.5t8 -46.5q0 -40 -17.5 -70.5t-60.5 -48.5q50 -14 72.5 -48.5t22.5 -74.5q0 -31 -10 -57.5t-33.5 -46.5t-60.5 -31.5t-91 -11.5h-226v521zM289 293q66 0 96 22.5t30 67.5t-32 67t-102 22h-153v-179h161zM295 49q74 0 105 24.5
t31 71.5q0 48 -34 73.5t-100 25.5h-169v-195h167z" />
    <glyph glyph-name="afii10068" unicode="&#x433;" horiz-adv-x="413" 
d="M403 521v-52h-275v-469h-58v521h333z" />
    <glyph glyph-name="afii10069" unicode="&#x434;" horiz-adv-x="547" 
d="M470 521v-470h59v-191h-53v140h-418v-140h-53v191h48q18 19 34 47.5t29.5 71.5t24 103.5t17.5 143.5l9 104h303zM210 392q-7 -71 -16 -125.5t-20 -95t-24.5 -70t-29.5 -50.5h292v420h-194z" />
    <glyph glyph-name="afii10070" unicode="&#x435;" horiz-adv-x="560" 
d="M500 135q-12 -67 -64 -109t-148 -42q-55 0 -98.5 19t-73.5 54t-46 85.5t-16 112.5q0 68 17.5 120.5t49 88.5t74 54.5t93.5 18.5q60 0 102 -20t68.5 -54.5t38.5 -80.5t12 -99v-37h-396q0 -44 11 -83t33 -68t55 -46t76 -17q39 0 66 7.5t45 21.5t28.5 32.5t16.5 41.5h56z
M449 296q0 43 -9 79t-28 61.5t-50 39.5t-74 14q-75 0 -120 -48t-54 -146h335z" />
    <glyph glyph-name="afii10072" unicode="&#x436;" horiz-adv-x="731" 
d="M338 287v234h56v-234h26q42 0 67 18t44 60l32 70q20 44 43.5 65t70.5 21q7 0 14 -1t12 -2l12 -2l-6 -47l-10 2t-11 1.5t-11 0.5q-30 0 -43 -14.5t-24 -40.5l-33 -73q-13 -29 -29 -46t-38 -29q20 -8 35 -23t32 -38l144 -209h-70l-132 193q-18 26 -37.5 37.5t-54.5 11.5
h-33v-242h-56v242h-35q-35 0 -55.5 -11.5t-38.5 -37.5l-132 -193h-67l144 209q17 23 32 37.5t35 22.5q-21 8 -37.5 26t-31.5 50l-37 80q-5 12 -10 21t-11 15t-14.5 9t-21.5 3q-6 0 -11.5 -0.5t-10.5 -1.5t-11 -2l-6 47l12 2q5 1 12 2t15 1q25 0 41.5 -5t28.5 -15.5t21 -26.5
t19 -38l32 -71q19 -42 45 -60t65 -18h28z" />
    <glyph glyph-name="afii10073" unicode="&#x437;" horiz-adv-x="509" 
d="M255 537q50 0 86.5 -11t60 -30t34.5 -44t11 -53q0 -46 -25 -77.5t-62 -46.5q48 -15 73.5 -49.5t25.5 -85.5q0 -32 -12 -60.5t-37.5 -49.5t-66 -33.5t-96.5 -12.5q-45 0 -82.5 9t-65 28t-44 48.5t-20.5 71.5h56q11 -59 49 -83.5t110 -24.5q82 0 115 30t33 78
q0 51 -34.5 79t-97.5 28h-103v48h107q59 0 88.5 26t29.5 70q0 47 -33 71.5t-102 24.5q-40 0 -66.5 -6t-44 -18t-28.5 -30t-19 -41l-51 11q7 28 21.5 52t39 42t61.5 28.5t89 10.5z" />
    <glyph glyph-name="afii10074" unicode="&#x438;" horiz-adv-x="552" 
d="M482 0h-56v438l-295 -438h-61v521h56v-438l293 438h63v-521z" />
    <glyph glyph-name="afii10075" unicode="&#x439;" horiz-adv-x="552" 
d="M482 0h-56v438l-295 -438h-61v521h56v-438l293 438h63v-521zM270 590q-36 0 -63.5 10.5t-45.5 28.5t-27 42t-9 50h48q2 -38 26.5 -63t71.5 -25t71.5 25t26.5 63h48q0 -26 -9.5 -50t-28 -42t-46 -28.5t-63.5 -10.5z" />
    <glyph glyph-name="afii10076" unicode="&#x43a;" horiz-adv-x="479" 
d="M128 242v-242h-58v521h58v-234h39q42 0 67 18t44 60l32 70q20 44 44 65t71 21q7 0 14 -1t12 -2l12 -2l-6 -47l-10 2t-11 1.5t-11 0.5q-30 0 -43 -14.5t-24 -40.5l-33 -73q-13 -29 -29 -46t-38 -29q20 -8 35 -23t32 -38l144 -209h-70l-132 193q-18 26 -37.5 37.5
t-54.5 11.5h-47z" />
    <glyph glyph-name="afii10077" unicode="&#x43b;" horiz-adv-x="557" 
d="M429 471h-202l-24 -199q-9 -75 -24.5 -128t-38.5 -86t-55 -48t-74 -15h-11v51h8q28 0 50.5 10.5t40 39.5t30.5 80t22 132l24 213h312v-521h-58v471z" />
    <glyph glyph-name="afii10078" unicode="&#x43c;" horiz-adv-x="688" 
d="M71 521h80l190 -463l196 463h80v-521h-56v448l-195 -448h-56l-183 440v-440h-56v521z" />
    <glyph glyph-name="afii10079" unicode="&#x43d;" horiz-adv-x="566" 
d="M70 521h58v-222h310v222h58v-521h-58v248h-310v-248h-58v521z" />
    <glyph glyph-name="afii10080" unicode="&#x43e;" horiz-adv-x="593" 
d="M296 34q49 0 83 17.5t56 48t32 72t10 90.5q0 47 -10 88t-32 71.5t-56 48t-83 17.5q-48 0 -82.5 -17.5t-56 -48t-31.5 -71.5t-10 -89t10 -89.5t31.5 -72t56 -48t82.5 -17.5zM294 -16q-57 0 -101.5 19.5t-75 55.5t-47 86.5t-16.5 112.5q0 63 17.5 114t49 88t76.5 57t101 20
t101 -19.5t76 -55.5t47.5 -86.5t16.5 -111.5q0 -63 -17 -114.5t-48.5 -88.5t-77 -57t-102.5 -20z" />
    <glyph glyph-name="afii10081" unicode="&#x43f;" horiz-adv-x="552" 
d="M424 469h-296v-469h-58v521h412v-521h-58v469z" />
    <glyph glyph-name="afii10082" unicode="&#x440;" horiz-adv-x="583" 
d="M70 521h58v-77q35 44 77 68.5t102 24.5q57 0 98.5 -21t69 -57.5t41 -86t13.5 -106.5q0 -66 -16.5 -118.5t-46.5 -89t-72.5 -55.5t-95.5 -19q-47 0 -90.5 19t-79.5 67v-264h-58v715zM126 240q0 -34 3.5 -60t12 -46t21.5 -36t32 -30q24 -17 47.5 -25.5t54.5 -8.5
q37 0 68 12.5t53.5 40t35.5 71.5t13 107q0 64 -14.5 106.5t-37.5 68t-52 36.5t-57 11q-31 0 -56 -7t-50 -26q-35 -26 -54.5 -67t-19.5 -102v-45z" />
    <glyph glyph-name="afii10083" unicode="&#x441;" horiz-adv-x="554" 
d="M506 168q-15 -87 -69 -135.5t-147 -48.5q-56 0 -100 19t-74 54.5t-46 86t-16 114.5q0 63 17 114.5t48 88t75.5 56.5t100.5 20q85 0 135.5 -43.5t66.5 -122.5l-56 -14q-6 28 -17 52t-28 41t-42.5 27t-60.5 10q-47 0 -80 -17t-55 -47t-32 -71.5t-10 -90.5t10 -90.5t31 -72
t54.5 -47.5t80.5 -17q75 0 109.5 36.5t46.5 97.5h58z" />
    <glyph glyph-name="afii10084" unicode="&#x442;" horiz-adv-x="450" 
d="M197 470h-187v51h430v-51h-185v-470h-58v470z" />
    <glyph glyph-name="afii10085" unicode="&#x443;" horiz-adv-x="500" 
d="M53 -128q12 -5 28.5 -9.5t32.5 -4.5t28 4t22 14.5t19.5 27t20.5 42.5l25 59l-223 516h68l187 -447l169 447h64l-235 -589q-23 -59 -55 -92.5t-84 -33.5q-32 0 -48.5 4.5t-32.5 10.5z" />
    <glyph glyph-name="afii10086" unicode="&#x444;" horiz-adv-x="740" 
d="M341 1q-77 4 -131.5 23t-89 52t-50.5 78.5t-16 101.5q0 54 21 100t58.5 80t90.5 54.5t117 23.5v200h56v-200q76 -4 130 -24t89 -53t51.5 -78.5t16.5 -100.5q0 -56 -21 -101.5t-58.5 -79.5t-90.5 -54t-117 -23v-194h-56v195zM116 261q0 -106 56 -156.5t169 -55.5v416
q-103 -7 -164 -58.5t-61 -145.5zM622 254q0 105 -57 155.5t-168 55.5v-416q103 7 164 58.5t61 146.5z" />
    <glyph glyph-name="afii10087" unicode="&#x445;" horiz-adv-x="480" 
d="M205 277l-175 244h68l143 -205l144 205h63l-171 -246l193 -275h-68l-163 234l-161 -234h-65z" />
    <glyph glyph-name="afii10088" unicode="&#x446;" horiz-adv-x="544" 
d="M70 0v521h58v-470h281v470h58v-470h59v-191h-53v140h-403z" />
    <glyph glyph-name="afii10089" unicode="&#x447;" horiz-adv-x="499" 
d="M371 221q-30 -12 -68 -19t-77 -7q-53 0 -88.5 14t-57.5 37t-31 54t-9 66v155h56v-135q0 -73 31.5 -107t108.5 -34q72 0 135 25v251h58v-521h-58v221z" />
    <glyph glyph-name="afii10090" unicode="&#x448;" horiz-adv-x="783" 
d="M70 0v521h58v-470h234v470h58v-470h235v470h58v-521h-643z" />
    <glyph glyph-name="afii10091" unicode="&#x449;" horiz-adv-x="789" 
d="M712 51h59v-191h-53v140h-648v521h58v-470h234v470h58v-470h234v470h58v-470z" />
    <glyph glyph-name="afii10092" unicode="&#x44a;" horiz-adv-x="557" 
d="M0 521h179v-205h172q46 0 79.5 -12t55 -33t31.5 -49.5t10 -62.5q0 -75 -48.5 -117t-137.5 -42h-220v472h-121v49zM179 49h168q62 0 90.5 27.5t28.5 78.5q0 55 -27 83.5t-99 28.5h-161v-218z" />
    <glyph glyph-name="afii10093" unicode="&#x44b;" horiz-adv-x="676" 
d="M548 521h58v-521h-58v521zM128 521v-205h172q47 0 80.5 -12t54.5 -33t31 -49.5t10 -61.5q0 -71 -46 -115.5t-144 -44.5h-216v521h58zM128 49h166q65 0 93 28t28 79q0 54 -27 82.5t-99 28.5h-161v-218z" />
    <glyph glyph-name="afii10094" unicode="&#x44c;" horiz-adv-x="518" 
d="M128 521v-205h185q46 0 79 -12t54.5 -33t31.5 -49.5t10 -61.5q0 -71 -47 -115.5t-142 -44.5h-229v521h58zM128 49h176q65 0 94 26.5t29 80.5q0 26 -6 46.5t-20 35t-38.5 22t-61.5 7.5h-173v-218z" />
    <glyph glyph-name="afii10095" unicode="&#x44d;" horiz-adv-x="549" 
d="M194 290h240q-7 94 -48 145.5t-116 51.5q-67 0 -102 -25.5t-55 -82.5l-54 12q20 66 72 106t141 40q55 0 97 -21t70 -57.5t42 -87t14 -110.5q0 -59 -14.5 -109.5t-44 -88t-73 -58.5t-100.5 -21q-51 0 -89 13.5t-63.5 36.5t-39 53t-16.5 63h56q3 -24 12.5 -45t27.5 -37
t47 -25t71 -9t72.5 16t50.5 43.5t30.5 65.5t12.5 82h-241v49z" />
    <glyph glyph-name="afii10096" unicode="&#x44e;" horiz-adv-x="765" 
d="M476 -16q-53 0 -95 18t-71 51t-45.5 80t-18.5 106h-118v-239h-58v521h58v-233h119q4 57 21.5 103t47.5 78.5t71.5 50t92.5 17.5q55 0 98 -19.5t72.5 -55t45 -86t15.5 -112.5q0 -64 -16 -115.5t-46 -88t-73.5 -56.5t-99.5 -20zM478 34q47 0 79.5 17.5t53 48t29.5 72.5
t9 90q0 47 -9 88t-29.5 71.5t-53 48t-79.5 17.5t-79.5 -17.5t-53 -48t-30 -71.5t-9.5 -89t9.5 -89.5t30 -72t53 -48t79.5 -17.5z" />
    <glyph glyph-name="afii10097" unicode="&#x44f;" horiz-adv-x="531" 
d="M30 0l100 173q11 20 23.5 35t25.5 23q-7 1 -16 5q-49 17 -71.5 53t-22.5 84q0 28 9 55t31.5 47.5t59.5 33t94 12.5h198v-521h-58v223h-97q-28 0 -46 -3t-31.5 -10.5t-24 -21t-22.5 -35.5l-85 -153h-67zM403 272v200h-137q-72 0 -104 -23t-32 -71q0 -56 31.5 -81t96.5 -25
h145z" />
    <glyph glyph-name="uni0450" unicode="&#x450;" horiz-adv-x="560" 
d="M500 135q-12 -67 -64 -109t-148 -42q-55 0 -98.5 19t-73.5 54t-46 85.5t-16 112.5q0 68 17.5 120.5t49 88.5t74 54.5t93.5 18.5q60 0 102 -20t68.5 -54.5t38.5 -80.5t12 -99v-37h-396q0 -44 11 -83t33 -68t55 -46t76 -17q39 0 66 7.5t45 21.5t28.5 32.5t16.5 41.5h56z
M449 296q0 43 -9 79t-28 61.5t-50 39.5t-74 14q-75 0 -120 -48t-54 -146h335zM166 724h78l111 -134h-62z" />
    <glyph glyph-name="afii10071" unicode="&#x451;" horiz-adv-x="560" 
d="M500 135q-12 -67 -64 -109t-148 -42q-55 0 -98.5 19t-73.5 54t-46 85.5t-16 112.5q0 68 17.5 120.5t49 88.5t74 54.5t93.5 18.5q60 0 102 -20t68.5 -54.5t38.5 -80.5t12 -99v-37h-396q0 -44 11 -83t33 -68t55 -46t76 -17q39 0 66 7.5t45 21.5t28.5 32.5t16.5 41.5h56z
M449 296q0 43 -9 79t-28 61.5t-50 39.5t-74 14q-75 0 -120 -48t-54 -146h335zM167 704h65v-85h-65v85zM327 704h66v-85h-66v85z" />
    <glyph glyph-name="afii10099" unicode="&#x452;" horiz-adv-x="580" 
d="M0 631h92v83h58v-83h191v-44h-191v-177q42 53 89.5 76.5t101.5 23.5q88 0 130 -49t42 -139v-330q0 -35 -3.5 -67t-16 -56.5t-37 -39.5t-67.5 -15q-34 0 -54.5 4.5t-35.5 10.5l12 49q14 -5 31 -8.5t42 -3.5q41 0 56 25t15 66v349q0 81 -29 116.5t-92 35.5
q-30 0 -63.5 -11.5t-60.5 -36.5q-30 -26 -45 -53.5t-15 -75.5v-281h-58v587h-92v44z" />
    <glyph glyph-name="afii10100" unicode="&#x453;" horiz-adv-x="413" 
d="M403 521v-52h-275v-469h-58v521h333zM277 724h78l-127 -134h-62z" />
    <glyph glyph-name="afii10101" unicode="&#x454;" horiz-adv-x="549" 
d="M355 241h-241q1 -45 11.5 -83t32 -65.5t54.5 -43t80 -15.5q62 0 101 28.5t50 87.5h55q-12 -78 -68 -122t-141 -44q-58 0 -102 19t-73.5 54.5t-44.5 85t-15 110.5q0 63 16 115t47 89.5t76 58.5t103 21q84 0 130 -38.5t64 -107.5l-54 -12q-6 23 -16.5 43t-27.5 34.5
t-41.5 22.5t-59.5 8q-43 0 -74.5 -15t-53 -41.5t-33.5 -62.5t-15 -78h240v-49z" />
    <glyph glyph-name="afii10102" unicode="&#x455;" horiz-adv-x="514" 
d="M101 143q11 -60 51 -85t114 -25q75 0 106 29t31 71q0 18 -4 33.5t-15.5 28.5t-33 22t-55.5 15l-63 10q-41 7 -73.5 17.5t-55 27.5t-34 42t-11.5 61q0 34 15 61.5t41 46.5t61.5 29t76.5 10q53 0 88.5 -10.5t58 -28.5t35 -42t19.5 -51l-53 -11q-8 23 -18.5 40.5t-26.5 29
t-40 17.5t-60 6q-40 0 -67 -8t-43.5 -21t-23.5 -30t-7 -35t4 -33t16 -26.5t33.5 -20t56.5 -14.5l79 -13q81 -14 121 -48.5t40 -105.5q0 -30 -12.5 -57t-37 -47.5t-61.5 -32t-85 -11.5q-47 0 -86.5 9t-68.5 28t-47 49t-22 73h57z" />
    <glyph glyph-name="afii10103" unicode="&#x456;" horiz-adv-x="204" 
d="M73 521h58v-521h-58v521zM69 714h66v-87h-66v87z" />
    <glyph glyph-name="afii10104" unicode="&#x457;" horiz-adv-x="204" 
d="M73 521h58v-521h-58v521zM-11 704h65v-85h-65v85zM149 704h66v-85h-66v85z" />
    <glyph glyph-name="afii10105" unicode="&#x458;" horiz-adv-x="204" 
d="M-71 -122q14 -5 31 -8.5t42 -3.5q41 0 56 25t15 66v564h58v-529q0 -35 -3.5 -67t-16 -56.5t-37 -39.5t-67.5 -15q-34 0 -54.5 4.5t-35.5 10.5zM69 714h66v-87h-66v87z" />
    <glyph glyph-name="afii10106" unicode="&#x459;" horiz-adv-x="837" 
d="M203 272q-9 -75 -24.5 -128t-38.5 -86t-55 -48t-74 -15h-11v51h8q28 0 50.5 10.5t40 39.5t30.5 80t22 132l24 213h291v-205h166q46 0 79 -12t54.5 -33t31.5 -49.5t10 -61.5q0 -71 -47 -115.5t-142 -44.5h-210v471h-181zM466 49h157q65 0 94 26.5t29 80.5q0 26 -6 46.5
t-20 35t-38.5 22t-61.5 7.5h-154v-218z" />
    <glyph glyph-name="afii10107" unicode="&#x45a;" horiz-adv-x="837" 
d="M70 521h58v-210h280v210h58v-211h166q46 0 79 -11.5t54.5 -32t31.5 -48.5t10 -61q0 -72 -46.5 -114.5t-142.5 -42.5h-210v260h-280v-260h-58v521zM466 49h157q65 0 94 26.5t29 77.5q0 26 -6 46t-20 34t-38.5 21t-61.5 7h-154v-212z" />
    <glyph glyph-name="afii10108" unicode="&#x45b;" horiz-adv-x="587" 
d="M0 631h99v83h58v-83h211v-44h-211v-177q42 53 89.5 76.5t101.5 23.5q88 0 130 -49t42 -139v-322h-58v306q0 81 -29 116.5t-92 35.5q-30 0 -63.5 -11.5t-60.5 -36.5q-30 -26 -45 -53.5t-15 -75.5v-281h-58v587h-99v44z" />
    <glyph glyph-name="afii10109" unicode="&#x45c;" horiz-adv-x="479" 
d="M128 242v-242h-58v521h58v-234h39q42 0 67 18t44 60l32 70q20 44 44 65t71 21q7 0 14 -1t12 -2l12 -2l-6 -47l-10 2t-11 1.5t-11 0.5q-30 0 -43 -14.5t-24 -40.5l-33 -73q-13 -29 -29 -46t-38 -29q20 -8 35 -23t32 -38l144 -209h-70l-132 193q-18 26 -37.5 37.5
t-54.5 11.5h-47zM298 724h78l-127 -134h-62z" />
    <glyph glyph-name="uni045D" unicode="&#x45d;" horiz-adv-x="552" 
d="M482 0h-56v438l-295 -438h-61v521h56v-438l293 438h63v-521zM149 724h78l111 -134h-62z" />
    <glyph glyph-name="afii10110" unicode="&#x45e;" horiz-adv-x="500" 
d="M53 -128q12 -5 28.5 -9.5t32.5 -4.5t28 4t22 14.5t19.5 27t20.5 42.5l25 59l-223 516h68l187 -447l169 447h64l-235 -589q-23 -59 -55 -92.5t-84 -33.5q-32 0 -48.5 4.5t-32.5 10.5zM251 590q-36 0 -63.5 10.5t-45.5 28.5t-27 42t-9 50h48q2 -38 26.5 -63t71.5 -25
t71.5 25t26.5 63h48q0 -26 -9.5 -50t-28 -42t-46 -28.5t-63.5 -10.5z" />
    <glyph glyph-name="afii10193" unicode="&#x45f;" horiz-adv-x="552" 
d="M424 521h58v-521h-179v-140h-53v140h-180v521h58v-469h296v469z" />
    <glyph glyph-name="uni0462" unicode="&#x462;" horiz-adv-x="719" 
d="M417 53q54 0 91.5 9.5t60 29.5t32.5 50t10 72q0 40 -10 71.5t-33.5 53t-62.5 32.5t-98 11h-167v-329h177zM180 0v586h-168v51h168v105h60v-105h247v-51h-247v-151h173q78 0 128.5 -18t80 -48.5t40.5 -70t11 -82.5q0 -47 -12.5 -86.5t-43 -68t-82 -45t-129.5 -16.5h-226z
" />
    <glyph glyph-name="uni0463" unicode="&#x463;" horiz-adv-x="591" 
d="M137 732h58v-217h222v-48h-222v-151h185q46 0 79 -12t54.5 -33t31.5 -49.5t10 -61.5q0 -71 -47 -115.5t-142 -44.5h-229v467h-129v48h129v217zM195 49h176q65 0 94 26.5t29 80.5q0 26 -6 46.5t-20 35t-38.5 22t-61.5 7.5h-173v-218z" />
    <glyph glyph-name="uni0472" unicode="&#x472;" horiz-adv-x="756" 
d="M379 -18q-69 0 -128.5 23.5t-102.5 70.5t-67.5 117t-24.5 162t24.5 162.5t68 118t102.5 72t128 24.5t128 -23.5t101.5 -70.5t67 -116.5t24.5 -161.5q0 -93 -24 -163.5t-66.5 -118t-101.5 -72t-129 -24.5zM525 287q-44 0 -81 15.5t-70.5 34t-67 34t-70.5 15.5
q-32 0 -61 -10.5t-55 -30.5q1 -69 18 -125.5t49 -97.5t80 -63.5t112 -22.5q58 0 103.5 20.5t78 57.5t51 89.5t23.5 115.5q-25 -15 -52.5 -23.5t-57.5 -8.5zM379 678q-60 0 -106 -20.5t-78 -57t-51 -88t-23 -113.5q26 17 55.5 27.5t63.5 10.5q43 0 79.5 -15.5t70 -34
t67.5 -34t72 -15.5q28 0 55 9t52 25q-2 68 -19.5 124t-50.5 96.5t-80 63t-107 22.5z" />
    <glyph glyph-name="uni0473" unicode="&#x473;" horiz-adv-x="593" 
d="M294 -16q-57 0 -101.5 19.5t-75 55.5t-47 86.5t-16.5 112.5q0 63 17.5 114t49 88t76.5 57t101 20t101 -19.5t76 -55.5t47.5 -86.5t16.5 -111.5q0 -63 -17 -114.5t-48.5 -88.5t-77 -57t-102.5 -20zM296 34q44 0 76.5 14t54.5 39t34.5 60t16.5 76q-37 -20 -80 -20
q-30 0 -55.5 11t-49 24.5t-47.5 24.5t-52 11q-44 0 -81 -22q1 -47 12 -86.5t33 -69t56.5 -46t81.5 -16.5zM400 251q23 0 42 5t38 16q-1 46 -12 85t-33.5 68t-57 45.5t-81.5 16.5q-44 0 -76 -14t-54.5 -39t-35 -59.5t-16.5 -74.5q19 10 39.5 15.5t42.5 5.5q34 0 60 -11
t49 -24t45.5 -24t49.5 -11z" />
    <glyph glyph-name="uni0474" unicode="&#x474;" horiz-adv-x="739" 
d="M14 714h70l242 -645l191 539q12 33 27.5 55.5t34 36t40 19t44.5 5.5q57 0 96 -32l-26 -47q-17 13 -32.5 19t-35.5 6q-34 0 -55.5 -19t-39.5 -69l-212 -582h-66z" />
    <glyph glyph-name="uni0475" unicode="&#x475;" horiz-adv-x="566" 
d="M6 521h67l175 -458l137 377q33 91 118 91q26 0 44 -6t35 -20l-24 -45q-14 10 -25 13.5t-26 3.5q-27 0 -42.5 -13.5t-29.5 -51.5l-153 -412h-68z" />
    <glyph glyph-name="uni048A" unicode="&#x48a;" horiz-adv-x="674" 
d="M535 0v624l-386 -624h-67v714h60v-623l385 623h67v-659h57q0 -43 -9 -79.5t-25 -66t-36.5 -52.5t-44.5 -39l-35 44q32 25 54 59t31 79h-51zM336 774q-36 0 -63.5 10.5t-45.5 28.5t-27 42t-9 50h48q2 -38 26.5 -63t71.5 -25t71.5 25t26.5 63h48q0 -26 -9.5 -50t-28 -42
t-46 -28.5t-63.5 -10.5z" />
    <glyph glyph-name="uni048B" unicode="&#x48b;" horiz-adv-x="553" 
d="M483 51h52q0 -41 -7.5 -71t-20.5 -52.5t-30.5 -39.5t-37.5 -30l-28 38q54 42 67 104h-51v438l-295 -438h-61v521h56v-438l293 438h63v-470zM270 589q-36 0 -63.5 10.5t-45.5 28.5t-27 42t-9 50h48q2 -38 26.5 -63t71.5 -25t71.5 25t26.5 63h48q0 -26 -9.5 -50t-28 -42
t-46 -28.5t-63.5 -10.5z" />
    <glyph glyph-name="uni048C" unicode="&#x48c;" horiz-adv-x="630" 
d="M10 610h82v104h60v-104h195v-51h-195v-134h181q75 0 123.5 -17.5t77 -47t39.5 -68.5t11 -81q0 -44 -11.5 -82.5t-41 -67t-80 -45t-128.5 -16.5h-231v559h-82v51zM152 372v-319h182q52 0 88 9.5t58.5 28.5t32 48t9.5 69q0 39 -9 69.5t-32.5 51.5t-64 32t-102.5 11h-162z
" />
    <glyph glyph-name="uni048D" unicode="&#x48d;" horiz-adv-x="558" 
d="M10 454h101v77h57v-77h194v-48h-194v-95h185q46 0 79 -11.5t54.5 -32t31.5 -48.5t10 -60q0 -69 -47 -114t-142 -45h-228v406h-101v48zM168 49h176q65 0 94 27t29 81q0 25 -6 45t-20 33.5t-38.5 20.5t-61.5 7h-173v-214z" />
    <glyph glyph-name="uni048E" unicode="&#x48e;" horiz-adv-x="619" 
d="M82 714h230q78 0 128 -16.5t78.5 -44.5t39.5 -65.5t11 -79.5q0 -31 -5.5 -60t-18.5 -54t-34.5 -45.5t-53.5 -34.5l56 -88l-44 -28l-64 100q-41 -9 -95 -9h-168v-289h-60v714zM347 489l81 -129q47 19 63 56t16 89q0 40 -9 69t-31.5 48.5t-60.5 29t-96 9.5h-168v-319h169
q18 0 34 1t30 3l-72 115z" />
    <glyph glyph-name="uni048F" unicode="&#x48f;" horiz-adv-x="583" 
d="M70 521h58v-77q35 44 77 68.5t102 24.5q57 0 98.5 -21t69 -57.5t41 -86t13.5 -106.5q0 -84 -25 -144.5t-71 -95.5l60 -94l-41 -26l-61 96q-42 -18 -93 -18q-47 0 -90.5 19t-79.5 67v-264h-58v715zM327 194l77 -123q29 26 46 73.5t17 120.5q0 64 -14.5 106.5t-37.5 68
t-52 36.5t-57 11q-31 0 -56 -7t-50 -26q-35 -26 -54.5 -67t-19.5 -102v-45q0 -34 3.5 -60t12 -46.5t21.5 -36.5t32 -29q23 -18 47 -26t55 -8q36 0 66 12l-77 123z" />
    <glyph glyph-name="afii10050" unicode="&#x490;" horiz-adv-x="518" 
d="M506 813v-154h-363v-659h-61v714h366v99h58z" />
    <glyph glyph-name="afii10098" unicode="&#x491;" horiz-adv-x="413" 
d="M350 521v85h53v-137h-275v-469h-58v521h280z" />
    <glyph glyph-name="uni0492" unicode="&#x492;" horiz-adv-x="538" 
d="M526 714v-55h-363v-265h219v-55h-219v-339h-61v339h-92v55h92v320h424z" />
    <glyph glyph-name="uni0493" unicode="&#x493;" horiz-adv-x="433" 
d="M423 521v-52h-275v-177h168v-50h-168v-242h-58v242h-71v50h71v229h333z" />
    <glyph glyph-name="uni0494" unicode="&#x494;" horiz-adv-x="624" 
d="M142 405q38 16 83.5 25t93.5 9q76 0 126 -24.5t79.5 -66t41.5 -96t12 -113.5q0 -62 -15 -116t-48.5 -95t-87.5 -64.5t-132 -23.5h-39v53h50q109 0 159.5 65.5t50.5 178.5q0 58 -10.5 104.5t-34.5 78.5t-62.5 49t-95.5 17q-90 0 -171 -32v-354h-60v714h395v-55h-335v-254z
" />
    <glyph glyph-name="uni0495" unicode="&#x495;" horiz-adv-x="512" 
d="M70 0v521h341v-52h-283v-188q33 14 67 21.5t72 7.5q62 0 103 -19.5t66 -53.5t35 -79.5t10 -97.5q0 -54 -13 -101.5t-42 -83t-74.5 -56.5t-110.5 -21h-34v49h40q90 0 131.5 56.5t41.5 154.5q0 102 -34.5 152t-123.5 50q-35 0 -67 -7t-67 -21v-232h-58z" />
    <glyph glyph-name="uni0496" unicode="&#x496;" horiz-adv-x="1003" 
d="M309 379q-32 14 -55 41t-40 68l-45 104q-10 23 -19.5 36.5t-20.5 20.5t-24 9t-29 2q-8 0 -15.5 -1t-12.5 -2q-7 -1 -12 -2l-6 52q7 1 16 3q7 2 16 3t17 1q24 0 44 -3.5t36.5 -13.5t31 -28.5t27.5 -49.5l43 -99q26 -60 61.5 -90t89.5 -30h44v314h60v-314h43
q54 0 90.5 29.5t63.5 89.5l41 90q28 61 62 83t83 22q8 0 16 -1t15 -2q8 -2 15 -3l-6 -52l-10 2t-11 1.5t-14 0.5q-17 0 -31 -2.5t-26 -10.5t-23 -23.5t-23 -41.5l-43 -95q-19 -41 -43 -67t-53 -40q15 -4 27 -11t23.5 -18t23.5 -26t26 -36l162 -234h56v-228h-58v173h-33
l-168 245q-19 28 -35 46.5t-32 30t-35 16.5t-44 5h-59v-343h-60v343h-62q-25 0 -44 -5t-35.5 -16.5t-32.5 -30t-35 -46.5l-168 -245h-69l198 288q28 41 50 62t51 29z" />
    <glyph glyph-name="uni0497" unicode="&#x497;" horiz-adv-x="755" 
d="M338 287v234h56v-234h26q42 0 67 18t44 60l32 70q20 44 43.5 65t70.5 21q7 0 14 -1t12 -2l12 -2l-6 -47l-10 2t-11 1.5t-11 0.5q-30 0 -43 -14.5t-24 -40.5l-33 -73q-13 -29 -29 -46t-38 -29q20 -8 35 -23t32 -38l109 -158h51v-191h-53v140h-33l-132 193
q-18 26 -37.5 37.5t-54.5 11.5h-33v-242h-56v242h-35q-35 0 -55.5 -11.5t-38.5 -37.5l-132 -193h-67l144 209q17 23 32 37.5t35 22.5q-21 8 -38 26t-31 50l-36 78q-11 25 -21.5 37.5t-36.5 12.5q-6 0 -11.5 -0.5t-10.5 -1.5t-11 -2l-6 47l12 2q5 1 12 2t15 1q25 0 41.5 -5
t28.5 -15.5t21 -26.5t19 -38l32 -71q19 -42 45 -60t65 -18h28z" />
    <glyph glyph-name="uni0498" unicode="&#x498;" horiz-adv-x="601" 
d="M225 -168q16 -2 28.5 -3t27.5 -1q67 0 67 40q0 20 -18 29t-63 9h-13l27 76q-67 3 -111.5 21.5t-71.5 46t-39 60.5t-14 65h58q11 -69 59 -104.5t139 -35.5q95 0 140.5 41t45.5 119q0 41 -12 69.5t-33.5 46.5t-52 26t-67.5 8h-116v55h116q65 0 107.5 35.5t42.5 109.5
q0 66 -45 99.5t-124 33.5q-43 0 -74.5 -8t-54.5 -24t-38.5 -39.5t-25.5 -54.5l-57 10q7 30 24.5 60.5t48.5 55t76 39.5t107 15q55 0 97 -14.5t70 -39t42 -57t14 -69.5q0 -57 -24 -102t-79 -71q60 -22 89.5 -69t29.5 -115q0 -43 -13.5 -80t-40.5 -65t-68.5 -45.5t-96.5 -21.5
l-15 -39q54 -6 73 -28.5t19 -51.5q0 -23 -9 -39t-25.5 -25.5t-39.5 -13.5t-50 -4q-15 0 -28.5 1t-28.5 3v46z" />
    <glyph glyph-name="uni0499" unicode="&#x499;" horiz-adv-x="509" 
d="M167 -154q15 -2 27.5 -3t26.5 -1q34 0 49.5 8.5t15.5 28.5q0 19 -17 27t-62 8h-12l24 71q-79 5 -128 41.5t-56 114.5h56q11 -59 49 -83.5t110 -24.5q82 0 115 30t33 78q0 51 -34.5 79t-97.5 28h-103v48h107q59 0 88.5 26t29.5 70q0 47 -33 71.5t-102 24.5q-40 0 -66.5 -6
t-44 -18t-28.5 -30t-19 -41l-51 11q7 28 21.5 52t39 42t61.5 28.5t89 10.5q50 0 86.5 -11t60 -30t34.5 -44t11 -53q0 -46 -25 -77.5t-62 -46.5q48 -15 73.5 -49.5t25.5 -85.5q0 -31 -11 -58.5t-34.5 -48.5t-60.5 -33.5t-88 -14.5l-12 -34q52 -6 70.5 -27t18.5 -49
q0 -45 -33 -61.5t-87 -16.5q-14 0 -27.5 1t-27.5 3v45z" />
    <glyph glyph-name="uni049A" unicode="&#x49a;" horiz-adv-x="650" 
d="M203 400q54 0 90.5 30.5t64.5 89.5l43 90q14 30 29.5 50t32.5 32t37.5 17t44.5 5q8 0 16 -1t15 -2q8 -2 15 -3l-6 -52l-10 2t-11 1.5t-14 0.5q-17 0 -30.5 -2.5t-25.5 -10.5t-23 -23t-23 -41l-45 -94q-39 -81 -97 -109q29 -8 50 -29t50 -62l163 -234h58v-228h-58v173h-34
l-170 245q-19 28 -35 46.5t-32 30t-35 16.5t-44 5h-77v-343h-60v714h60v-314h61z" />
    <glyph glyph-name="uni049B" unicode="&#x49b;" horiz-adv-x="503" 
d="M128 242v-242h-58v521h58v-234h39q42 0 67 18t44 60l32 70q20 44 44 65t71 21q7 0 14 -1t12 -2l12 -2l-6 -47l-10 2t-11 1.5t-11 0.5q-30 0 -43 -14.5t-24 -40.5l-33 -73q-13 -29 -29 -46t-38 -29q20 -8 35 -23t32 -38l109 -158h51v-191h-53v140h-33l-132 193
q-18 26 -37.5 37.5t-54.5 11.5h-47z" />
    <glyph glyph-name="uni049C" unicode="&#x49c;" horiz-adv-x="638" 
d="M219 400v137h51v-130q35 11 60.5 39.5t47.5 73.5l43 90q14 30 29.5 50t32.5 32t37.5 17t44.5 5q8 0 16 -1t15 -2q8 -2 15 -3l-6 -52l-10 2t-11 1.5t-14 0.5q-17 0 -30.5 -2.5t-25.5 -10.5t-23 -23t-23 -41l-45 -94q-39 -81 -97 -109q29 -8 50 -29t50 -62l202 -289h-73
l-170 245q-32 46 -56.5 68t-58.5 28v-124h-51v126h-77v-343h-60v714h60v-314h77z" />
    <glyph glyph-name="uni049D" unicode="&#x49d;" horiz-adv-x="504" 
d="M230 395v-103q24 7 41.5 24.5t31.5 48.5l32 70q20 44 44 65t71 21q7 0 14 -1t12 -2l12 -2l-6 -47l-10 2t-11 1.5t-11 0.5q-30 0 -43 -14.5t-24 -40.5l-33 -73q-13 -29 -29 -46t-38 -29q20 -8 35 -23t32 -38l144 -209h-70l-132 193q-14 19 -28 30t-34 16v-102h-44v105h-58
v-242h-58v521h58v-234h58v108h44z" />
    <glyph glyph-name="uni049E" unicode="&#x49e;" horiz-adv-x="638" 
d="M20 590h82v124h60v-124h110v-53h-110v-137h61q54 0 90.5 30.5t64.5 89.5l43 90q14 30 29.5 50t32.5 32t37.5 17t44.5 5q8 0 16 -1t15 -2q8 -2 15 -3l-6 -52l-10 2t-11 1.5t-14 0.5q-17 0 -30.5 -2.5t-25.5 -10.5t-23 -23t-23 -41l-45 -94q-39 -81 -97 -109q29 -8 50 -29
t50 -62l202 -289h-73l-170 245q-19 28 -35 46.5t-32 30t-35 16.5t-44 5h-77v-343h-60v537h-82v53z" />
    <glyph glyph-name="uni049F" unicode="&#x49f;" horiz-adv-x="506" 
d="M26 438h71v83h58v-83h95v-47h-95v-104h39q42 0 67 18t44 60l32 70q20 44 44 65t71 21q7 0 14 -1t12 -2l12 -2l-6 -47l-10 2t-11 1.5t-11 0.5q-30 0 -43 -14.5t-24 -40.5l-33 -73q-13 -29 -29 -46t-38 -29q20 -8 35 -23t32 -38l144 -209h-70l-132 193q-18 26 -37.5 37.5
t-54.5 11.5h-47v-242h-58v391h-71v47z" />
    <glyph glyph-name="uni04A0" unicode="&#x4a0;" horiz-adv-x="686" 
d="M210 400h61q54 0 90.5 30.5t64.5 89.5l43 90q14 30 29.5 50t32.5 32t37.5 17t44.5 5q8 0 16 -1t15 -2q8 -2 15 -3l-6 -52l-10 2t-11 1.5t-14 0.5q-17 0 -30.5 -2.5t-25.5 -10.5t-23 -23t-23 -41l-45 -94q-39 -81 -97 -109q29 -8 50 -29t50 -62l202 -289h-73l-170 245
q-19 28 -35 46.5t-32 30t-35 16.5t-44 5h-77v-343h-60v660h-138v54h198v-314z" />
    <glyph glyph-name="uni04A1" unicode="&#x4a1;" horiz-adv-x="534" 
d="M10 521h173v-234h39q42 0 67 18t44 60l32 70q20 44 44 65t71 21q7 0 14 -1t12 -2l12 -2l-6 -47l-10 2t-11 1.5t-11 0.5q-30 0 -43 -14.5t-24 -40.5l-33 -73q-13 -29 -29 -46t-38 -29q20 -8 35 -23t32 -38l144 -209h-70l-132 193q-18 26 -37.5 37.5t-54.5 11.5h-47v-242
h-58v471h-115v50z" />
    <glyph glyph-name="uni04A2" unicode="&#x4a2;" horiz-adv-x="693" 
d="M82 714h61v-316h403v316h61v-659h63v-228h-58v173h-66v341h-403v-341h-61v714z" />
    <glyph glyph-name="uni04A3" unicode="&#x4a3;" horiz-adv-x="573" 
d="M70 521h58v-222h310v222h58v-470h59v-191h-53v140h-64v248h-310v-248h-58v521z" />
    <glyph glyph-name="uni04A4" unicode="&#x4a4;" horiz-adv-x="755" 
d="M82 714h61v-316h403v316h198v-54h-137v-660h-61v341h-403v-341h-61v714z" />
    <glyph glyph-name="uni04A5" unicode="&#x4a5;" horiz-adv-x="620" 
d="M70 521h58v-222h310v222h173v-50h-115v-471h-58v248h-310v-248h-58v521z" />
    <glyph glyph-name="uni04A6" unicode="&#x4a6;" horiz-adv-x="1061" 
d="M579 405q38 16 83.5 25t93.5 9q76 0 126 -24.5t79.5 -66t41.5 -96t12 -113.5q0 -62 -15 -116t-48.5 -95t-87.5 -64.5t-132 -23.5h-39v53h50q109 0 159.5 65.5t50.5 178.5q0 58 -10.5 104.5t-34.5 78.5t-62.5 49t-95.5 17q-90 0 -171 -32v-354h-62v659h-374v-659h-61v714
h497v-309z" />
    <glyph glyph-name="uni04A7" unicode="&#x4a7;" horiz-adv-x="860" 
d="M416 0v469h-288v-469h-58v521h404v-240q33 14 67 21.5t72 7.5q62 0 103 -19.5t66 -53.5t35 -79.5t10 -97.5q0 -54 -13 -101.5t-42 -83t-74.5 -56.5t-110.5 -21h-34v49h40q90 0 131.5 56.5t41.5 154.5q0 102 -34.5 152t-123.5 50q-35 0 -67 -7t-67 -21v-232h-58z" />
    <glyph glyph-name="uni04A8" unicode="&#x4a8;" horiz-adv-x="817" 
d="M485 654q-27 12 -51 18t-58 6q-58 0 -105.5 -21.5t-81 -62t-52 -98t-18.5 -130.5q0 -158 74 -245t211 -87q26 0 50.5 3t36.5 7q-60 44 -93.5 116t-33.5 168q0 60 14.5 109.5t41 85t64.5 55t86 19.5q42 0 77 -15.5t60.5 -47t39.5 -80t14 -114.5q0 -100 -43.5 -176.5
t-110.5 -123.5q15 -4 34 -6t43 -2q26 0 50 4t45 11l9 -49q-30 -10 -60.5 -13t-58.5 -3q-34 0 -66 7.5t-57 19.5q-12 -6 -29 -10.5t-36.5 -8.5t-39.5 -6t-38 -2q-96 0 -162 31.5t-107.5 84t-59.5 120.5t-18 141q0 88 25 157.5t68 117.5t101.5 73t125.5 25q39 0 70.5 -6.5
t57.5 -18.5zM424 329q0 -92 32 -162.5t95 -103.5q33 16 60.5 43.5t47.5 63.5t31 78t11 88q0 110 -33.5 160t-99.5 50q-70 0 -107 -57t-37 -160z" />
    <glyph glyph-name="uni04A9" unicode="&#x4a9;" horiz-adv-x="626" 
d="M362 472q-33 15 -74 15q-37 0 -68.5 -14t-55 -42t-37 -70t-13.5 -98q0 -58 14.5 -101.5t40 -72.5t61.5 -43.5t78 -14.5q27 0 51 3q-38 31 -61 81t-23 119q0 40 9.5 75t28.5 61.5t48 41.5t67 15q33 0 60 -13.5t46.5 -38.5t30 -60t10.5 -78q0 -35 -9 -67t-24 -58.5
t-35 -47.5t-42 -34q5 -2 17.5 -2.5t22.5 -0.5q17 0 31.5 2t25.5 5q12 4 23 8l11 -41q-10 -6 -24 -10q-12 -4 -30.5 -6.5t-43.5 -2.5q-22 0 -47.5 4t-42.5 12q-26 -8 -52.5 -11t-56.5 -3q-60 0 -106 21t-77 57.5t-46.5 86.5t-15.5 109q0 65 17.5 116.5t49 87.5t75 55.5
t95.5 19.5q51 0 88 -17zM332 233q0 -63 22.5 -112.5t59.5 -71.5q20 9 38.5 23.5t33 37t23.5 53t9 70.5q0 71 -21.5 109t-69.5 38q-49 0 -72 -40.5t-23 -106.5z" />
    <glyph glyph-name="uni04AA" unicode="&#x4aa;" horiz-adv-x="709" 
d="M281 -168q16 -2 28.5 -3t27.5 -1q67 0 67 40q0 20 -18 29t-63 9h-13l27 78q-63 5 -115 31.5t-88.5 73.5t-57 113.5t-20.5 152.5q0 92 25 162.5t67.5 118t99 72t120.5 24.5q65 0 112 -17t79.5 -47.5t52.5 -72.5t32 -91l-58 -13q-11 44 -27.5 79t-42 59t-61.5 37t-87 13
q-59 0 -105 -24t-78 -67t-49 -102t-17 -129q0 -71 16.5 -129.5t48 -101.5t78.5 -66.5t108 -23.5q58 0 97.5 14.5t65 40.5t40 61.5t21.5 76.5h60q-7 -51 -26.5 -95.5t-53 -77.5t-80.5 -52.5t-110 -21.5l-14 -38q54 -6 73 -28.5t19 -51.5q0 -23 -9 -39t-25.5 -25.5
t-39.5 -13.5t-50 -4q-15 0 -28.5 1t-28.5 3v46z" />
    <glyph glyph-name="uni04AB" unicode="&#x4ab;" horiz-adv-x="554" 
d="M190 -154q15 -2 27.5 -3t26.5 -1q34 0 49.5 8.5t15.5 28.5q0 19 -17 27t-62 8h-12l25 74q-91 14 -140 84.5t-49 185.5q0 63 17 114.5t48 88t75.5 56.5t100.5 20q85 0 135.5 -43.5t66.5 -122.5l-56 -14q-6 28 -17 52t-28 41t-42.5 27t-60.5 10q-47 0 -80 -17t-55 -47
t-32 -71.5t-10 -90.5t10 -90.5t31 -72t54.5 -47.5t80.5 -17q75 0 109.5 36.5t46.5 97.5h58q-15 -87 -69.5 -135.5t-148.5 -48.5l-12 -33q52 -6 70.5 -27t18.5 -49q0 -45 -33 -61.5t-87 -16.5q-14 0 -27.5 1t-27.5 3v45z" />
    <glyph glyph-name="uni04AC" unicode="&#x4ac;" horiz-adv-x="590" 
d="M265 658h-248v56h556v-56h-247v-603h63v-228h-58v173h-66v658z" />
    <glyph glyph-name="uni04AD" unicode="&#x4ad;" horiz-adv-x="450" 
d="M197 470h-187v51h430v-51h-185v-419h59v-191h-53v140h-64v470z" />
    <glyph glyph-name="uni04AE" unicode="&#x4ae;" horiz-adv-x="588" 
d="M265 309l-250 405h72l209 -353l213 353h64l-247 -405v-309h-61v309z" />
    <glyph glyph-name="uni04AF" unicode="&#x4af;" horiz-adv-x="498" 
d="M228 14l-222 507h67l187 -437l167 437h65l-206 -510v-205h-58v208z" />
    <glyph glyph-name="uni04B0" unicode="&#x4b0;" horiz-adv-x="588" 
d="M109 317h151l-245 397h72l209 -353l213 353h64l-242 -397h152v-54h-157v-263h-61v263h-156v54z" />
    <glyph glyph-name="uni04B1" unicode="&#x4b1;" horiz-adv-x="498" 
d="M100 49h112l-206 472h67l187 -439l167 439h65l-191 -472h113v-49h-128v-194h-58v194h-128v49z" />
    <glyph glyph-name="uni04B2" unicode="&#x4b2;" horiz-adv-x="623" 
d="M268 378l-234 336h73l199 -295l201 295h65l-233 -341l224 -322h50v-191h-53v140h-34l-225 329l-221 -329h-66z" />
    <glyph glyph-name="uni04B3" unicode="&#x4b3;" horiz-adv-x="504" 
d="M205 277l-175 244h68l143 -205l144 205h63l-171 -246l157 -224h52v-191h-53v140h-31l-163 234l-161 -234h-65z" />
    <glyph glyph-name="uni04B4" unicode="&#x4b4;" horiz-adv-x="758" 
d="M735 55v-228h-58v173h-496v661h-173v53h467v-53h-233v-606h369v659h61v-659h63z" />
    <glyph glyph-name="uni04B5" unicode="&#x4b5;" horiz-adv-x="591" 
d="M10 521h319v-51h-154v-419h281v470h58v-470h59v-191h-53v140h-403v470h-107v51z" />
    <glyph glyph-name="uni04B6" unicode="&#x4b6;" horiz-adv-x="621" 
d="M474 331q-38 -16 -83.5 -25t-93.5 -9q-67 0 -114 14.5t-76.5 42t-43 68t-13.5 93.5v199h60v-177q0 -48 9 -83t30.5 -58t59 -34.5t94.5 -11.5q90 0 171 32v332h61v-659h63v-228h-58v173h-66v331z" />
    <glyph glyph-name="uni04B7" unicode="&#x4b7;" horiz-adv-x="506" 
d="M371 221q-30 -12 -68 -19t-77 -7q-53 0 -88.5 14t-57.5 37t-31 54t-9 66v155h56v-135q0 -73 31.5 -107t108.5 -34q72 0 135 25v251h58v-470h59v-191h-53v140h-64v221z" />
    <glyph glyph-name="uni04B8" unicode="&#x4b8;" horiz-adv-x="617" 
d="M315 489v-139q83 2 159 32v332h61v-714h-61v331q-35 -14 -75.5 -23t-83.5 -11v-128h-51v129q-116 7 -165 63t-49 154v199h60v-177q0 -44 7 -77t24.5 -56t47.5 -36t75 -17v138h51z" />
    <glyph glyph-name="uni04B9" unicode="&#x4b9;" horiz-adv-x="499" 
d="M371 221q-25 -10 -54 -16.5t-61 -8.5v-101h-46v100q-48 2 -81 16.5t-52.5 38t-28 53.5t-8.5 63v155h56v-135q0 -67 25.5 -101t88.5 -39v107h46v-108q61 3 115 25v251h58v-521h-58v221z" />
    <glyph glyph-name="uni04BA" unicode="&#x4ba;" horiz-adv-x="617" 
d="M143 402q38 16 83.5 25t93.5 9q67 0 114 -14.5t76.5 -42t43 -68.5t13.5 -93v-218h-60v196q0 48 -9 83t-30.5 58t-59 34.5t-94.5 11.5q-90 0 -171 -32v-351h-61v714h61v-312z" />
    <glyph glyph-name="uni04BB" unicode="&#x4bb;" horiz-adv-x="558" 
d="M70 714h58v-283q42 53 89.5 76.5t101.5 23.5q88 0 130 -49t42 -139v-343h-58v327q0 81 -29 116.5t-92 35.5q-30 0 -63.5 -11.5t-60.5 -36.5q-30 -26 -45 -53.5t-15 -75.5v-302h-58v714z" />
    <glyph glyph-name="uni04BC" unicode="&#x4bc;" horiz-adv-x="888" 
d="M782 190q-10 -45 -31 -83t-55 -65.5t-82.5 -43.5t-113.5 -16q-71 0 -128 25.5t-97 72t-62 112t-23 145.5q-45 0 -76.5 10t-51 28t-28.5 42t-9 51q0 46 21 84l49 -12q-14 -33 -14 -62q0 -20 5 -35.5t17 -27t33.5 -18t54.5 -7.5q6 81 32 145t67 107.5t95 66.5t116 23
q81 0 137 -27.5t90.5 -75t50 -111t15.5 -135.5v-46h-541q0 -54 14 -108t44.5 -97t78 -69.5t115.5 -26.5q53 0 90.5 12t63 33t41 49t23.5 60h59zM731 390q0 63 -12 116t-39.5 91.5t-71.5 60t-107 21.5q-105 0 -170 -74.5t-77 -214.5h477z" />
    <glyph glyph-name="uni04BD" unicode="&#x4bd;" horiz-adv-x="647" 
d="M587 135q-12 -67 -64 -109t-148 -42q-54 0 -97 18.5t-73 52.5t-46.5 82.5t-17.5 108.5q-69 4 -97.5 35.5t-28.5 76.5q0 39 18 71l45 -10q-5 -14 -8.5 -26.5t-3.5 -26.5q0 -31 15.5 -48.5t60.5 -21.5q5 58 24.5 103t50.5 75.5t71 46.5t87 16q60 0 102 -20t68.5 -54.5
t38.5 -80.5t12 -99v-37h-398q0 -44 11.5 -83t34 -68t55.5 -46t76 -17q39 0 66 7.5t45 21.5t28.5 32.5t16.5 41.5h56zM536 296q0 43 -9 79t-28 61.5t-50 39.5t-74 14q-75 0 -121 -48t-55 -146h337z" />
    <glyph glyph-name="uni04BE" unicode="&#x4be;" horiz-adv-x="888" 
d="M782 190q-9 -42 -28 -78t-49.5 -63.5t-73.5 -44.5t-100 -21v-156h-59v156q-65 5 -116.5 32.5t-88 74t-56.5 109t-21 138.5q-45 0 -76.5 10t-51 28t-28.5 42t-9 51q0 46 21 84l49 -12q-14 -33 -14 -62q0 -20 5 -35.5t17 -27t33.5 -18t54.5 -7.5q6 81 32 145t67 107.5
t95 66.5t116 23q81 0 137 -27.5t90.5 -75t50 -111t15.5 -135.5v-46h-541q0 -54 14 -108t44.5 -97t78 -69.5t115.5 -26.5q53 0 90.5 12t63 33t41 49t23.5 60h59zM731 390q0 63 -12 116t-39.5 91.5t-71.5 60t-107 21.5q-105 0 -170 -74.5t-77 -214.5h477z" />
    <glyph glyph-name="uni04BF" unicode="&#x4bf;" horiz-adv-x="647" 
d="M587 135q-11 -63 -58.5 -104t-132.5 -46v-125h-53v126q-94 11 -147 79.5t-55 180.5q-69 4 -97.5 35.5t-28.5 76.5q0 39 18 71l45 -10q-5 -14 -8.5 -26.5t-3.5 -26.5q0 -31 15.5 -48.5t60.5 -21.5q5 58 24.5 103t50.5 75.5t71 46.5t87 16q60 0 102 -20t68.5 -54.5
t38.5 -80.5t12 -99v-37h-398q0 -44 11.5 -83t34 -68t55.5 -46t76 -17q39 0 66 7.5t45 21.5t28.5 32.5t16.5 41.5h56zM536 296q0 43 -9 79t-28 61.5t-50 39.5t-74 14q-75 0 -121 -48t-55 -146h337z" />
    <glyph glyph-name="uni04C0" unicode="&#x4c0;" horiz-adv-x="225" 
d="M82 714h61v-714h-61v714z" />
    <glyph glyph-name="uni04C1" unicode="&#x4c1;" horiz-adv-x="972" 
d="M662 380q15 -4 27 -11t23.5 -18t23.5 -26t26 -36l200 -289h-73l-168 245q-19 28 -35 46.5t-32 30t-35 16.5t-44 5h-59v-343h-60v343h-62q-25 0 -44 -5t-35.5 -16.5t-32.5 -30t-35 -46.5l-168 -245h-69l198 288q28 41 50 62t51 29q-32 14 -54.5 41t-40.5 68l-46 103
q-10 23 -19.5 36.5t-21 21t-24.5 9.5t-31 2q-8 0 -14.5 -0.5t-11.5 -1.5q-6 -1 -11 -2l-6 52q7 1 15 3q7 1 15 2t16 1q25 0 45 -3.5t37 -14t31.5 -29.5t28.5 -49l44 -98q26 -60 61.5 -90t89.5 -30h44v314h60v-314h43q54 0 90.5 29.5t63.5 89.5l41 90q28 61 62 83t83 22
q8 0 16 -1t15 -2q8 -2 15 -3l-6 -52l-10 2t-11 1.5t-14 0.5q-17 0 -31 -2.5t-26 -10.5t-23 -23.5t-23 -41.5l-43 -95q-19 -41 -43 -67t-53 -40zM484 774q-36 0 -63.5 10.5t-45.5 28.5t-27 42t-9 50h48q2 -38 26.5 -63t71.5 -25t71.5 25t26.5 63h48q0 -26 -9.5 -50t-28 -42
t-46 -28.5t-63.5 -10.5z" />
    <glyph glyph-name="uni04C2" unicode="&#x4c2;" horiz-adv-x="731" 
d="M338 287v234h56v-234h26q42 0 67 18t44 60l32 70q20 44 43.5 65t70.5 21q7 0 14 -1t12 -2l12 -2l-6 -47l-10 2t-11 1.5t-11 0.5q-30 0 -43 -14.5t-24 -40.5l-33 -73q-13 -29 -29 -46t-38 -29q20 -8 35 -23t32 -38l144 -209h-70l-132 193q-18 26 -37.5 37.5t-54.5 11.5
h-33v-242h-56v242h-35q-35 0 -55.5 -11.5t-38.5 -37.5l-132 -193h-67l144 209q17 23 32 37.5t35 22.5q-21 8 -37.5 26t-31.5 50l-37 80q-5 12 -10 21t-11 15t-14.5 9t-21.5 3q-6 0 -11.5 -0.5t-10.5 -1.5t-11 -2l-6 47l12 2q5 1 12 2t15 1q25 0 41.5 -5t28.5 -15.5t21 -26.5
t19 -38l32 -71q19 -42 45 -60t65 -18h28zM361 590q-36 0 -63.5 10.5t-45.5 28.5t-27 42t-9 50h48q2 -38 26.5 -63t71.5 -25t71.5 25t26.5 63h48q0 -26 -9.5 -50t-28 -42t-46 -28.5t-63.5 -10.5z" />
    <glyph glyph-name="uni04C3" unicode="&#x4c3;" horiz-adv-x="624" 
d="M142 343v-343h-60v714h60v-314h58q54 0 85.5 30.5t59.5 89.5l42 90q14 30 29 50t32.5 32t37.5 17t44 5q8 0 16 -1t15 -2q8 -2 15 -3l-6 -52l-10 2t-11 1.5t-14 0.5q-17 0 -30.5 -2.5t-25 -10.5t-23 -23t-23.5 -41l-45 -95q-10 -21 -26 -48.5t-48 -45.5q75 -4 125.5 -26
t81 -58.5t44 -85t13.5 -105.5q0 -58 -15 -108.5t-48.5 -88.5t-87.5 -60t-132 -22h-39v53h50q109 0 159.5 59t50.5 165q0 122 -58.5 174t-184.5 52h-131z" />
    <glyph glyph-name="uni04C4" unicode="&#x4c4;" horiz-adv-x="493" 
d="M128 290h69q26 6 43.5 24t32.5 51l32 70q20 44 44 65t71 21q7 0 14 -1t12 -2l12 -2l-6 -45l-10 2t-11 1.5t-11 0.5q-30 0 -43 -15.5t-24 -41.5l-33 -73q-17 -38 -42 -58q51 -6 86.5 -26.5t58 -51.5t32.5 -71.5t10 -87.5q0 -54 -13 -100t-42 -79.5t-74.5 -53t-110.5 -19.5
h-34v49h40q91 0 132 51t41 150q0 102 -40.5 147t-129.5 45h-106v-240h-58v521h58v-231z" />
    <glyph glyph-name="uni04C5" unicode="&#x4c5;" horiz-adv-x="704" 
d="M563 660h-262l-35 -284q-14 -111 -37 -184.5t-55 -117t-72.5 -61.5t-88.5 -18h-13v56h12q35 0 65 14.5t54.5 53.5t43.5 108t33 179l38 308h378v-659h57q0 -43 -9 -79.5t-25 -66t-36.5 -52.5t-44.5 -39l-35 44q32 25 54 59t31 79h-53v660z" />
    <glyph glyph-name="uni04C6" unicode="&#x4c6;" horiz-adv-x="557" 
d="M429 471h-202l-24 -199q-9 -75 -24.5 -128t-38.5 -86t-55 -48t-74 -15h-11v51h8q28 0 50.5 10.5t40 39.5t30.5 80t22 132l24 213h312v-470h52q0 -41 -7.5 -71t-20.5 -52.5t-30.5 -39.5t-37.5 -30l-28 38q54 42 67 104h-53v471z" />
    <glyph glyph-name="uni04C7" unicode="&#x4c7;" horiz-adv-x="689" 
d="M82 714h61v-316h403v316h61v-749q0 -35 -4.5 -65.5t-18.5 -54t-40 -37t-69 -13.5q-34 0 -54.5 4.5t-35.5 9.5l12 50q14 -5 31 -8t42 -3q36 0 56 23t20 68v402h-403v-341h-61v714z" />
    <glyph glyph-name="uni04C8" unicode="&#x4c8;" horiz-adv-x="566" 
d="M70 521h58v-222h310v222h58v-548q0 -35 -3.5 -67t-16 -56.5t-37 -39.5t-67.5 -15q-34 0 -54.5 4.5t-35.5 10.5l12 49q14 -5 31 -8.5t42 -3.5q41 0 56 25t15 66v310h-310v-248h-58v521z" />
    <glyph glyph-name="uni04C9" unicode="&#x4c9;" horiz-adv-x="687" 
d="M82 714h61v-316h403v316h61v-659h57q0 -43 -9 -79.5t-25 -66t-36.5 -52.5t-44.5 -39l-35 44q32 25 54 59t31 79h-53v341h-403v-341h-61v714z" />
    <glyph glyph-name="uni04CA" unicode="&#x4ca;" horiz-adv-x="566" 
d="M70 521h58v-222h310v222h58v-470h52q0 -41 -7.5 -71t-20.5 -52.5t-30.5 -39.5t-37.5 -30l-28 38q54 42 67 104h-53v248h-310v-248h-58v521z" />
    <glyph glyph-name="uni04CB" unicode="&#x4cb;" horiz-adv-x="617" 
d="M474 55v276q-38 -16 -83.5 -25t-93.5 -9q-67 0 -114 14.5t-76.5 42t-43 68t-13.5 93.5v199h60v-177q0 -48 9 -83t30.5 -58t59 -34.5t94.5 -11.5q90 0 171 32v332h61v-714h-66v-173h-58v228h63z" />
    <glyph glyph-name="uni04CC" unicode="&#x4cc;" horiz-adv-x="499" 
d="M365 -140h-53v191h59v170q-30 -12 -68 -19t-77 -7q-53 0 -88.5 14t-57.5 37t-31 54t-9 66v155h56v-135q0 -73 31.5 -107t108.5 -34q72 0 135 25v251h58v-521h-64v-140z" />
    <glyph glyph-name="uni04CD" unicode="&#x4cd;" horiz-adv-x="836" 
d="M82 714h79l258 -643l262 643h75v-659h57q0 -43 -9 -79.5t-25 -66t-36.5 -52.5t-44.5 -39l-35 44q32 25 54 59t31 79h-49v610l-2.5 -5.5t-10.5 -25t-24 -58t-44 -106.5t-70 -169.5t-101 -245.5h-58l-250 608v-608h-57v714z" />
    <glyph glyph-name="uni04CE" unicode="&#x4ce;" horiz-adv-x="687" 
d="M71 521h80l190 -463l196 463h80v-470h52q0 -41 -7.5 -71t-20.5 -52.5t-30.5 -39.5t-37.5 -30l-28 38q54 42 67 104h-51v448l-195 -448h-56l-183 440v-440h-56v521z" />
    <glyph glyph-name="uni04CF" unicode="&#x4cf;" horiz-adv-x="225" 
d="M82 714h61v-714h-61v714z" />
    <glyph glyph-name="uni04D0" unicode="&#x4d0;" horiz-adv-x="661" 
d="M295 714h72l282 -714h-66l-86 218h-336l-85 -218h-64zM475 274l-147 373l-145 -373h292zM329 774q-36 0 -63.5 10.5t-45.5 28.5t-27 42t-9 50h48q2 -38 26.5 -63t71.5 -25t71.5 25t26.5 63h48q0 -26 -9.5 -50t-28 -42t-46 -28.5t-63.5 -10.5z" />
    <glyph glyph-name="uni04D1" unicode="&#x4d1;" horiz-adv-x="526" 
d="M398 73q-13 -16 -31 -31.5t-41 -27.5t-50.5 -19t-60.5 -7q-81 0 -130 40t-49 117q0 52 22 85t58.5 52.5t83 27.5t96.5 10l100 4v16q0 76 -29.5 111.5t-105.5 35.5q-37 0 -62.5 -6t-42.5 -17.5t-27 -27t-15 -34.5l-53 8q28 126 202 126q54 0 91 -13t59.5 -38t32.5 -60.5
t10 -81.5v-343h-58v73zM397 278l-95 -4q-58 -2 -97 -11t-63 -24.5t-34.5 -38.5t-10.5 -54q0 -47 26.5 -76.5t92.5 -29.5q76 0 120 33q18 13 29.5 25.5t18.5 27t10 32.5t3 42v78zM260 590q-36 0 -63.5 10.5t-45.5 28.5t-27 42t-9 50h48q2 -38 26.5 -63t71.5 -25t71.5 25
t26.5 63h48q0 -26 -9.5 -50t-28 -42t-46 -28.5t-63.5 -10.5z" />
    <glyph glyph-name="uni04D2" unicode="&#x4d2;" horiz-adv-x="661" 
d="M295 714h72l282 -714h-66l-86 218h-336l-85 -218h-64zM475 274l-147 373l-145 -373h292zM213 882h67v-87h-67v87zM377 882h68v-87h-68v87z" />
    <glyph glyph-name="uni04D3" unicode="&#x4d3;" horiz-adv-x="526" 
d="M398 73q-13 -16 -31 -31.5t-41 -27.5t-50.5 -19t-60.5 -7q-81 0 -130 40t-49 117q0 52 22 85t58.5 52.5t83 27.5t96.5 10l100 4v16q0 76 -29.5 111.5t-105.5 35.5q-37 0 -62.5 -6t-42.5 -17.5t-27 -27t-15 -34.5l-53 8q28 126 202 126q54 0 91 -13t59.5 -38t32.5 -60.5
t10 -81.5v-343h-58v73zM397 278l-95 -4q-58 -2 -97 -11t-63 -24.5t-34.5 -38.5t-10.5 -54q0 -47 26.5 -76.5t92.5 -29.5q76 0 120 33q18 13 29.5 25.5t18.5 27t10 32.5t3 42v78zM150 704h65v-85h-65v85zM310 704h66v-85h-66v85z" />
    <glyph glyph-name="uni04D4" unicode="&#x4d4;" horiz-adv-x="1012" 
d="M432 714h523v-55h-363v-262h343v-57h-343v-284h380l-14 -56h-424v249h-313l-149 -249h-67zM534 305v354h-71l-209 -354h280z" />
    <glyph glyph-name="uni04D5" unicode="&#x4d5;" horiz-adv-x="890" 
d="M61 410q28 126 199 126q77 0 117.5 -25t57.5 -73q32 49 80 74t106 25q59 0 100.5 -19.5t67.5 -54t38 -80.5t12 -99v-37h-390q0 -44 11 -83t33 -68.5t54 -46.5t74 -17q37 0 63.5 7.5t44.5 21.5t28.5 32.5t16.5 41.5h56q-12 -67 -63.5 -109t-145.5 -42q-39 0 -71 9.5
t-56.5 26t-42.5 38.5t-29 46q-10 -18 -26.5 -38.5t-42 -38t-59.5 -28.5t-78 -11q-81 0 -130.5 40t-49.5 117q0 52 21.5 85t57 52.5t81.5 27.5t94 10l100 4v17q0 38 -6.5 65.5t-21.5 45.5t-40.5 26.5t-63.5 8.5q-71 0 -102.5 -23.5t-41.5 -61.5zM391 278l-95 -4
q-57 -2 -95 -11t-61 -24.5t-33 -38.5t-10 -54q0 -47 27 -76.5t93 -29.5q35 0 65 8t51 25q18 14 29 26.5t17.5 27t9 32t2.5 41.5v78zM779 297q0 42 -9 77.5t-28 61t-49 40t-72 14.5q-73 0 -117 -48t-54 -145h329z" />
    <glyph glyph-name="uni04D6" unicode="&#x4d6;" horiz-adv-x="588" 
d="M82 714h449v-55h-388v-262h368v-57h-368v-284h405l-14 -56h-452v714zM314 774q-36 0 -63.5 10.5t-45.5 28.5t-27 42t-9 50h48q2 -38 26.5 -63t71.5 -25t71.5 25t26.5 63h48q0 -26 -9.5 -50t-28 -42t-46 -28.5t-63.5 -10.5z" />
    <glyph glyph-name="uni04D7" unicode="&#x4d7;" horiz-adv-x="560" 
d="M500 135q-12 -67 -64 -109t-148 -42q-55 0 -98.5 19t-73.5 54t-46 85.5t-16 112.5q0 68 17.5 120.5t49 88.5t74 54.5t93.5 18.5q60 0 102 -20t68.5 -54.5t38.5 -80.5t12 -99v-37h-396q0 -44 11 -83t33 -68t55 -46t76 -17q39 0 66 7.5t45 21.5t28.5 32.5t16.5 41.5h56z
M449 296q0 43 -9 79t-28 61.5t-50 39.5t-74 14q-75 0 -120 -48t-54 -146h335zM288 590q-36 0 -63.5 10.5t-45.5 28.5t-27 42t-9 50h48q2 -38 26.5 -63t71.5 -25t71.5 25t26.5 63h48q0 -26 -9.5 -50t-28 -42t-46 -28.5t-63.5 -10.5z" />
    <glyph glyph-name="uni04D8" unicode="&#x4d8;" horiz-adv-x="740" 
d="M80 542q13 39 34.5 74t55.5 60.5t81.5 40.5t113.5 15q72 0 128.5 -26t95.5 -74t59 -115t20 -148q0 -92 -22 -164t-62 -121.5t-95 -75.5t-121 -26q-81 0 -139 27.5t-94.5 75t-53.5 111t-17 135.5v46h541q0 54 -13 108t-42 97t-74.5 69.5t-110.5 26.5q-56 0 -94.5 -10.5
t-64.5 -30t-42 -46t-28 -59.5zM127 324q0 -63 14 -116t43 -91.5t75 -60t109 -21.5q105 0 164.5 74.5t71.5 214.5h-477z" />
    <glyph glyph-name="uni04D9" unicode="&#x4d9;" horiz-adv-x="569" 
d="M72 386q15 65 68.5 105t147.5 40q54 0 97 -20.5t72 -56.5t44.5 -85t15.5 -106q0 -68 -16.5 -120t-46.5 -87.5t-72 -53.5t-93 -18q-60 0 -102.5 19.5t-70.5 53.5t-41 79.5t-13 98.5v37h397q0 44 -10.5 82.5t-32 67t-54 45t-75.5 16.5q-39 0 -66 -7.5t-45.5 -21.5
t-30 -33.5t-19.5 -42.5zM122 222q0 -42 10 -77t30.5 -60.5t52.5 -39.5t76 -14q149 0 167 191h-336z" />
    <glyph glyph-name="uni04DA" unicode="&#x4da;" horiz-adv-x="740" 
d="M80 542q13 39 34.5 74t55.5 60.5t81.5 40.5t113.5 15q72 0 128.5 -26t95.5 -74t59 -115t20 -148q0 -92 -22 -164t-62 -121.5t-95 -75.5t-121 -26q-81 0 -139 27.5t-94.5 75t-53.5 111t-17 135.5v46h541q0 54 -13 108t-42 97t-74.5 69.5t-110.5 26.5q-56 0 -94.5 -10.5
t-64.5 -30t-42 -46t-28 -59.5zM127 324q0 -63 14 -116t43 -91.5t75 -60t109 -21.5q105 0 164.5 74.5t71.5 214.5h-477zM240 882h67v-87h-67v87zM404 882h68v-87h-68v87z" />
    <glyph glyph-name="uni04DB" unicode="&#x4db;" horiz-adv-x="569" 
d="M72 386q15 65 68.5 105t147.5 40q54 0 97 -20.5t72 -56.5t44.5 -85t15.5 -106q0 -68 -16.5 -120t-46.5 -87.5t-72 -53.5t-93 -18q-60 0 -102.5 19.5t-70.5 53.5t-41 79.5t-13 98.5v37h397q0 44 -10.5 82.5t-32 67t-54 45t-75.5 16.5q-39 0 -66 -7.5t-45.5 -21.5
t-30 -33.5t-19.5 -42.5zM122 222q0 -42 10 -77t30.5 -60.5t52.5 -39.5t76 -14q149 0 167 191h-336zM167 704h65v-85h-65v85zM327 704h66v-85h-66v85z" />
    <glyph glyph-name="uni04DC" unicode="&#x4dc;" horiz-adv-x="972" 
d="M662 380q15 -4 27 -11t23.5 -18t23.5 -26t26 -36l200 -289h-73l-168 245q-19 28 -35 46.5t-32 30t-35 16.5t-44 5h-59v-343h-60v343h-62q-25 0 -44 -5t-35.5 -16.5t-32.5 -30t-35 -46.5l-168 -245h-69l198 288q28 41 50 62t51 29q-32 14 -55 41t-40 68l-45 104
q-10 23 -19.5 36.5t-20.5 20.5t-24 9t-29 2q-8 0 -15.5 -1t-12.5 -2q-7 -1 -12 -2l-6 52q7 1 16 3q7 2 16 3t17 1q24 0 44 -3.5t36.5 -13.5t31 -28.5t27.5 -49.5l43 -99q26 -60 61.5 -90t89.5 -30h44v314h60v-314h43q54 0 90.5 29.5t63.5 89.5l41 90q28 61 62 83t83 22
q8 0 16 -1t15 -2q8 -2 15 -3l-6 -52l-10 2t-11 1.5t-14 0.5q-17 0 -31 -2.5t-26 -10.5t-23 -23.5t-23 -41.5l-43 -95q-19 -41 -43 -67t-53 -40zM368 882h67v-87h-67v87zM532 882h68v-87h-68v87z" />
    <glyph glyph-name="uni04DD" unicode="&#x4dd;" horiz-adv-x="731" 
d="M338 287v234h56v-234h26q42 0 67 18t44 60l32 70q20 44 43.5 65t70.5 21q7 0 14 -1t12 -2l12 -2l-6 -47l-10 2t-11 1.5t-11 0.5q-30 0 -43 -14.5t-24 -40.5l-33 -73q-13 -29 -29 -46t-38 -29q20 -8 35 -23t32 -38l144 -209h-70l-132 193q-18 26 -37.5 37.5t-54.5 11.5
h-33v-242h-56v242h-35q-35 0 -55.5 -11.5t-38.5 -37.5l-132 -193h-67l144 209q17 23 32 37.5t35 22.5q-21 8 -37.5 26t-31.5 50l-37 80q-5 12 -10 21t-11 15t-14.5 9t-21.5 3q-6 0 -11.5 -0.5t-10.5 -1.5t-11 -2l-6 47l12 2q5 1 12 2t15 1q25 0 41.5 -5t28.5 -15.5t21 -26.5
t19 -38l32 -71q19 -42 45 -60t65 -18h28zM249 704h65v-85h-65v85zM409 704h66v-85h-66v85z" />
    <glyph glyph-name="uni04DE" unicode="&#x4de;" horiz-adv-x="601" 
d="M103 175q11 -69 59 -104.5t139 -35.5q95 0 140.5 41t45.5 119q0 41 -12 69.5t-33.5 46.5t-52 26t-67.5 8h-116v55h116q65 0 107.5 35.5t42.5 109.5q0 66 -45 99.5t-124 33.5q-43 0 -74.5 -8t-54.5 -24t-38.5 -39.5t-25.5 -54.5l-57 10q7 30 24.5 60.5t48.5 55t76 39.5
t107 15q55 0 97 -14.5t70 -39t42 -57t14 -69.5q0 -57 -24 -102t-79 -71q60 -22 89.5 -69t29.5 -115q0 -46 -15 -85t-46 -67.5t-78 -44.5t-110 -16q-72 0 -120 18t-77.5 45.5t-42 62t-14.5 67.5h58zM189 882h67v-87h-67v87zM353 882h68v-87h-68v87z" />
    <glyph glyph-name="uni04DF" unicode="&#x4df;" horiz-adv-x="509" 
d="M255 537q50 0 86.5 -11t60 -30t34.5 -44t11 -53q0 -46 -25 -77.5t-62 -46.5q48 -15 73.5 -49.5t25.5 -85.5q0 -32 -12 -60.5t-37.5 -49.5t-66 -33.5t-96.5 -12.5q-45 0 -82.5 9t-65 28t-44 48.5t-20.5 71.5h56q11 -59 49 -83.5t110 -24.5q82 0 115 30t33 78
q0 51 -34.5 79t-97.5 28h-103v48h107q59 0 88.5 26t29.5 70q0 47 -33 71.5t-102 24.5q-40 0 -66.5 -6t-44 -18t-28.5 -30t-19 -41l-51 11q7 28 21.5 52t39 42t61.5 28.5t89 10.5zM142 704h65v-85h-65v85zM302 704h66v-85h-66v85z" />
    <glyph glyph-name="uni04E0" unicode="&#x4e0;" horiz-adv-x="570" 
d="M496 714v-50l-236 -255h7q59 0 107.5 -11.5t83 -37t53.5 -66t19 -97.5q0 -46 -15 -85t-45.5 -68t-77.5 -45.5t-110 -16.5q-74 0 -121.5 18t-76 45.5t-40.5 62t-14 67.5h56q8 -67 56 -103t140 -36q99 0 142 41t43 120q0 82 -46.5 122t-155.5 40h-74v47l233 254h-372v54
h444z" />
    <glyph glyph-name="uni04E1" unicode="&#x4e1;" horiz-adv-x="475" 
d="M417 521v-50l-216 -252h4q118 0 179 -52t61 -157q0 -46 -13.5 -85t-41.5 -68t-71 -45.5t-101 -16.5q-62 0 -102.5 16t-65.5 41.5t-36 57t-14 63.5h57q4 -28 13.5 -51.5t29 -41t49.5 -27t74 -9.5q82 0 122 43t40 121q0 40 -9.5 70.5t-31.5 50.5t-59 30.5t-91 10.5h-59v44
l218 258h-325v49h389z" />
    <glyph glyph-name="uni04E2" unicode="&#x4e2;" horiz-adv-x="676" 
d="M594 0h-59v624l-386 -624h-67v714h60v-623l385 623h67v-714zM196 851h282v-53h-282v53z" />
    <glyph glyph-name="uni04E3" unicode="&#x4e3;" horiz-adv-x="552" 
d="M482 0h-56v438l-295 -438h-61v521h56v-438l293 438h63v-521zM155 678h244v-51h-244v51z" />
    <glyph glyph-name="uni04E4" unicode="&#x4e4;" horiz-adv-x="676" 
d="M594 0h-59v624l-386 -624h-67v714h60v-623l385 623h67v-714zM224 882h67v-87h-67v87zM388 882h68v-87h-68v87z" />
    <glyph glyph-name="uni04E5" unicode="&#x4e5;" horiz-adv-x="552" 
d="M482 0h-56v438l-295 -438h-61v521h56v-438l293 438h63v-521zM161 704h65v-85h-65v85zM321 704h66v-85h-66v85z" />
    <glyph glyph-name="uni04E6" unicode="&#x4e6;" horiz-adv-x="756" 
d="M379 -18q-69 0 -128.5 23.5t-102.5 70.5t-67.5 117t-24.5 162t24.5 162.5t68 118t102.5 72t128 24.5t128 -23.5t101.5 -70.5t67 -116.5t24.5 -161.5q0 -93 -24 -163.5t-66.5 -118t-101.5 -72t-129 -24.5zM379 36q63 0 111 23.5t80.5 66t49 101.5t16.5 130t-17 130
t-49.5 101.5t-80.5 66t-110 23.5q-65 0 -113.5 -23.5t-80.5 -66t-48.5 -101.5t-16.5 -130t16 -130t48.5 -101.5t81 -66t113.5 -23.5zM263 882h67v-87h-67v87zM427 882h68v-87h-68v87z" />
    <glyph glyph-name="uni04E7" unicode="&#x4e7;" horiz-adv-x="593" 
d="M296 34q49 0 83 17.5t56 48t32 72t10 90.5q0 47 -10 88t-32 71.5t-56 48t-83 17.5q-48 0 -82.5 -17.5t-56 -48t-31.5 -71.5t-10 -89t10 -89.5t31.5 -72t56 -48t82.5 -17.5zM294 -16q-57 0 -101.5 19.5t-75 55.5t-47 86.5t-16.5 112.5q0 63 17.5 114t49 88t76.5 57t101 20
t101 -19.5t76 -55.5t47.5 -86.5t16.5 -111.5q0 -63 -17 -114.5t-48.5 -88.5t-77 -57t-102.5 -20zM183 704h65v-85h-65v85zM343 704h66v-85h-66v85z" />
    <glyph glyph-name="uni04E8" unicode="&#x4e8;" horiz-adv-x="756" 
d="M379 -18q-69 0 -128.5 23.5t-102.5 70.5t-67.5 117t-24.5 162t24.5 162.5t68 118t102.5 72t128 24.5t128 -23.5t101.5 -70.5t67 -116.5t24.5 -161.5q0 -93 -24 -163.5t-66.5 -118t-101.5 -72t-129 -24.5zM379 36q60 0 107 22t80 61.5t51 95t20 122.5h-518
q2 -67 19.5 -122.5t50 -95t80 -61.5t110.5 -22zM379 678q-60 0 -107 -21t-79.5 -58.5t-50.5 -90t-22 -116.5h516q-4 64 -23 116.5t-51.5 90t-78.5 58.5t-104 21z" />
    <glyph glyph-name="uni04E9" unicode="&#x4e9;" horiz-adv-x="593" 
d="M294 -16q-57 0 -101.5 19.5t-75 55.5t-47 86.5t-16.5 112.5q0 63 17.5 114t49 88t76.5 57t101 20t101 -19.5t76 -55.5t47.5 -86.5t16.5 -111.5q0 -63 -17 -114.5t-48.5 -88.5t-77 -57t-102.5 -20zM296 34q46 0 79.5 15.5t55.5 43.5t33 66t13 83h-362q2 -45 13 -83
t33 -65.5t55.5 -43.5t79.5 -16zM296 487q-45 0 -77.5 -15t-54 -41t-33.5 -61.5t-15 -77.5h361q-3 42 -15 77.5t-34 61.5t-54.5 41t-77.5 15z" />
    <glyph glyph-name="uni04EA" unicode="&#x4ea;" horiz-adv-x="756" 
d="M379 -18q-69 0 -128.5 23.5t-102.5 70.5t-67.5 117t-24.5 162t24.5 162.5t68 118t102.5 72t128 24.5t128 -23.5t101.5 -70.5t67 -116.5t24.5 -161.5q0 -93 -24 -163.5t-66.5 -118t-101.5 -72t-129 -24.5zM379 36q60 0 107 22t80 61.5t51 95t20 122.5h-518
q2 -67 19.5 -122.5t50 -95t80 -61.5t110.5 -22zM379 678q-60 0 -107 -21t-79.5 -58.5t-50.5 -90t-22 -116.5h516q-4 64 -23 116.5t-51.5 90t-78.5 58.5t-104 21zM263 882h67v-87h-67v87zM427 882h68v-87h-68v87z" />
    <glyph glyph-name="uni04EB" unicode="&#x4eb;" horiz-adv-x="593" 
d="M294 -16q-57 0 -101.5 19.5t-75 55.5t-47 86.5t-16.5 112.5q0 63 17.5 114t49 88t76.5 57t101 20t101 -19.5t76 -55.5t47.5 -86.5t16.5 -111.5q0 -63 -17 -114.5t-48.5 -88.5t-77 -57t-102.5 -20zM296 34q46 0 79.5 15.5t55.5 43.5t33 66t13 83h-362q2 -45 13 -83
t33 -65.5t55.5 -43.5t79.5 -16zM296 487q-45 0 -77.5 -15t-54 -41t-33.5 -61.5t-15 -77.5h361q-3 42 -15 77.5t-34 61.5t-54.5 41t-77.5 15zM184 704h65v-85h-65v85zM344 704h66v-85h-66v85z" />
    <glyph glyph-name="uni04EC" unicode="&#x4ec;" horiz-adv-x="710" 
d="M126 207q6 -34 18.5 -65t37.5 -54.5t64.5 -37.5t101.5 -14q120 0 179 78t64 226h-334v53h334q-3 60 -19 112.5t-44.5 91t-70 60.5t-95.5 22q-92 0 -148.5 -38t-83.5 -127l-57 13q13 45 37 83t59 65t82.5 42t109.5 15q63 0 116.5 -24t93 -70t61.5 -114.5t22 -156.5
q0 -93 -21.5 -164.5t-61 -120.5t-94.5 -74.5t-122 -25.5q-81 0 -135 19.5t-86.5 51.5t-47.5 72t-19 82h59zM236 882h67v-87h-67v87zM400 882h68v-87h-68v87z" />
    <glyph glyph-name="uni04ED" unicode="&#x4ed;" horiz-adv-x="549" 
d="M194 290h240q-7 94 -48 145.5t-116 51.5q-67 0 -102 -25.5t-55 -82.5l-54 12q20 66 72 106t141 40q55 0 97 -21t70 -57.5t42 -87t14 -110.5q0 -59 -14.5 -109.5t-44 -88t-73 -58.5t-100.5 -21q-51 0 -89 13.5t-63.5 36.5t-39 53t-16.5 63h56q3 -24 12.5 -45t27.5 -37
t47 -25t71 -9t72.5 16t50.5 43.5t30.5 65.5t12.5 82h-241v49zM161 704h65v-85h-65v85zM321 704h66v-85h-66v85z" />
    <glyph glyph-name="uni04EE" unicode="&#x4ee;" horiz-adv-x="559" 
d="M40 52q11 -5 31 -11t49 -6q22 0 39.5 6.5t32.5 20t29 35t28 52.5l20 43l-257 522h70l218 -462l182 462h65l-224 -540q-21 -51 -42 -87.5t-45 -60t-54 -34t-69 -10.5q-27 0 -50 6t-37 13zM138 851h282v-53h-282v53z" />
    <glyph glyph-name="uni04EF" unicode="&#x4ef;" horiz-adv-x="500" 
d="M53 -128q12 -5 28.5 -9.5t32.5 -4.5t28 4t22 14.5t19.5 27t20.5 42.5l25 59l-223 516h68l187 -447l169 447h64l-235 -589q-23 -59 -55 -92.5t-84 -33.5q-32 0 -48.5 4.5t-32.5 10.5zM134 678h244v-51h-244v51z" />
    <glyph glyph-name="uni04F0" unicode="&#x4f0;" horiz-adv-x="559" 
d="M40 52q11 -5 31 -11t49 -6q22 0 39.5 6.5t32.5 20t29 35t28 52.5l20 43l-257 522h70l218 -462l182 462h65l-224 -540q-21 -51 -42 -87.5t-45 -60t-54 -34t-69 -10.5q-27 0 -50 6t-37 13zM161 882h67v-87h-67v87zM325 882h68v-87h-68v87z" />
    <glyph glyph-name="uni04F1" unicode="&#x4f1;" horiz-adv-x="500" 
d="M53 -128q12 -5 28.5 -9.5t32.5 -4.5t28 4t22 14.5t19.5 27t20.5 42.5l25 59l-223 516h68l187 -447l169 447h64l-235 -589q-23 -59 -55 -92.5t-84 -33.5q-32 0 -48.5 4.5t-32.5 10.5zM143 704h65v-85h-65v85zM303 704h66v-85h-66v85z" />
    <glyph glyph-name="uni04F2" unicode="&#x4f2;" horiz-adv-x="559" 
d="M40 52q11 -5 31 -11t49 -6q22 0 39.5 6.5t32.5 20t29 35t28 52.5l20 43l-257 522h70l218 -462l182 462h65l-224 -540q-21 -51 -42 -87.5t-45 -60t-54 -34t-69 -10.5q-27 0 -50 6t-37 13zM250 903h73l-119 -129h-57zM411 903h73l-120 -129h-56z" />
    <glyph glyph-name="uni04F3" unicode="&#x4f3;" horiz-adv-x="500" 
d="M53 -128q12 -5 28.5 -9.5t32.5 -4.5t28 4t22 14.5t19.5 27t20.5 42.5l25 59l-223 516h68l187 -447l169 447h64l-235 -589q-23 -59 -55 -92.5t-84 -33.5q-32 0 -48.5 4.5t-32.5 10.5zM223 724h76l-119 -134h-60zM384 724h76l-120 -134h-59z" />
    <glyph glyph-name="uni04F4" unicode="&#x4f4;" horiz-adv-x="617" 
d="M474 331q-38 -16 -83.5 -25t-93.5 -9q-67 0 -114 14.5t-76.5 42t-43 68t-13.5 93.5v199h60v-177q0 -48 9 -83t30.5 -58t59 -34.5t94.5 -11.5q90 0 171 32v332h61v-714h-61v331zM182 882h67v-87h-67v87zM346 882h68v-87h-68v87z" />
    <glyph glyph-name="uni04F5" unicode="&#x4f5;" horiz-adv-x="499" 
d="M371 221q-30 -12 -68 -19t-77 -7q-53 0 -88.5 14t-57.5 37t-31 54t-9 66v155h56v-135q0 -73 31.5 -107t108.5 -34q72 0 135 25v251h58v-521h-58v221zM118 704h65v-85h-65v85zM278 704h66v-85h-66v85z" />
    <glyph glyph-name="uni04F6" unicode="&#x4f6;" horiz-adv-x="518" 
d="M506 714v-55h-363v-604h63v-228h-58v173h-66v714h424z" />
    <glyph glyph-name="uni04F7" unicode="&#x4f7;" horiz-adv-x="413" 
d="M403 521v-52h-275v-418h59v-191h-53v140h-64v521h333z" />
    <glyph glyph-name="uni04F8" unicode="&#x4f8;" horiz-adv-x="824" 
d="M681 714h61v-714h-61v714zM314 435q78 0 128.5 -18t80 -48.5t40.5 -70t11 -82.5q0 -47 -12.5 -86.5t-43 -68t-82 -45t-129.5 -16.5h-225v714h60v-279h172zM142 382v-329h176q54 0 91.5 9.5t60 29.5t32.5 50t10 72q0 40 -10 71.5t-33.5 53t-62.5 32.5t-98 11h-166z
M295 882h67v-87h-67v87zM459 882h68v-87h-68v87z" />
    <glyph glyph-name="uni04F9" unicode="&#x4f9;" horiz-adv-x="676" 
d="M548 521h58v-521h-58v521zM128 521v-205h172q47 0 80.5 -12t54.5 -33t31 -49.5t10 -61.5q0 -71 -46 -115.5t-144 -44.5h-216v521h58zM128 49h166q65 0 93 28t28 79q0 54 -27 82.5t-99 28.5h-161v-218zM227 704h65v-85h-65v85zM387 704h66v-85h-66v85z" />
    <glyph glyph-name="Wgrave" unicode="&#x1e80;" horiz-adv-x="911" 
d="M13 714h68l168 -638l177 635h66l172 -634l170 637h64l-201 -714h-71l-172 635l-172 -635h-67zM320 903h79l111 -129h-63z" />
    <glyph glyph-name="wgrave" unicode="&#x1e81;" horiz-adv-x="711" 
d="M9 515h64l120 -450l131 447h68l128 -447l120 450h62l-151 -515h-67l-129 450l-130 -450h-67zM214 724h78l111 -134h-62z" />
    <glyph glyph-name="Wacute" unicode="&#x1e82;" horiz-adv-x="911" 
d="M13 714h68l168 -638l177 635h66l172 -634l170 637h64l-201 -714h-71l-172 635l-172 -635h-67zM512 903h79l-127 -129h-63z" />
    <glyph glyph-name="wacute" unicode="&#x1e83;" horiz-adv-x="711" 
d="M9 515h64l120 -450l131 447h68l128 -447l120 450h62l-151 -515h-67l-129 450l-130 -450h-67zM420 724h78l-127 -134h-62z" />
    <glyph glyph-name="Wdieresis" unicode="&#x1e84;" horiz-adv-x="911" 
d="M13 714h68l168 -638l177 635h66l172 -634l170 637h64l-201 -714h-71l-172 635l-172 -635h-67zM340 882h67v-87h-67v87zM504 882h68v-87h-68v87z" />
    <glyph glyph-name="wdieresis" unicode="&#x1e85;" horiz-adv-x="711" 
d="M9 515h64l120 -450l131 447h68l128 -447l120 450h62l-151 -515h-67l-129 450l-130 -450h-67zM243 704h65v-85h-65v85zM403 704h66v-85h-66v85z" />
    <glyph glyph-name="Ygrave" unicode="&#x1ef2;" horiz-adv-x="588" 
d="M265 309l-250 405h72l209 -353l213 353h64l-247 -405v-309h-61v309zM159 903h79l111 -129h-63z" />
    <glyph glyph-name="ygrave" unicode="&#x1ef3;" horiz-adv-x="498" 
d="M59 -131q12 -5 25.5 -8t28.5 -3q18 0 30 4t22 14.5t18.5 27t19.5 42.5l24 61l-221 508h67l187 -441l167 441h65l-234 -583q-12 -29 -24.5 -52.5t-28 -40t-36.5 -25t-50 -8.5q-23 0 -38.5 2.5t-35.5 9.5zM109 724h78l111 -134h-62z" />
    <glyph glyph-name="endash" unicode="&#x2013;" horiz-adv-x="500" 
d="M0 319h500v-60h-500v60z" />
    <glyph glyph-name="emdash" unicode="&#x2014;" horiz-adv-x="1000" 
d="M0 319h1000v-60h-1000v60z" />
    <glyph glyph-name="afii00208" unicode="&#x2015;" horiz-adv-x="1000" 
d="M0 319h1000v-60h-1000v60z" />
    <glyph glyph-name="quoteleft" unicode="&#x2018;" horiz-adv-x="189" 
d="M98 714h47l-26 -194h-70z" />
    <glyph glyph-name="quoteright" unicode="&#x2019;" horiz-adv-x="189" 
d="M70 714h70l-49 -194h-47z" />
    <glyph glyph-name="quotesinglbase" unicode="&#x201a;" horiz-adv-x="189" 
d="M67 96h68l-47 -194h-49z" />
    <glyph glyph-name="quotedblleft" unicode="&#x201c;" horiz-adv-x="326" 
d="M98 714h47l-26 -194h-70zM235 714h47l-26 -194h-70z" />
    <glyph glyph-name="quotedblright" unicode="&#x201d;" horiz-adv-x="326" 
d="M70 714h70l-49 -194h-47zM207 714h70l-49 -194h-47z" />
    <glyph glyph-name="quotedblbase" unicode="&#x201e;" horiz-adv-x="324" 
d="M67 96h68l-47 -194h-49zM202 96h68l-47 -194h-49z" />
    <glyph glyph-name="dagger" unicode="&#x2020;" horiz-adv-x="460" 
d="M202 466h-181v49h181v199h58v-199h179v-49h-179v-553h-58v553z" />
    <glyph glyph-name="daggerdbl" unicode="&#x2021;" horiz-adv-x="460" 
d="M202 122h-181v51h181v293h-181v49h181v199h58v-199h179v-49h-179v-293h179v-51h-179v-209h-58v209z" />
    <glyph glyph-name="bullet" unicode="&#x2022;" horiz-adv-x="340" 
d="M40 365q0 28 10 52t27.5 41t41.5 26.5t52 9.5q27 0 51 -9.5t41 -26.5t27 -41t10 -52q0 -29 -10 -53.5t-27 -41.5t-41 -26.5t-51 -9.5q-28 0 -52 9.5t-41.5 26.5t-27.5 41.5t-10 53.5z" />
    <glyph glyph-name="ellipsis" unicode="&#x2026;" horiz-adv-x="793" 
d="M62 93h75v-93h-75v93zM359 93h75v-93h-75v93zM656 93h75v-93h-75v93z" />
    <glyph glyph-name="perthousand" unicode="&#x2030;" horiz-adv-x="1286" 
d="M682 -21q-37 0 -67.5 13t-53 39t-35 66.5t-12.5 94.5t12.5 94t35 66.5t53.5 39.5t67 13q37 0 68 -13t53 -39.5t34.5 -66.5t12.5 -94q0 -109 -46.5 -161t-121.5 -52zM682 27q111 0 111 165q0 164 -111 164t-111 -164q0 -165 111 -165zM206 281q-37 0 -67.5 13t-53 39
t-35 66.5t-12.5 94.5t12.5 94t35 66.5t53.5 39.5t67 13q37 0 68 -13t53 -39.5t34.5 -66.5t12.5 -94q0 -109 -46.5 -161t-121.5 -52zM206 329q111 0 111 165q0 164 -111 164t-111 -164q0 -165 111 -165zM1080 -21q-37 0 -67.5 13t-53 39t-35 66.5t-12.5 94.5t12.5 94t35 66.5
t53.5 39.5t67 13q37 0 68 -13t53 -39.5t34.5 -66.5t12.5 -94q0 -109 -46.5 -161t-121.5 -52zM1080 27q111 0 111 165q0 164 -111 164t-111 -164q0 -165 111 -165zM298 0h-61l352 691h61z" />
    <glyph glyph-name="guilsinglleft" unicode="&#x2039;" horiz-adv-x="280" 
d="M48 257l142 221h56l-131 -220l131 -224h-58z" />
    <glyph glyph-name="guilsinglright" unicode="&#x203a;" horiz-adv-x="280" 
d="M165 254l-131 224h58l140 -223l-142 -221h-56z" />
    <glyph glyph-name="fraction" unicode="&#x2044;" horiz-adv-x="73" 
d="M-110 0h-61l352 691h61z" />
    </font>
</defs>
</svg>
