<?xml version="1.0" standalone="no"?>
<!DOCTYPE svg PUBLIC "-//W3C//DTD SVG 1.1//EN" "http://www.w3.org/Graphics/SVG/1.1/DTD/svg11.dtd" >
<svg xmlns="http://www.w3.org/2000/svg" xmlns:xlink="http://www.w3.org/1999/xlink" version="1.1">
<metadata>
Created by FontForge 20160405 at Thu Jul 14 03:21:50 2016
 By www-data
Copyright (c) 2010 Dalton Maag Ltd. All rights reserved. This font may not be altered in any way without prior permission of Dalton Maag Ltd.
</metadata>
<defs>
<font id="AktivGroteskCorp-LightItalic" horiz-adv-x="592" >
  <font-face 
    font-family="Aktiv Grotesk Corp"
    font-weight="300"
    font-style="italic"
    font-stretch="normal"
    units-per-em="1000"
    panose-1="2 11 6 4 2 2 2 9 2 4"
    ascent="800"
    descent="-200"
    x-height="515"
    cap-height="714"
    bbox="-211 -218 1263 926"
    underline-thickness="56"
    underline-position="-189"
    slope="-12"
    unicode-range="U+0008-FB04"
  />
<missing-glyph horiz-adv-x="500" 
d="M50 0v750h400v-750h-400zM400 50v650h-300v-650h300z" />
    <glyph glyph-name="f_f" unicode="ff" horiz-adv-x="618" 
d="M398 660q-13 5 -26 8t-35 3q-42 0 -64.5 -23t-32.5 -68l-14 -65h137l-10 -48h-137l-99 -467h-58l99 467h-80l10 48h80l14 63q17 78 57.5 111t98.5 33q23 0 42 -4t36 -11zM707 660q-13 5 -26 8t-35 3q-42 0 -64.5 -23t-32.5 -68l-14 -65h137l-10 -48h-137l-99 -467h-58
l99 467h-80l10 48h80l14 63q17 78 57.5 111t98.5 33q23 0 42 -4t36 -11z" />
    <glyph glyph-name="f_i" unicode="fi" horiz-adv-x="513" 
d="M398 660q-13 5 -26 8t-35 3q-42 0 -64.5 -23t-32.5 -68l-14 -65h137l-10 -48h-137l-99 -467h-58l99 467h-80l10 48h80l14 63q17 78 57.5 111t98.5 33q23 0 42 -4t36 -11zM342 0l109 515h58l-109 -515h-58zM466 627l18 87h66l-18 -87h-66z" />
    <glyph glyph-name="f_l" unicode="fl" horiz-adv-x="513" 
d="M398 660q-13 5 -26 8t-35 3q-42 0 -64.5 -23t-32.5 -68l-14 -65h137l-10 -48h-137l-99 -467h-58l99 467h-80l10 48h80l14 63q17 78 57.5 111t98.5 33q23 0 42 -4t36 -11zM342 0l151 714h58l-151 -714h-58z" />
    <glyph glyph-name="f_f_i" unicode="ffi" horiz-adv-x="822" 
d="M398 660q-13 5 -26 8t-35 3q-42 0 -64.5 -23t-32.5 -68l-14 -65h137l-10 -48h-137l-99 -467h-58l99 467h-80l10 48h80l14 63q17 78 57.5 111t98.5 33q23 0 42 -4t36 -11zM707 660q-13 5 -26 8t-35 3q-42 0 -64.5 -23t-32.5 -68l-14 -65h137l-10 -48h-137l-99 -467h-58
l99 467h-80l10 48h80l14 63q17 78 57.5 111t98.5 33q23 0 42 -4t36 -11zM651 0l109 515h58l-109 -515h-58zM775 627l18 87h66l-18 -87h-66z" />
    <glyph glyph-name="f_f_l" unicode="ffl" horiz-adv-x="822" 
d="M398 660q-13 5 -26 8t-35 3q-42 0 -64.5 -23t-32.5 -68l-14 -65h137l-10 -48h-137l-99 -467h-58l99 467h-80l10 48h80l14 63q17 78 57.5 111t98.5 33q23 0 42 -4t36 -11zM707 660q-13 5 -26 8t-35 3q-42 0 -64.5 -23t-32.5 -68l-14 -65h137l-10 -48h-137l-99 -467h-58
l99 467h-80l10 48h80l14 63q17 78 57.5 111t98.5 33q23 0 42 -4t36 -11zM651 0l151 714h58l-151 -714h-58z" />
    <glyph glyph-name=".notdef" horiz-adv-x="500" 
d="M50 0v750h400v-750h-400zM400 50v650h-300v-650h300z" />
    <glyph glyph-name=".null" horiz-adv-x="0" 
 />
    <glyph glyph-name=".null" horiz-adv-x="0" 
 />
    <glyph glyph-name=".null" horiz-adv-x="0" 
 />
    <glyph glyph-name="nonmarkingreturn" unicode="&#x9;" horiz-adv-x="224" 
 />
    <glyph glyph-name="nonmarkingreturn" unicode="&#xd;" horiz-adv-x="224" 
 />
    <glyph glyph-name="space" unicode=" " horiz-adv-x="224" 
 />
    <glyph glyph-name="exclam" unicode="!" horiz-adv-x="206" 
d="M245 714l-114 -521h-53l106 521h61zM31 0l19 92h72l-19 -92h-72z" />
    <glyph glyph-name="quotedbl" unicode="&#x22;" horiz-adv-x="302" 
d="M137 468h-48l45 242h60zM293 468h-48l45 242h60z" />
    <glyph glyph-name="numbersign" unicode="#" 
d="M364 185h-185l-67 -185h-55l66 185h-104l8 44h111l82 222h-112l9 46h120l65 181h56l-67 -181h185l65 181h56l-65 -181h104l-9 -46h-112l-82 -222h113l-8 -44h-120l-66 -185h-56zM194 229h185l80 222h-185z" />
    <glyph glyph-name="dollar" unicode="$" 
d="M222 -13q-37 5 -69.5 17.5t-57 34.5t-39 55t-15.5 79h54q2 -66 40 -97.5t98 -39.5l62 294q-81 19 -124 58.5t-43 111.5q0 50 19.5 89t53.5 65.5t79 40.5t96 15l17 78h49l-18 -81q45 -6 76.5 -22.5t51.5 -39.5t31 -50t16 -54l-54 -11q-6 25 -14.5 46.5t-23 38t-37 27.5
t-56.5 15l-60 -283l15 -3q84 -17 123 -61.5t39 -111.5q0 -98 -64 -156.5t-187 -58.5h-10l-19 -92h-49zM342 321l-61 -288h4q91 0 138.5 42.5t47.5 117.5q0 17 -3 35.5t-13.5 35.5t-30.5 30.5t-54 20.5zM184 498q0 -45 30.5 -73t88.5 -40l4 -1l58 275q-51 -2 -85.5 -16.5
t-56 -37t-30.5 -50.5t-9 -57z" />
    <glyph glyph-name="percent" unicode="%" horiz-adv-x="888" 
d="M261 0h-65l498 691h63zM227 281q-63 0 -101.5 40.5t-38.5 109.5q0 46 13.5 95t40.5 89.5t67 66t94 25.5q63 0 101 -40.5t38 -109.5q0 -47 -13 -95.5t-39.5 -89t-67 -66t-94.5 -25.5zM299 660q-39 0 -68.5 -21t-49 -54t-29 -72.5t-9.5 -76.5q0 -48 19.5 -78t66.5 -30
q39 0 68.5 21t49 54t29 72.5t9.5 76.5q0 48 -19.5 78t-66.5 30zM651 -21q-63 0 -101.5 40.5t-38.5 109.5q0 46 13.5 95t40.5 89.5t67 66t94 25.5q63 0 101 -40.5t38 -109.5q0 -47 -13 -95.5t-39.5 -89t-67 -66t-94.5 -25.5zM723 358q-39 0 -68.5 -21t-49 -54t-29 -72.5
t-9.5 -76.5q0 -48 19.5 -78t66.5 -30q39 0 68.5 21t49 54t29 72.5t9.5 76.5q0 48 -19.5 78t-66.5 30z" />
    <glyph glyph-name="ampersand" unicode="&#x26;" horiz-adv-x="618" 
d="M37 158q0 46 14.5 81t41.5 63t66.5 52t89.5 49q-20 34 -35.5 72.5t-15.5 82.5q0 33 12 62t34 50t53 33.5t69 12.5q34 0 59.5 -10.5t42.5 -28t25.5 -39.5t8.5 -45q0 -43 -14 -74t-38 -54.5t-56.5 -41.5t-68.5 -36l156 -243q26 39 40 85t19 94h57q-6 -62 -27.5 -120
t-59.5 -104l64 -99h-65l-38 58q-40 -35 -92 -54.5t-116 -19.5q-62 0 -105 15.5t-70 40.5t-39 56t-12 62zM264 34q59 0 103.5 18t76.5 48l-169 262q-39 -20 -71.5 -39t-56 -41.5t-36 -51.5t-12.5 -68q0 -22 8 -44.5t27 -41t51 -30.5t79 -12zM256 560q0 -36 12.5 -68.5
t30.5 -64.5q34 16 61.5 31.5t47 33.5t30 41t10.5 55q0 37 -23 59.5t-63 22.5q-51 0 -78.5 -30t-27.5 -80z" />
    <glyph glyph-name="quotesingle" unicode="'" horiz-adv-x="146" 
d="M137 468h-48l45 242h60z" />
    <glyph glyph-name="parenleft" unicode="(" horiz-adv-x="244" 
d="M345 734q-103 -134 -161.5 -291t-58.5 -331q0 -64 8 -119.5t29 -116.5h-54q-10 23 -18.5 53t-14.5 63t-9 67t-3 65q0 81 15 163t44 160.5t71 151.5t96 135h56z" />
    <glyph glyph-name="parenright" unicode=")" horiz-adv-x="244" 
d="M-52 -124q103 134 161.5 291t58.5 331q0 64 -8 119.5t-29 116.5h54q10 -23 18.5 -53t14.5 -63t9 -67t3 -65q0 -81 -15 -163t-44 -160.5t-71 -151.5t-96 -135h-56z" />
    <glyph glyph-name="asterisk" unicode="*" horiz-adv-x="376" 
d="M167 408l-43 35l111 101l-113 43l23 49l106 -54l18 132h58l-34 -133l111 51l19 -52l-126 -39l68 -107l-53 -26l-51 108z" />
    <glyph glyph-name="plus" unicode="+" 
d="M349 314l-45 -215h-54l45 215h-201l12 53h201l45 214h54l-45 -214h201l-12 -53h-201z" />
    <glyph glyph-name="comma" unicode="," horiz-adv-x="198" 
d="M-15 -98l69 194h70l-88 -194h-51z" />
    <glyph glyph-name="hyphen" unicode="-" horiz-adv-x="391" 
d="M65 259l12 60h291l-12 -60h-291z" />
    <glyph glyph-name="period" unicode="." horiz-adv-x="199" 
d="M22 0l19 93h75l-19 -93h-75z" />
    <glyph glyph-name="slash" unicode="/" horiz-adv-x="302" 
d="M30 0h-63l380 734h63z" />
    <glyph glyph-name="zero" unicode="0" 
d="M395 710q45 0 82.5 -16t63.5 -46t40.5 -73.5t14.5 -98.5q0 -49 -7.5 -104.5t-23.5 -110.5t-42 -105.5t-63 -89t-86 -61.5t-111 -23q-45 0 -82.5 16t-63.5 46t-40.5 73t-14.5 98q0 49 8 104.5t24.5 110.5t43 105.5t63.5 89.5t85 62t109 23zM390 655q-45 0 -81.5 -18
t-66 -50t-51.5 -74t-36.5 -91t-21.5 -101t-7 -103q0 -39 8.5 -72.5t26 -57.5t44 -38t63.5 -14q67 0 116.5 39.5t82.5 102.5t49 140.5t16 154.5q0 39 -8.5 72.5t-26 57.5t-44 38t-63.5 14z" />
    <glyph glyph-name="one" unicode="1" 
d="M268 0l133 626l-191 -101l-25 46l224 120h65l-146 -691h-60z" />
    <glyph glyph-name="two" unicode="2" 
d="M387 655q-41 0 -71.5 -8.5t-54 -25t-40 -41.5t-29.5 -58l-53 11q11 34 30 66t49 56.5t72.5 39.5t100.5 15q44 0 79.5 -13.5t60 -37t37.5 -56.5t13 -72q0 -54 -22.5 -100.5t-59 -87t-84 -77.5t-98.5 -73q-48 -35 -96.5 -69t-91.5 -68h366l-23 -56h-438l11 54
q47 37 103.5 78.5t115.5 85.5q49 36 95 70.5t81.5 71.5t57 78.5t21.5 91.5q0 60 -34.5 92.5t-97.5 32.5z" />
    <glyph glyph-name="three" unicode="3" 
d="M339 389q40 0 73 8.5t56.5 27t36.5 47.5t13 69q0 51 -35.5 82.5t-102.5 31.5q-41 0 -71.5 -6.5t-53 -21.5t-38.5 -39t-29 -58l-53 10q10 35 28.5 66t47.5 54t71 36.5t100 13.5q49 0 85.5 -13.5t60.5 -36t36 -53t12 -63.5q0 -40 -11 -70t-30.5 -52.5t-45 -37.5t-55.5 -25
q28 -12 45.5 -30t27.5 -38.5t14 -41.5t4 -39q0 -50 -16.5 -92t-47 -72t-75.5 -47t-102 -17q-45 0 -85.5 12t-71.5 36.5t-49 60.5t-19 84h56q3 -38 17 -65t37 -43.5t53 -24t65 -7.5q80 0 128.5 43t48.5 129q0 62 -31.5 94.5t-88.5 32.5h-97l12 55h80z" />
    <glyph glyph-name="four" unicode="4" 
d="M346 0l38 181h-340l10 49l432 461h64l-98 -461h102l-18 -49h-94l-38 -181h-58zM121 230h273l80 378z" />
    <glyph glyph-name="five" unicode="5" 
d="M533 255q0 -54 -17 -103.5t-49.5 -87t-79.5 -60t-108 -22.5q-43 0 -81 9.5t-67 31t-46 56t-18 84.5h56q4 -66 39.5 -97t118.5 -31q46 0 81.5 16t60 44.5t37 68.5t12.5 87q0 30 -8 55t-24 43.5t-40 29t-57 10.5q-52 0 -94 -15.5t-82 -49.5h-53l102 367h365l-11 -55h-317
l-70 -252q20 14 38.5 24.5t38.5 17t43 10t51 3.5q43 0 76.5 -15t56 -40.5t34.5 -58.5t12 -70z" />
    <glyph glyph-name="six" unicode="6" 
d="M150 332q39 57 88 82.5t114 25.5q48 0 84 -16.5t59.5 -43t35.5 -60.5t12 -68q0 -62 -17.5 -112t-49.5 -85t-78 -54t-104 -19q-53 0 -92.5 17t-66.5 48t-40.5 73t-13.5 93q0 42 7.5 95.5t24 108.5t42 108t62 94t84.5 66t108 25q87 0 131.5 -37.5t54.5 -109.5l-52 -12
q-13 62 -46 83.5t-92 21.5q-41 0 -79 -17.5t-71 -56t-59.5 -100t-45.5 -150.5zM345 390q-38 0 -74 -14t-65 -40t-46.5 -64.5t-17.5 -87.5q0 -29 9.5 -56t28.5 -48t47 -33.5t66 -12.5q92 0 140.5 54t48.5 163q0 28 -8.5 53.5t-26 44.5t-43 30t-59.5 11z" />
    <glyph glyph-name="seven" unicode="7" 
d="M601 636q-115 -153 -213.5 -311t-178.5 -325h-68q43 86 87.5 166t92 158t100.5 155t114 157h-395l11 55h461z" />
    <glyph glyph-name="eight" unicode="8" 
d="M551 207q0 -57 -20.5 -99t-57 -70t-88 -42t-114.5 -14q-56 0 -98 14t-70.5 37.5t-43 54.5t-14.5 66q0 54 19.5 90t47.5 59.5t58.5 35.5t52.5 17q-17 8 -33.5 21.5t-29.5 30.5t-21 38.5t-8 46.5q0 46 16.5 85.5t49 68.5t81.5 46t114 17q51 0 89 -13.5t63.5 -36.5t38.5 -54
t13 -65q0 -44 -15.5 -77t-39 -56t-52 -37t-54.5 -20q20 -6 41 -17.5t37.5 -29.5t27 -42t10.5 -55zM334 377q40 0 76.5 9t64.5 28.5t45 50.5t17 76q0 23 -8 44.5t-26 38t-46 26.5t-68 10q-53 0 -91 -13t-62 -36t-35.5 -53.5t-11.5 -64.5q0 -22 8.5 -42.5t26.5 -37t45.5 -26.5
t64.5 -10zM275 32q45 0 84 9t67.5 29.5t45 53.5t16.5 81q0 24 -9.5 45.5t-29.5 38t-51.5 26t-75.5 9.5q-113 0 -164 -44t-51 -118q0 -27 9.5 -50.5t29.5 -41.5t52 -28t77 -10z" />
    <glyph glyph-name="nine" unicode="9" 
d="M304 302q37 0 73.5 12.5t65.5 37.5t46.5 62t17.5 85q0 31 -9 60t-27.5 51t-46.5 35t-65 13q-92 0 -142 -54t-50 -163q0 -28 8.5 -53.5t26 -44.5t43 -30t59.5 -11zM568 472q0 -51 -6.5 -107t-21.5 -110.5t-38.5 -104t-57.5 -87t-80 -59.5t-105 -22q-53 0 -89 12.5
t-58.5 34t-33.5 50t-15 60.5h58q4 -31 16 -51t30.5 -31.5t42.5 -16t54 -4.5q43 0 80.5 18t67.5 56t51 97.5t33 142.5q-39 -53 -86.5 -75.5t-112.5 -22.5q-48 0 -84 17t-59.5 44t-35.5 60.5t-12 66.5q0 62 17.5 112t50.5 85t79.5 54t104.5 19q52 0 91.5 -17.5t66 -49
t39.5 -75.5t13 -96z" />
    <glyph glyph-name="colon" unicode=":" horiz-adv-x="199" 
d="M111 422l19 93h75l-19 -93h-75zM22 0l19 93h75l-19 -93h-75z" />
    <glyph glyph-name="semicolon" unicode=";" horiz-adv-x="199" 
d="M-15 -98l69 194h70l-88 -194h-51zM110 422l19 93h75l-19 -93h-75z" />
    <glyph glyph-name="less" unicode="&#x3c;" 
d="M106 317l9 44l490 213l-13 -64l-413 -172l339 -177l-13 -57z" />
    <glyph glyph-name="equal" unicode="=" 
d="M131 425l12 55h430l-12 -55h-430zM83 201l12 55h430l-12 -55h-430z" />
    <glyph glyph-name="greater" unicode="&#x3e;" 
d="M549 361l-9 -44l-490 -213l13 65l413 171l-339 178l13 56z" />
    <glyph glyph-name="question" unicode="?" horiz-adv-x="495" 
d="M522 572q0 -66 -32.5 -114t-86.5 -91q-24 -19 -46.5 -36t-41 -35.5t-32 -40.5t-19.5 -51l-2 -11h-58l2 11q8 37 23.5 64t36 49t45 41t50.5 40q21 17 40 35t32.5 38.5t21.5 44t8 52.5q-1 49 -33.5 77.5t-95.5 28.5q-34 0 -61 -6t-49 -21t-39 -40.5t-31 -63.5l-51 10
q12 39 31.5 71t48 54.5t67.5 35t90 12.5q46 0 80.5 -12.5t57 -33.5t33.5 -49t11 -59zM159 0l19 92h74l-19 -92h-74z" />
    <glyph glyph-name="at" unicode="@" horiz-adv-x="927" 
d="M622 97q-1 -5 -1.5 -9t-0.5 -8q0 -40 54 -40q49 0 83.5 25.5t56.5 67t32.5 94.5t10.5 109q0 65 -23 116t-65 86t-100.5 53t-130.5 18q-100 0 -180.5 -33t-137 -91.5t-86.5 -139.5t-30 -178q0 -71 22.5 -130.5t65 -103t104 -67.5t139.5 -25q46 0 85 4.5t71.5 16t60 30.5
t50.5 48h64q-51 -79 -133 -114t-200 -36q-82 0 -153.5 24t-124 71.5t-82.5 117.5t-30 161q0 104 34.5 194.5t99 158t157 106t208.5 38.5q80 0 148.5 -22.5t119 -64t79 -101t28.5 -132.5q0 -66 -15 -128.5t-46.5 -110.5t-79.5 -77t-113 -29q-40 0 -65.5 18.5t-30.5 53.5
q-34 -38 -72.5 -58t-86.5 -20q-44 0 -74 17t-48.5 44t-26 61t-6.5 68q2 57 21.5 106.5t51.5 86t74.5 57.5t92.5 21q95 0 134 -81l16 69h53zM490 403q-39 0 -71.5 -18.5t-56 -50t-36.5 -73t-13 -86.5q0 -69 26.5 -103t75.5 -34q26 0 46.5 5.5t43.5 21.5q32 22 51.5 53.5
t30.5 81.5l8 36q12 50 6.5 82t-28.5 54q-17 17 -36 24t-47 7z" />
    <glyph glyph-name="A" unicode="A" horiz-adv-x="661" 
d="M406 714h72l131 -714h-63l-40 218h-336l-131 -218h-67zM204 274h292l-68 373z" />
    <glyph glyph-name="B" unicode="B" horiz-adv-x="624" 
d="M631 559q0 -140 -154 -186q52 -20 80.5 -61.5t28.5 -91.5t-17 -91t-53.5 -69.5t-93 -44t-135.5 -15.5h-245l151 714h231q63 0 103.5 -15t63.5 -38t31.5 -50.5t8.5 -51.5zM362 401q39 0 76.5 7t66.5 24.5t46.5 47.5t17.5 76q0 23 -7.5 42t-25.5 33t-47.5 22t-73.5 8h-173
l-55 -260h175zM113 54h183q62 0 105 10t69.5 31t38.5 52.5t12 73.5q0 26 -9.5 49t-29 40t-49.5 26.5t-72 9.5h-186z" />
    <glyph glyph-name="C" unicode="C" horiz-adv-x="709" 
d="M667 219q-12 -50 -37 -93.5t-63.5 -75.5t-90.5 -50t-119 -18q-59 0 -110 20t-88.5 57.5t-58.5 92t-21 123.5q0 91 25.5 174t74.5 146t119 100t160 37q112 0 175.5 -60.5t74.5 -170.5l-61 -12q-13 97 -58 143.5t-136 46.5q-71 0 -128 -31.5t-97 -85.5t-61.5 -126.5
t-21.5 -154.5q0 -51 14 -95.5t41 -78t67.5 -52.5t93.5 -19q52 0 92 13.5t69.5 38t49 58t28.5 73.5h67z" />
    <glyph glyph-name="D" unicode="D" horiz-adv-x="702" 
d="M42 0l151 714h226q62 0 112.5 -21t86.5 -58.5t55.5 -89.5t19.5 -115q0 -90 -25.5 -168.5t-78.5 -136.5t-134 -91.5t-191 -33.5h-222zM273 54q88 0 154.5 26.5t111.5 76t67.5 119t22.5 156.5q0 47 -14 88.5t-41 73t-67.5 49.5t-93.5 18h-170l-129 -607h159z" />
    <glyph glyph-name="E" unicode="E" horiz-adv-x="588" 
d="M243 659l-56 -262h368l-12 -57h-368l-61 -284h409l-24 -56h-457l151 714h449l-11 -55h-388z" />
    <glyph glyph-name="F" unicode="F" horiz-adv-x="553" 
d="M243 659l-58 -271h345l-12 -57h-345l-70 -331h-61l151 714h429l-11 -55h-368z" />
    <glyph glyph-name="G" unicode="G" horiz-adv-x="711" 
d="M647 524q-15 78 -65 116.5t-127 38.5q-76 0 -134 -33.5t-97.5 -89t-59.5 -127.5t-20 -148q0 -50 14 -94.5t41 -78t67 -53t91 -19.5q43 0 77 6t60.5 15.5t45 20.5t32.5 21l43 199h-205l12 55h263l-60 -282q-17 -15 -42.5 -30.5t-60 -28.5t-76.5 -21.5t-92 -8.5
q-60 0 -110.5 21t-87.5 59.5t-57.5 92.5t-20.5 120q0 87 24.5 169t72.5 146t119.5 103t166.5 39q96 0 161 -49t84 -146z" />
    <glyph glyph-name="H" unicode="H" horiz-adv-x="689" 
d="M506 0l72 341h-403l-72 -341h-61l151 714h61l-67 -316h403l67 316h61l-151 -714h-61z" />
    <glyph glyph-name="I" unicode="I" horiz-adv-x="225" 
d="M42 0l151 714h61l-151 -714h-61z" />
    <glyph glyph-name="J" unicode="J" horiz-adv-x="576" 
d="M506 224q-26 -125 -91 -183.5t-177 -58.5q-47 0 -85.5 11.5t-66 35.5t-43 59.5t-15.5 83.5v12t1 13h58v-13q0 -31 6.5 -58t24 -47t47 -31.5t75.5 -11.5q95 0 141.5 52t66.5 148l101 478h61z" />
    <glyph glyph-name="K" unicode="K" horiz-adv-x="636" 
d="M330 405l-170 -137l-57 -268h-61l151 714h61l-78 -371l453 371h73l-322 -272l196 -442h-70z" />
    <glyph glyph-name="L" unicode="L" horiz-adv-x="550" 
d="M478 0h-436l151 714h61l-139 -657h388z" />
    <glyph glyph-name="M" unicode="M" horiz-adv-x="838" 
d="M349 0l-121 608l-129 -608h-57l151 714h76l123 -643l397 643h78l-151 -714h-57l130 611l-382 -611h-58z" />
    <glyph glyph-name="N" unicode="N" horiz-adv-x="690" 
d="M505 0l-272 622l-132 -622h-59l151 714h64l271 -620l132 620h59l-151 -714h-63z" />
    <glyph glyph-name="O" unicode="O" horiz-adv-x="756" 
d="M466 732q59 0 110.5 -20t89.5 -58t59.5 -92.5t21.5 -124.5q0 -83 -25.5 -164t-75 -146t-121 -105t-164.5 -40q-59 0 -110.5 20t-89.5 57.5t-59.5 92t-21.5 124.5q0 82 26.5 164t76 146.5t121 105t162.5 40.5zM363 36q75 0 134.5 34.5t100.5 91t62.5 128t21.5 145.5
q0 53 -14 97.5t-42 77t-68.5 50.5t-93.5 18q-75 0 -134.5 -35t-100.5 -91t-62.5 -128t-21.5 -145q0 -53 14 -98t42 -77t68.5 -50t93.5 -18z" />
    <glyph glyph-name="P" unicode="P" horiz-adv-x="619" 
d="M643 540q0 -66 -22.5 -113.5t-63 -78t-97.5 -45t-126 -14.5h-171l-61 -289h-60l151 714h227q64 0 106.5 -16t68.5 -41t37 -56t11 -61zM343 342q53 0 97 9.5t75 32.5t48 61t17 96q0 26 -9 48t-29 38t-52.5 25t-79.5 9h-168l-68 -319h169z" />
    <glyph glyph-name="Q" unicode="Q" horiz-adv-x="756" 
d="M532 26q-38 -20 -80.5 -32t-90.5 -12q-59 0 -110.5 20t-89.5 57.5t-59.5 92t-21.5 124.5q0 82 26.5 164t76 146.5t121 105t162.5 40.5q59 0 110.5 -20t89.5 -58t59.5 -92.5t21.5 -124.5q0 -54 -11 -108t-32.5 -103.5t-53 -92.5t-72.5 -76l64 -98l-47 -31zM363 36
q76 0 139 37l-73 114l46 30l72 -111q33 28 58 65.5t42 80t26 89.5t9 94q0 53 -14 97.5t-42 77t-68.5 50.5t-93.5 18q-75 0 -134.5 -35t-100.5 -91t-62.5 -128t-21.5 -145q0 -53 14 -98t42 -77t68.5 -50t93.5 -18z" />
    <glyph glyph-name="R" unicode="R" horiz-adv-x="625" 
d="M168 312l-66 -312h-60l151 714h220q64 0 107 -15.5t68.5 -40.5t36 -56.5t10.5 -62.5q0 -89 -45.5 -140t-126.5 -72l82 -327h-69l-74 315q-17 -2 -38 -2.5t-41 -0.5h-155zM351 366q51 0 92.5 8.5t70 28.5t44 53t15.5 83q0 25 -8 47.5t-28 39t-53.5 26t-84.5 9.5h-157
l-63 -295h172z" />
    <glyph glyph-name="S" unicode="S" horiz-adv-x="642" 
d="M574 206q0 -55 -20.5 -96.5t-56 -70t-83.5 -43t-104 -14.5q-47 0 -93.5 8t-84 30.5t-62 62.5t-26.5 104h60q4 -40 18 -68.5t39 -47t62.5 -27t90.5 -8.5q52 0 89 13t60 36t34 54t11 68q0 18 -4 36.5t-15.5 34.5t-32.5 28.5t-54 19.5l-103 22q-77 17 -122 58t-45 116
q0 52 18 91.5t52 66t82 39.5t107 13q61 0 105 -15.5t73 -41t44.5 -59t20.5 -69.5l-57 -12q-11 70 -54 107t-137 37q-56 0 -93.5 -12t-59.5 -32.5t-31 -47t-9 -55.5q0 -24 5.5 -43.5t19 -35.5t37 -27.5t59.5 -19.5l99 -21q45 -9 76 -26t49.5 -40.5t27 -52t8.5 -60.5z" />
    <glyph glyph-name="T" unicode="T" horiz-adv-x="590" 
d="M425 658l-139 -658h-61l139 658h-248l12 56h556l-12 -56h-247z" />
    <glyph glyph-name="U" unicode="U" horiz-adv-x="676" 
d="M316 -18q-52 0 -94.5 12t-72.5 37.5t-46.5 65t-16.5 93.5q0 21 3 44.5t8 49.5l91 430h61l-92 -435q-10 -46 -10 -87q0 -78 41.5 -117t129.5 -39q55 0 94.5 15.5t67 46t46 76t31.5 105.5l92 435h61l-92 -434q-17 -79 -43 -135.5t-62.5 -92.5t-85.5 -53t-111 -17z" />
    <glyph glyph-name="V" unicode="V" horiz-adv-x="649" 
d="M318 0h-66l-127 714h65l108 -645l380 645h68z" />
    <glyph glyph-name="W" unicode="W" horiz-adv-x="911" 
d="M548 635l-306 -635h-67l-51 714h64l35 -638l310 635h65l40 -634l303 637h68l-352 -714h-70z" />
    <glyph glyph-name="X" unicode="X" horiz-adv-x="613" 
d="M379 371l181 -371h-70l-157 329l-289 -329h-70l333 380l-162 334h68l138 -296l263 296h69z" />
    <glyph glyph-name="Y" unicode="Y" horiz-adv-x="588" 
d="M126 714h66l136 -353l286 353h70l-333 -405l-65 -309h-61l65 309z" />
    <glyph glyph-name="Z" unicode="Z" horiz-adv-x="585" 
d="M510 0h-512l10 50l556 609h-424l11 55h503l-11 -51l-554 -607h445z" />
    <glyph glyph-name="bracketleft" unicode="[" horiz-adv-x="254" 
d="M10 -124l183 858h166l-11 -50h-106l-161 -758h106l-11 -50h-166z" />
    <glyph glyph-name="backslash" unicode="\" horiz-adv-x="302" 
d="M125 734h59l68 -734h-59z" />
    <glyph glyph-name="bracketright" unicode="]" horiz-adv-x="254" 
d="M293 734l-183 -858h-166l11 50h106l161 758h-106l11 50h166z" />
    <glyph glyph-name="asciicircum" unicode="^" 
d="M491 306l-97 338l-239 -338h-63l288 401h52l118 -401h-59z" />
    <glyph glyph-name="underscore" unicode="_" horiz-adv-x="500" 
d="M-77 -175l11 52h499l-11 -52h-499z" />
    <glyph glyph-name="grave" unicode="`" horiz-adv-x="379" 
d="M290 590l-105 134h74l89 -134h-58z" />
    <glyph glyph-name="a" unicode="a" horiz-adv-x="525" 
d="M25 123q0 54 22 89.5t61.5 58t93.5 32.5t118 13l104 4l2 10q2 13 4 25.5t2 23.5q0 45 -26 74t-93 29q-37 0 -63 -4.5t-44 -14.5t-30.5 -27t-22.5 -42l-54 9q24 70 76.5 99t142.5 29q89 0 131 -41.5t42 -110.5q0 -14 -2 -28.5t-5 -29.5l-68 -321h-58l15 73
q-35 -35 -81 -60t-114 -25q-67 0 -110 36.5t-43 98.5zM186 40q33 0 65.5 7.5t57.5 24.5q20 13 34.5 25.5t25 26.5t18 32t12.5 42l16 76l-96 -4q-66 -3 -110.5 -12.5t-71.5 -27t-38.5 -44t-11.5 -62.5q0 -34 22 -59t77 -25z" />
    <glyph glyph-name="b" unicode="b" horiz-adv-x="583" 
d="M88 0h-58l151 714h58l-58 -276q40 45 86 69t103 24q51 0 86 -19t56.5 -49.5t31 -70t9.5 -80.5q0 -59 -18.5 -117.5t-54.5 -105t-88 -76t-119 -29.5q-52 0 -97 23.5t-72 71.5zM276 34q48 0 87.5 22.5t68 61t44 88.5t15.5 106q0 85 -33.5 127t-94.5 42q-32 0 -57 -8
t-53 -27q-39 -26 -67 -65.5t-41 -100.5l-9 -43q-9 -41 -9 -69q0 -33 11 -56t33 -43q20 -17 45.5 -26t59.5 -9z" />
    <glyph glyph-name="c" unicode="c" horiz-adv-x="554" 
d="M477 349q-3 24 -10 47.5t-22 42t-40 30.5t-64 12q-50 0 -90.5 -20.5t-69.5 -57t-44.5 -87.5t-15.5 -111q0 -36 8 -67.5t26 -54.5t46.5 -36t69.5 -13q38 0 66.5 10t49 27.5t34 41t22.5 49.5h59q-12 -39 -32 -71.5t-49 -56t-68 -37t-88 -13.5q-51 0 -89.5 17t-65 46
t-39.5 68t-13 84q0 79 23 140.5t62 104t90.5 65t108.5 22.5q49 0 84 -14t57.5 -38t34 -55t14.5 -64z" />
    <glyph glyph-name="d" unicode="d" horiz-adv-x="581" 
d="M429 77q-38 -48 -82.5 -70.5t-101.5 -22.5q-51 0 -87 19.5t-58.5 50t-32.5 69.5t-10 78q0 59 18.5 118t54 106t87.5 76.5t120 29.5q52 0 97 -24t72 -72l59 279h58l-152 -714h-58zM474 278q9 40 9 70q0 32 -11 55.5t-33 42.5q-20 17 -45.5 26t-59.5 9q-48 0 -87.5 -22
t-68 -60t-44 -88.5t-15.5 -107.5q0 -82 36 -125.5t99 -43.5q32 0 56 7t50 25q38 27 65 67.5t40 101.5z" />
    <glyph glyph-name="e" unicode="e" horiz-adv-x="560" 
d="M118 203q0 -35 9.5 -66t29 -54t49.5 -37t72 -14q37 0 63.5 8t45 21.5t30.5 32.5t20 41h57q-12 -33 -29 -61t-43 -48t-62 -31t-86 -11q-54 0 -94.5 18t-67.5 48.5t-40.5 70t-13.5 83.5q0 79 22 140t60 102.5t88.5 63t108.5 21.5q48 0 84.5 -15.5t60.5 -42t36 -62.5t12 -77
q0 -15 -1 -36.5t-4 -38.5l-3 -16h-403q-1 -10 -1 -19.5v-20.5zM332 484q-79 0 -132.5 -50t-72.5 -141h344q2 9 2.5 22t0.5 24q0 31 -8.5 57.5t-26.5 46t-44.5 30.5t-62.5 11z" />
    <glyph glyph-name="f" unicode="f" horiz-adv-x="309" 
d="M398 660q-13 5 -26 8t-35 3q-42 0 -64.5 -23t-32.5 -68l-14 -65h137l-10 -48h-137l-99 -467h-58l99 467h-80l10 48h80l14 63q17 78 57.5 111t98.5 33q23 0 42 -4t36 -11z" />
    <glyph glyph-name="g" unicode="g" horiz-adv-x="580" 
d="M475 19q-11 -52 -30 -93.5t-49 -70.5t-73.5 -44.5t-103.5 -15.5q-42 0 -78 8t-62 25.5t-42 46t-17 69.5h55q4 -27 13.5 -46t26 -31t42 -17.5t62.5 -5.5q85 0 131.5 41.5t67.5 139.5l15 70q-34 -44 -82 -65.5t-105 -21.5q-51 0 -86 18.5t-57 48t-31.5 66.5t-9.5 73
q0 56 18 112.5t53 102t86.5 74t117.5 28.5q52 0 97 -24t72 -72l17 80h58zM334 481q-48 0 -87 -22t-66 -59t-42 -85t-15 -100q0 -75 34 -116t95 -41q32 0 61.5 8t57.5 27q39 26 61.5 63t35.5 98l5 24q9 40 9 71q0 32 -11 55t-33 42q-20 17 -45.5 26t-59.5 9z" />
    <glyph glyph-name="h" unicode="h" horiz-adv-x="558" 
d="M179 431q50 54 102 77t99 23q72 0 109.5 -39t37.5 -108q0 -26 -6 -54l-70 -330h-58l68 319q3 14 5 28t2 28q0 47 -21.5 75.5t-75.5 28.5q-29 0 -63.5 -12t-66.5 -37q-32 -26 -55.5 -53.5t-33.5 -74.5l-64 -302h-58l151 714h58z" />
    <glyph glyph-name="i" unicode="i" horiz-adv-x="204" 
d="M33 0l109 515h58l-109 -515h-58zM157 627l18 87h66l-18 -87h-66z" />
    <glyph glyph-name="j" unicode="j" horiz-adv-x="204" 
d="M87 -18q-8 -35 -18 -65.5t-27 -53t-43 -36t-65 -13.5q-34 0 -54.5 6t-34.5 12l20 48q12 -5 28 -9.5t41 -4.5q41 0 61 24.5t29 66.5l118 558h58zM157 627l18 87h66l-18 -87h-66z" />
    <glyph glyph-name="k" unicode="k" horiz-adv-x="493" 
d="M30 0l151 714h58l-91 -435l311 236h75l-219 -173l132 -342h-65l-116 310l-134 -100l-44 -210h-58z" />
    <glyph glyph-name="l" unicode="l" horiz-adv-x="204" 
d="M33 0l151 714h58l-151 -714h-58z" />
    <glyph glyph-name="m" unicode="m" horiz-adv-x="853" 
d="M357 0l64 300q5 26 9 51t4 39q0 38 -17 63.5t-61 25.5q-31 0 -60.5 -11.5t-61.5 -37.5q-32 -25 -52.5 -54t-31.5 -81l-62 -295h-58l109 515h58l-18 -84q45 54 94.5 77t90.5 23q50 0 82 -26.5t41 -76.5q26 30 53.5 50t53.5 31.5t50 16.5t44 5q68 0 100.5 -37t32.5 -94
q0 -15 -2.5 -37.5t-7.5 -47.5l-67 -315h-58l65 304q5 21 8.5 47t3.5 46q0 33 -18.5 57.5t-64.5 24.5q-29 0 -61.5 -10t-64.5 -36q-30 -24 -46 -48.5t-26 -68.5l-67 -316h-58z" />
    <glyph glyph-name="n" unicode="n" horiz-adv-x="558" 
d="M393 0l68 319q3 14 5 28t2 28q0 47 -21.5 75.5t-75.5 28.5q-29 0 -63.5 -12t-66.5 -37q-32 -26 -55.5 -53.5t-33.5 -74.5l-64 -302h-58l109 515h58l-18 -84q50 54 102 77t99 23q72 0 109.5 -39t37.5 -108q0 -26 -6 -54l-70 -330h-58z" />
    <glyph glyph-name="o" unicode="o" horiz-adv-x="593" 
d="M269 34q52 0 94.5 21.5t72.5 59t46.5 88.5t16.5 109q0 75 -37.5 122t-110.5 47q-52 0 -94.5 -21.5t-72.5 -59t-46.5 -88.5t-16.5 -109q0 -75 37.5 -122t110.5 -47zM264 -16q-45 0 -82.5 15.5t-64.5 43.5t-42.5 67.5t-15.5 87.5q0 77 23.5 138.5t64 105t94.5 66.5t115 23
q45 0 82.5 -15.5t64.5 -43.5t42.5 -67.5t15.5 -87.5q0 -77 -23 -138.5t-62.5 -105t-94 -66.5t-117.5 -23z" />
    <glyph glyph-name="p" unicode="p" horiz-adv-x="583" 
d="M46 -194h-58l151 709h58l-16 -77q40 45 86 69t103 24q51 0 85.5 -18.5t56.5 -48.5t31.5 -68.5t9.5 -78.5q0 -59 -18 -118.5t-53.5 -107t-87.5 -77.5t-121 -30q-52 0 -97 23.5t-72 71.5zM276 34q48 0 87.5 22.5t68 61t44 88.5t15.5 106q0 85 -33.5 127t-94.5 42
q-32 0 -57 -8t-53 -27q-39 -26 -67 -65.5t-41 -100.5q-6 -26 -9.5 -44t-5.5 -30.5t-2.5 -21t-0.5 -15.5q0 -34 11 -57t33 -43q20 -17 45.5 -26t59.5 -9z" />
    <glyph glyph-name="q" unicode="q" horiz-adv-x="582" 
d="M429 77q-38 -48 -82.5 -70.5t-101.5 -22.5q-51 0 -87 19t-58.5 49.5t-32.5 69.5t-10 80q0 57 18.5 116t54 106t87.5 77t120 30q52 0 97 -24t72 -72l17 80h58l-152 -709h-58zM474 278q9 39 9 68q0 33 -11 56.5t-33 43.5q-41 35 -107 35q-48 0 -87.5 -22.5t-67 -61t-43 -89
t-15.5 -105.5q0 -82 36 -125.5t99 -43.5q32 0 56 7t50 25q38 27 65 67.5t40 101.5z" />
    <glyph glyph-name="r" unicode="r" horiz-adv-x="337" 
d="M375 465q-17 3 -37 3q-16 0 -42 -7t-55 -31q-32 -26 -55.5 -54t-33.5 -75l-64 -301h-58l109 515h58l-18 -84q48 53 88 72.5t82 19.5q11 0 23 -1.5t19 -3.5z" />
    <glyph glyph-name="s" unicode="s" horiz-adv-x="514" 
d="M441 140q-1 -40 -18.5 -69.5t-46 -48.5t-65.5 -28.5t-77 -9.5q-36 0 -72.5 7.5t-65.5 26t-47 49t-18 76.5h56q0 -32 12.5 -53.5t33.5 -34t48.5 -17.5t58.5 -5q74 0 107 31.5t33 74.5q0 40 -18.5 59.5t-67.5 30.5l-59 13q-74 17 -107 47t-33 84q0 40 17 70t45 49.5
t64.5 29t74.5 9.5q50 0 84.5 -11t56 -30t33 -45t15.5 -55l-53 -10q-5 26 -14.5 45t-26 31.5t-40.5 18.5t-59 6q-37 0 -63.5 -8t-43 -22t-24.5 -32t-8 -37q0 -17 4 -30.5t14.5 -24t29 -18.5t47.5 -14l65 -14q60 -13 94 -44.5t34 -96.5z" />
    <glyph glyph-name="t" unicode="t" horiz-adv-x="330" 
d="M285 5q-17 -6 -37.5 -11t-48.5 -5q-55 0 -85 26.5t-30 79.5q0 11 1 22.5t4 24.5l69 325h-80l10 48h80l30 142h58l-30 -142h146l-10 -48h-146l-69 -325q-2 -11 -3.5 -20.5t-1.5 -18.5q0 -64 63 -64q26 0 41 4t29 9z" />
    <glyph glyph-name="u" unicode="u" horiz-adv-x="547" 
d="M193 515l-69 -324q-2 -12 -3.5 -27t-1.5 -29q0 -20 4 -37.5t14.5 -31.5t28.5 -22t45 -8q29 0 61 11.5t63 37.5t54 53.5t33 74.5l64 302h58l-109 -515h-58l18 84q-48 -54 -97 -77t-96 -23q-37 0 -64 11t-44.5 30.5t-26 46t-8.5 57.5q0 13 1.5 27.5t4.5 28.5l70 330h58z
" />
    <glyph glyph-name="v" unicode="v" horiz-adv-x="496" 
d="M236 0h-68l-99 515h64l80 -452l274 452h66z" />
    <glyph glyph-name="w" unicode="w" horiz-adv-x="711" 
d="M505 0h-67l-34 450l-225 -450h-67l-40 515h62l24 -450l226 447h68l33 -447l216 450h64z" />
    <glyph glyph-name="x" unicode="x" horiz-adv-x="478" 
d="M263 312l185 203h67l-223 -247l135 -268h-62l-115 232l-208 -232h-69l250 278l-123 237h62z" />
    <glyph glyph-name="y" unicode="y" horiz-adv-x="498" 
d="M182 7l-113 508h63l94 -442l260 442h69l-358 -583q-19 -29 -34.5 -52.5t-32 -40t-35.5 -25t-45 -8.5q-23 0 -41.5 4t-32.5 11l19 47q9 -4 21 -7.5t27 -3.5q18 0 30 4.5t23 14.5t22 27t27 43z" />
    <glyph glyph-name="z" unicode="z" horiz-adv-x="449" 
d="M-4 49l407 417h-317l10 49h389l-10 -49l-407 -417h343l-18 -49h-407z" />
    <glyph glyph-name="braceleft" unicode="{" horiz-adv-x="263" 
d="M104 203q3 16 3 30q0 23 -12 34.5t-44 11.5h-2l11 52h2q41 0 59 19t26 57l46 216q13 64 48.5 87.5t90.5 23.5h42l-11 -49h-46q-29 0 -43.5 -14t-19.5 -40l-51 -239q-17 -77 -75 -87q41 -9 41 -56q0 -15 -3 -31l-51 -239q-2 -5 -2 -10v-10q0 -17 9 -25.5t32 -8.5h48
l-11 -49h-42q-45 0 -70.5 15t-25.5 56q0 9 1.5 19t3.5 21z" />
    <glyph glyph-name="bar" unicode="|" horiz-adv-x="202" 
d="M4 -124l183 858h60l-183 -858h-60z" />
    <glyph glyph-name="braceright" unicode="}" horiz-adv-x="263" 
d="M208 407q-2 -8 -3 -15.5t-1 -14.5q0 -23 12.5 -34.5t44.5 -11.5h2l-11 -52h-2q-42 0 -59.5 -19t-25.5 -57l-46 -216q-7 -32 -19.5 -53.5t-30 -34.5t-40 -18t-49.5 -5h-41l11 49h45q29 0 43.5 14t19.5 40l51 239q17 77 74 87q-41 8 -41 55q0 16 4 32l51 239q1 5 1.5 10
t0.5 9q0 17 -9 26t-32 9h-48l11 49h42q45 0 70 -15t25 -57q0 -19 -4 -39z" />
    <glyph glyph-name="asciitilde" unicode="~" 
d="M209 371q-40 0 -61 -23.5t-32 -83.5h-50q8 52 23 83t34.5 47t43 20.5t47.5 4.5q40 0 69 -19t53.5 -42t48.5 -42t54 -19q40 0 63 23.5t33 83.5h50q-8 -52 -23.5 -83t-35.5 -47.5t-44 -21.5t-48 -5q-40 0 -69 19.5t-54 42.5t-49 42.5t-53 19.5z" />
    <glyph glyph-name="uni00A0" unicode="&#xa0;" horiz-adv-x="224" 
 />
    <glyph glyph-name="exclamdown" unicode="&#xa1;" horiz-adv-x="206" 
d="M157 322l-105 -516h-61l113 516h53zM204 515l-19 -92h-72l19 92h72z" />
    <glyph glyph-name="cent" unicode="&#xa2;" 
d="M525 436q-3 21 -8.5 41.5t-17 38.5t-30.5 31t-47 18l-94 -444q36 1 62.5 12t46 28.5t32.5 40.5t22 49h59q-12 -39 -31.5 -71.5t-48 -56.5t-66.5 -37.5t-86 -14.5l-17 -80h-49l17 83q-40 7 -70.5 26t-51 47t-31 63.5t-10.5 75.5q0 78 22.5 139t60.5 103.5t88.5 65.5
t106.5 24l18 82h49l-18 -85q37 -6 63.5 -22t44.5 -38.5t27 -50.5t12 -57zM169 292q0 -62 26 -108.5t85 -58.5l94 442q-47 -3 -85 -24.5t-64.5 -58t-41 -85.5t-14.5 -107z" />
    <glyph glyph-name="sterling" unicode="&#xa3;" 
d="M539 540q-15 66 -44.5 92.5t-89.5 26.5q-45 0 -76 -13t-49.5 -37t-26.5 -57.5t-8 -74.5q0 -29 3 -55l6 -52h226l-11 -51h-210v-17q0 -79 -35.5 -139t-91.5 -108h386l-21 -55h-444l11 55q30 25 55 51t43 55t28.5 61.5t10.5 70.5q0 7 -0.5 13t-0.5 13h-89l11 51h72l-6 46
t-3 48q0 54 12 99t38.5 78t69 51t104.5 18q81 0 124.5 -39.5t60.5 -116.5z" />
    <glyph glyph-name="currency" unicode="&#xa4;" 
d="M287 110q-73 0 -121 45l-67 -58l-33 40l68 59q-23 43 -23 98q0 69 21.5 122.5t58.5 91.5l-44 62l44 32l42 -60q29 19 63 29t70 10q76 0 124 -48l70 61l33 -40l-72 -63q22 -42 22 -94q0 -68 -20.5 -121.5t-56.5 -90.5l46 -64l-45 -32l-43 61q-62 -40 -137 -40zM292 163
q43 0 78.5 17.5t60 48t38 72.5t13.5 90q0 63 -30.5 100t-90.5 37q-44 0 -79 -17.5t-60 -48t-38.5 -72t-13.5 -89.5q0 -63 31 -100.5t91 -37.5z" />
    <glyph glyph-name="yen" unicode="&#xa5;" 
d="M315 169l-35 -169h-59l35 169h-186l11 50h186l17 80l-11 31h-172l10 51h141l-123 310h65l126 -344l277 344h65l-253 -310h140l-10 -51h-171l-25 -31l-17 -80h193l-11 -50h-193z" />
    <glyph glyph-name="brokenbar" unicode="&#xa6;" horiz-adv-x="202" 
d="M115 398l72 336h60l-72 -336h-60zM139 229l-75 -353h-60l75 353h60z" />
    <glyph glyph-name="section" unicode="&#xa7;" horiz-adv-x="510" 
d="M199 456q-41 19 -57 50t-16 67q0 44 16.5 74t45 49t66.5 27t80 8q56 0 94 -14t62 -35t35.5 -46.5t15.5 -48.5l-54 -10q-5 22 -14.5 41t-27.5 32.5t-46 21.5t-69 8q-45 0 -73.5 -8.5t-45 -23t-22.5 -34.5t-6 -43q0 -28 19 -51t64 -37l81 -25q72 -23 104 -57.5t32 -87.5
q0 -55 -29.5 -95.5t-92.5 -55.5q42 -20 57.5 -53t15.5 -66q0 -45 -16 -76t-43.5 -49.5t-65.5 -26.5t-82 -8q-60 0 -100.5 15.5t-65 39t-35 51.5t-10.5 54h55q3 -26 12.5 -46t28.5 -34t48.5 -21.5t71.5 -7.5q46 0 74.5 9.5t44 25.5t21 36.5t5.5 41.5q0 24 -16.5 49.5
t-65.5 39.5l-82 24q-74 22 -106 57t-32 88q0 55 30.5 95.5t93.5 55.5zM253 426q-23 0 -44.5 -7t-38 -21.5t-26.5 -38t-10 -56.5q0 -31 21.5 -54t71.5 -39l30 -10q14 -5 27 -6.5t24 -1.5q22 0 43 7.5t37 22.5t26 38t10 55t-21 54t-72 39l-30 10q-26 8 -48 8z" />
    <glyph glyph-name="dieresis" unicode="&#xa8;" horiz-adv-x="379" 
d="M147 619l18 85h65l-18 -85h-65zM307 619l18 85h66l-18 -85h-66z" />
    <glyph glyph-name="copyright" unicode="&#xa9;" horiz-adv-x="772" 
d="M526 427q-10 42 -34 66.5t-74 24.5q-34 0 -58.5 -12t-40 -34t-22.5 -51.5t-7 -64.5q0 -34 7 -63.5t22.5 -51t39.5 -34t58 -12.5q51 0 77.5 25.5t34.5 70.5h55q-12 -66 -54 -104t-114 -38q-87 0 -135.5 54.5t-48.5 151.5q0 47 13 85.5t37.5 65.5t59 42t77.5 15
q67 0 106 -33t51 -93zM416 714q75 0 137.5 -25.5t107.5 -72t69.5 -112.5t24.5 -147t-26.5 -147t-72 -112.5t-107.5 -72t-133 -25.5q-75 0 -138 25.5t-108 72t-70 112.5t-25 147t26.5 147t73 112.5t108.5 72t133 25.5zM415 663q-63 0 -114.5 -22t-89 -62t-58 -96.5
t-20.5 -125.5t20.5 -125.5t58 -97t89 -62.5t114.5 -22q62 0 113.5 22t89 62.5t58.5 97t21 125.5t-21 125.5t-58.5 96.5t-89 62t-113.5 22z" />
    <glyph glyph-name="ordfeminine" unicode="&#xaa;" horiz-adv-x="424" 
d="M103 435q0 39 15 65.5t43 43t68 24.5t90 10l72 3l1 5q2 10 2.5 18t0.5 15q0 31 -18.5 50t-62.5 19q-26 0 -44.5 -3t-31.5 -10t-21.5 -19.5t-15.5 -30.5l-45 8q18 54 57 76.5t104 22.5q64 0 95.5 -30.5t31.5 -81.5q0 -10 -1 -21t-3 -22l-49 -233h-49l9 46
q-26 -22 -57 -38.5t-77 -16.5q-50 0 -82 27.5t-32 72.5zM223 380q23 0 46 6t40 17q28 17 42 36.5t21 50.5l11 50l-65 -3q-46 -2 -77 -9t-50 -19t-27 -30t-8 -43q0 -22 16 -39t51 -17z" />
    <glyph glyph-name="guillemotleft" unicode="&#xab;" horiz-adv-x="469" 
d="M250 478h59l-181 -224l82 -220h-55l-91 223zM439 478h59l-181 -224l82 -220h-55l-91 223z" />
    <glyph glyph-name="logicalnot" unicode="&#xac;" 
d="M504 161h-53l45 214h-395l11 52h448z" />
    <glyph glyph-name="uni00AD" unicode="&#xad;" horiz-adv-x="391" 
d="M65 259l12 60h291l-12 -60h-291z" />
    <glyph glyph-name="registered" unicode="&#xae;" horiz-adv-x="480" 
d="M270 497v-76h-41v202h75q27 0 43.5 -5.5t26 -14t12.5 -19.5t3 -23q0 -22 -7.5 -34.5t-27.5 -20.5l44 -85h-45l-38 76h-45zM348 564q0 11 -8.5 18.5t-37.5 7.5h-32v-58h38q27 0 33.5 9.5t6.5 22.5zM306 732q46 0 83.5 -15t64.5 -42.5t41.5 -67.5t14.5 -89q0 -50 -16 -89.5
t-43.5 -67t-65 -42.5t-79.5 -15q-45 0 -82.5 15t-64.5 42.5t-42 67t-15 89.5q0 49 16 89t43.5 67.5t65 42.5t79.5 15zM305 692q-71 0 -114 -45.5t-43 -128.5t43 -128.5t114 -45.5t115 45.5t44 128.5t-44 128.5t-115 45.5z" />
    <glyph glyph-name="macron" unicode="&#xaf;" horiz-adv-x="379" 
d="M78 678h244l-11 -51h-244z" />
    <glyph glyph-name="degree" unicode="&#xb0;" horiz-adv-x="316" 
d="M80 579q0 28 10 52t28 41.5t42.5 27.5t53.5 10q28 0 52 -10t42 -27.5t28 -41.5t10 -52q0 -29 -10 -53t-28 -42t-42 -28t-52 -10q-29 0 -53.5 10t-42.5 28t-28 42t-10 53zM131 578q0 -40 22.5 -63.5t60.5 -23.5q36 0 58.5 23.5t22.5 63.5q0 38 -22.5 62.5t-58.5 24.5
q-38 0 -60.5 -24.5t-22.5 -62.5z" />
    <glyph glyph-name="plusminus" unicode="&#xb1;" 
d="M32 0l11 55h458l-11 -55h-458zM349 314l-45 -215h-54l45 215h-201l12 53h201l45 214h54l-45 -214h201l-12 -53h-201z" />
    <glyph glyph-name="twosuperior" unicode="&#xb2;" horiz-adv-x="412" 
d="M292 660q-43 0 -66 -16.5t-39 -57.5l-48 11q14 46 51 78t105 32q53 0 86 -30.5t33 -78.5q0 -34 -11.5 -60.5t-31.5 -48.5t-46 -42t-54 -40q-21 -15 -44.5 -30.5t-47.5 -33.5h191l-19 -48h-262l8 44q35 26 73 53t76 55q24 17 44.5 32.5t36 33t24.5 38t9 47.5q0 24 -18 43
t-50 19z" />
    <glyph glyph-name="threesuperior" unicode="&#xb3;" horiz-adv-x="412" 
d="M281 523q42 0 65 21.5t23 59.5q0 24 -18 42t-53 18q-46 0 -69.5 -16t-40.5 -58l-45 10q7 23 19 42.5t31 34t45 22.5t61 8q30 0 52.5 -8.5t37.5 -22.5t22 -32.5t7 -37.5q0 -43 -20.5 -67.5t-51.5 -38.5q24 -16 34.5 -37t10.5 -47q0 -60 -37.5 -97.5t-113.5 -37.5
q-28 0 -53 8t-44 24t-30 39.5t-11 53.5h46q4 -42 30 -62t64 -20q48 0 74 23t26 67q0 32 -17 49t-47 17h-62l10 43h55z" />
    <glyph glyph-name="acute" unicode="&#xb4;" horiz-adv-x="379" 
d="M161 590l133 134h82l-149 -134h-66z" />
    <glyph glyph-name="mu" unicode="&#xb5;" horiz-adv-x="547" 
d="M193 515l-69 -324q-2 -12 -3.5 -25t-1.5 -27q0 -20 4 -38.5t14.5 -32.5t28.5 -23t45 -9q29 0 61 11.5t63 37.5t54 53.5t33 74.5l64 302h58l-109 -515h-58l18 84q-48 -54 -97 -77t-96 -23q-43 0 -69.5 13t-41.5 39l-49 -230h-58l151 709h58z" />
    <glyph glyph-name="paragraph" unicode="&#xb6;" horiz-adv-x="583" 
d="M377 -139l170 801h-137l-170 -801h-62l96 454q-52 0 -87.5 14.5t-57.5 38t-31.5 53.5t-9.5 60q0 49 16.5 91.5t54 74t97 49.5t145.5 18h219l-181 -853h-62z" />
    <glyph glyph-name="periodcentered" unicode="&#xb7;" horiz-adv-x="199" 
d="M91 327l19 93h75l-19 -93h-75z" />
    <glyph glyph-name="cedilla" unicode="&#xb8;" horiz-adv-x="379" 
d="M103 3h46l-31 -55q43 -7 59.5 -26t16.5 -39q0 -49 -35 -67.5t-88 -18.5q-14 0 -30 2t-30 5l10 44q14 -3 25 -4.5t25 -1.5q32 0 49.5 8t17.5 30q0 15 -16.5 24.5t-56.5 9.5h-12z" />
    <glyph glyph-name="onesuperior" unicode="&#xb9;" horiz-adv-x="412" 
d="M213 295l72 338l-98 -46l-19 45l125 61h63l-85 -398h-58z" />
    <glyph glyph-name="ordmasculine" unicode="&#xba;" horiz-adv-x="432" 
d="M255 380q36 0 65 15t49.5 40.5t31.5 60.5t11 75q0 52 -25.5 84t-76.5 32q-36 0 -65 -15t-49.5 -41t-31.5 -60.5t-11 -74.5q0 -52 25.5 -84t76.5 -32zM249 334q-33 0 -60 11.5t-47 32t-31 49t-11 63.5q0 56 17 100.5t46.5 76t69 48.5t83.5 17q32 0 59.5 -11t47.5 -31.5
t31 -49t11 -63.5q0 -56 -16.5 -101t-45.5 -76.5t-68.5 -48.5t-85.5 -17z" />
    <glyph glyph-name="guillemotright" unicode="&#xbb;" horiz-adv-x="479" 
d="M257 34h-60l181 224l-82 220h54l92 -223zM58 34h-60l181 224l-82 220h54l92 -223z" />
    <glyph glyph-name="onequarter" unicode="&#xbc;" horiz-adv-x="897" 
d="M174 295l72 338l-98 -46l-19 45l125 61h63l-85 -398h-58zM246 0h-65l498 691h63zM703 1l21 100h-206l8 37l260 261h51l-54 -254h50l-18 -44h-42l-21 -100h-49zM589 145h145l38 184z" />
    <glyph glyph-name="onehalf" unicode="&#xbd;" horiz-adv-x="897" 
d="M174 295l72 338l-98 -46l-19 45l125 61h63l-85 -398h-58zM215 0h-65l498 691h63zM737 366q-43 0 -66 -16.5t-39 -57.5l-48 11q14 46 51 78t105 32q53 0 86 -30.5t33 -78.5q0 -34 -11.5 -60.5t-31.5 -48.5t-46 -42t-54 -40q-21 -15 -44.5 -30.5t-47.5 -33.5h191l-19 -48
h-262l8 44q35 26 73 53t76 55q24 17 44.5 32.5t36 33t24.5 38t9 47.5q0 24 -18 43t-50 19z" />
    <glyph glyph-name="threequarters" unicode="&#xbe;" horiz-adv-x="897" 
d="M272 523q42 0 65 21.5t23 59.5q0 24 -18 42t-53 18q-46 0 -69.5 -16t-40.5 -58l-45 10q7 23 19 42.5t31 34t45 22.5t61 8q30 0 52.5 -8.5t37.5 -22.5t22 -32.5t7 -37.5q0 -43 -20.5 -67.5t-51.5 -38.5q24 -16 34.5 -37t10.5 -47q0 -60 -37.5 -97.5t-113.5 -37.5
q-28 0 -53 8t-44 24t-30 39.5t-11 53.5h46q4 -42 30 -62t64 -20q48 0 74 23t26 67q0 32 -17 49t-47 17h-62l10 43h55zM283 0h-65l498 691h63zM703 1l21 100h-206l8 37l260 261h51l-54 -254h50l-18 -44h-42l-21 -100h-49zM589 145h145l38 184z" />
    <glyph glyph-name="questiondown" unicode="&#xbf;" horiz-adv-x="493" 
d="M9 -54q0 66 32.5 113t86.5 90q24 19 46.5 36t41 35.5t32 40t19.5 50.5l2 11h58l-2 -11q-8 -38 -23.5 -64.5t-36 -48t-45 -40.5t-50.5 -40q-21 -17 -40 -34.5t-32.5 -37.5t-21.5 -43.5t-8 -52.5q1 -49 33.5 -77t95.5 -28q34 0 61 6t49 21t39 40.5t31 63.5l51 -10
q-12 -39 -31.5 -71t-48 -54.5t-67.5 -35t-90 -12.5q-46 0 -80.5 12t-57 33t-33.5 48.5t-11 59.5zM372 515l-19 -92h-74l19 92h74z" />
    <glyph glyph-name="Agrave" unicode="&#xc0;" horiz-adv-x="661" 
d="M406 714h72l131 -714h-63l-40 218h-336l-131 -218h-67zM204 274h292l-68 373zM450 774l-104 129h75l88 -129h-59z" />
    <glyph glyph-name="Aacute" unicode="&#xc1;" horiz-adv-x="661" 
d="M406 714h72l131 -714h-63l-40 218h-336l-131 -218h-67zM204 274h292l-68 373zM382 774l133 129h81l-150 -129h-64z" />
    <glyph glyph-name="Acircumflex" unicode="&#xc2;" horiz-adv-x="661" 
d="M406 714h72l131 -714h-63l-40 218h-336l-131 -218h-67zM204 274h292l-68 373zM313 774l139 129h57l85 -129h-60l-59 83l-100 -83h-62z" />
    <glyph glyph-name="Atilde" unicode="&#xc3;" horiz-adv-x="661" 
d="M406 714h72l131 -714h-63l-40 218h-336l-131 -218h-67zM204 274h292l-68 373zM526 781q-25 0 -43.5 9t-34.5 20t-31 20t-31 9q-26 0 -38 -13.5t-18 -43.5h-49q8 52 32 78.5t72 26.5q25 0 43.5 -9t34.5 -19.5t30.5 -19.5t31.5 -9q26 0 38 13t17 43h50q-8 -52 -32 -78.5
t-72 -26.5z" />
    <glyph glyph-name="Adieresis" unicode="&#xc4;" horiz-adv-x="661" 
d="M406 714h72l131 -714h-63l-40 218h-336l-131 -218h-67zM204 274h292l-68 373zM332 795l19 87h67l-19 -87h-67zM496 795l19 87h68l-19 -87h-68z" />
    <glyph glyph-name="Aring" unicode="&#xc5;" horiz-adv-x="661" 
d="M349 769q0 48 28.5 72t66.5 24q19 0 36 -6t30.5 -18t21.5 -30t8 -42q0 -34 -16 -56t-40 -32l125 -681h-63l-40 218h-336l-131 -218h-67l418 688q-18 12 -29.5 32t-11.5 49zM204 274h292l-68 373zM393 769q0 -28 14 -41t37 -13q24 0 37.5 13t13.5 41q0 29 -13.5 42.5
t-37.5 13.5q-23 0 -37 -13.5t-14 -42.5z" />
    <glyph glyph-name="AE" unicode="&#xc6;" horiz-adv-x="1012" 
d="M-35 0l573 714h528l-11 -55h-363l-56 -262h343l-12 -57h-343l-61 -284h384l-24 -56h-429l52 249h-312l-199 -249h-70zM279 305h279l76 354h-71z" />
    <glyph glyph-name="Ccedilla" unicode="&#xc7;" horiz-adv-x="709" 
d="M334 -17q-55 4 -102 25.5t-81 59t-53 89.5t-19 118q0 91 25.5 174t74.5 146t119 100t160 37q112 0 175.5 -60.5t74.5 -170.5l-61 -12q-13 97 -58 143.5t-136 46.5q-71 0 -128 -31.5t-97 -85.5t-61.5 -126.5t-21.5 -154.5q0 -51 14 -95.5t41 -78t67.5 -52.5t93.5 -19
q52 0 92 13.5t69.5 38t49 58t28.5 73.5h67q-12 -48 -35.5 -89.5t-58.5 -73t-82.5 -51t-108.5 -22.5l-22 -41q23 -4 38.5 -12t24.5 -18t13 -21t4 -20q0 -26 -10 -43t-27 -27.5t-41 -14.5t-52 -4q-16 0 -32 2t-31 5l11 45q15 -3 25.5 -4.5t26.5 -1.5q34 0 52.5 9t18.5 32
q0 16 -17.5 26.5t-60.5 10.5h-12z" />
    <glyph glyph-name="Egrave" unicode="&#xc8;" horiz-adv-x="588" 
d="M243 659l-56 -262h368l-12 -57h-368l-61 -284h409l-24 -56h-457l151 714h449l-11 -55h-388zM439 774l-104 129h75l88 -129h-59z" />
    <glyph glyph-name="Eacute" unicode="&#xc9;" horiz-adv-x="588" 
d="M243 659l-56 -262h368l-12 -57h-368l-61 -284h409l-24 -56h-457l151 714h449l-11 -55h-388zM355 774l133 129h81l-150 -129h-64z" />
    <glyph glyph-name="Ecircumflex" unicode="&#xca;" horiz-adv-x="588" 
d="M243 659l-56 -262h368l-12 -57h-368l-61 -284h409l-24 -56h-457l151 714h449l-11 -55h-388zM285 774l139 129h57l85 -129h-60l-59 83l-100 -83h-62z" />
    <glyph glyph-name="Edieresis" unicode="&#xcb;" horiz-adv-x="588" 
d="M243 659l-56 -262h368l-12 -57h-368l-61 -284h409l-24 -56h-457l151 714h449l-11 -55h-388zM311 795l19 87h67l-19 -87h-67zM475 795l19 87h68l-19 -87h-68z" />
    <glyph glyph-name="Igrave" unicode="&#xcc;" horiz-adv-x="225" 
d="M42 0l151 714h61l-151 -714h-61zM223 774l-104 129h75l88 -129h-59z" />
    <glyph glyph-name="Iacute" unicode="&#xcd;" horiz-adv-x="225" 
d="M42 0l151 714h61l-151 -714h-61zM175 774l133 129h81l-150 -129h-64z" />
    <glyph glyph-name="Icircumflex" unicode="&#xce;" horiz-adv-x="225" 
d="M42 0l151 714h61l-151 -714h-61zM96 774l139 129h57l85 -129h-60l-59 83l-100 -83h-62z" />
    <glyph glyph-name="Idieresis" unicode="&#xcf;" horiz-adv-x="225" 
d="M42 0l151 714h61l-151 -714h-61zM115 795l19 87h67l-19 -87h-67zM279 795l19 87h68l-19 -87h-68z" />
    <glyph glyph-name="Eth" unicode="&#xd0;" horiz-adv-x="712" 
d="M52 0l72 342h-82l12 54h82l67 318h226q62 0 112.5 -21t86.5 -58.5t55.5 -89.5t19.5 -115q0 -90 -25.5 -168.5t-78.5 -136.5t-134 -91.5t-191 -33.5h-222zM283 54q88 0 154.5 26.5t111.5 76t67.5 119t22.5 156.5q0 47 -14 88.5t-41 73t-67.5 49.5t-93.5 18h-170l-57 -265
h200l-12 -54h-199l-61 -288h159z" />
    <glyph glyph-name="Ntilde" unicode="&#xd1;" horiz-adv-x="690" 
d="M505 0l-272 622l-132 -622h-59l151 714h64l271 -620l132 620h59l-151 -714h-63zM548 781q-25 0 -43.5 9t-34.5 20t-31 20t-31 9q-26 0 -38 -13.5t-18 -43.5h-49q8 52 32 78.5t72 26.5q25 0 43.5 -9t34.5 -19.5t30.5 -19.5t31.5 -9q26 0 38 13t17 43h50q-8 -52 -32 -78.5
t-72 -26.5z" />
    <glyph glyph-name="Ograve" unicode="&#xd2;" horiz-adv-x="756" 
d="M466 732q59 0 110.5 -20t89.5 -58t59.5 -92.5t21.5 -124.5q0 -83 -25.5 -164t-75 -146t-121 -105t-164.5 -40q-59 0 -110.5 20t-89.5 57.5t-59.5 92t-21.5 124.5q0 82 26.5 164t76 146.5t121 105t162.5 40.5zM363 36q75 0 134.5 34.5t100.5 91t62.5 128t21.5 145.5
q0 53 -14 97.5t-42 77t-68.5 50.5t-93.5 18q-75 0 -134.5 -35t-100.5 -91t-62.5 -128t-21.5 -145q0 -53 14 -98t42 -77t68.5 -50t93.5 -18zM485 774l-104 129h75l88 -129h-59z" />
    <glyph glyph-name="Oacute" unicode="&#xd3;" horiz-adv-x="756" 
d="M466 732q59 0 110.5 -20t89.5 -58t59.5 -92.5t21.5 -124.5q0 -83 -25.5 -164t-75 -146t-121 -105t-164.5 -40q-59 0 -110.5 20t-89.5 57.5t-59.5 92t-21.5 124.5q0 82 26.5 164t76 146.5t121 105t162.5 40.5zM363 36q75 0 134.5 34.5t100.5 91t62.5 128t21.5 145.5
q0 53 -14 97.5t-42 77t-68.5 50.5t-93.5 18q-75 0 -134.5 -35t-100.5 -91t-62.5 -128t-21.5 -145q0 -53 14 -98t42 -77t68.5 -50t93.5 -18zM410 774l133 129h81l-150 -129h-64z" />
    <glyph glyph-name="Ocircumflex" unicode="&#xd4;" horiz-adv-x="756" 
d="M466 732q59 0 110.5 -20t89.5 -58t59.5 -92.5t21.5 -124.5q0 -83 -25.5 -164t-75 -146t-121 -105t-164.5 -40q-59 0 -110.5 20t-89.5 57.5t-59.5 92t-21.5 124.5q0 82 26.5 164t76 146.5t121 105t162.5 40.5zM363 36q75 0 134.5 34.5t100.5 91t62.5 128t21.5 145.5
q0 53 -14 97.5t-42 77t-68.5 50.5t-93.5 18q-75 0 -134.5 -35t-100.5 -91t-62.5 -128t-21.5 -145q0 -53 14 -98t42 -77t68.5 -50t93.5 -18zM345 774l139 129h57l85 -129h-60l-59 83l-100 -83h-62z" />
    <glyph glyph-name="Otilde" unicode="&#xd5;" horiz-adv-x="756" 
d="M466 732q59 0 110.5 -20t89.5 -58t59.5 -92.5t21.5 -124.5q0 -83 -25.5 -164t-75 -146t-121 -105t-164.5 -40q-59 0 -110.5 20t-89.5 57.5t-59.5 92t-21.5 124.5q0 82 26.5 164t76 146.5t121 105t162.5 40.5zM363 36q75 0 134.5 34.5t100.5 91t62.5 128t21.5 145.5
q0 53 -14 97.5t-42 77t-68.5 50.5t-93.5 18q-75 0 -134.5 -35t-100.5 -91t-62.5 -128t-21.5 -145q0 -53 14 -98t42 -77t68.5 -50t93.5 -18zM558 781q-25 0 -43.5 9t-34.5 20t-31 20t-31 9q-26 0 -38 -13.5t-18 -43.5h-49q8 52 32 78.5t72 26.5q25 0 43.5 -9t34.5 -19.5
t30.5 -19.5t31.5 -9q26 0 38 13t17 43h50q-8 -52 -32 -78.5t-72 -26.5z" />
    <glyph glyph-name="Odieresis" unicode="&#xd6;" horiz-adv-x="756" 
d="M466 732q59 0 110.5 -20t89.5 -58t59.5 -92.5t21.5 -124.5q0 -83 -25.5 -164t-75 -146t-121 -105t-164.5 -40q-59 0 -110.5 20t-89.5 57.5t-59.5 92t-21.5 124.5q0 82 26.5 164t76 146.5t121 105t162.5 40.5zM363 36q75 0 134.5 34.5t100.5 91t62.5 128t21.5 145.5
q0 53 -14 97.5t-42 77t-68.5 50.5t-93.5 18q-75 0 -134.5 -35t-100.5 -91t-62.5 -128t-21.5 -145q0 -53 14 -98t42 -77t68.5 -50t93.5 -18zM364 795l19 87h67l-19 -87h-67zM528 795l19 87h68l-19 -87h-68z" />
    <glyph glyph-name="multiply" unicode="&#xd7;" 
d="M127 135l-34 38l202 167l-137 170l41 33l137 -169l204 173l34 -37l-207 -174l129 -164l-42 -34l-128 165z" />
    <glyph glyph-name="Oslash" unicode="&#xd8;" horiz-adv-x="756" 
d="M466 732q54 0 101 -16.5t84 -47.5l69 79l41 -33l-74 -85q29 -36 44.5 -84t15.5 -108q0 -83 -25.5 -164t-75 -146t-121 -105t-164.5 -40q-109 0 -184 63l-67 -77l-41 33l71 82q-29 36 -44.5 84.5t-15.5 108.5q0 82 26.5 164t76 146.5t121 105t162.5 40.5zM145 279
q0 -44 9 -81.5t28 -67.5l430 494q-27 26 -64 40t-84 14q-75 0 -134.5 -35t-100.5 -91t-62.5 -128t-21.5 -145zM363 36q75 0 134.5 34.5t100.5 91t62.5 128t21.5 145.5q0 87 -36 147l-431 -493q56 -53 148 -53z" />
    <glyph glyph-name="Ugrave" unicode="&#xd9;" horiz-adv-x="676" 
d="M316 -18q-52 0 -94.5 12t-72.5 37.5t-46.5 65t-16.5 93.5q0 21 3 44.5t8 49.5l91 430h61l-92 -435q-10 -46 -10 -87q0 -78 41.5 -117t129.5 -39q55 0 94.5 15.5t67 46t46 76t31.5 105.5l92 435h61l-92 -434q-17 -79 -43 -135.5t-62.5 -92.5t-85.5 -53t-111 -17zM458 774
l-104 129h75l88 -129h-59z" />
    <glyph glyph-name="Uacute" unicode="&#xda;" horiz-adv-x="676" 
d="M316 -18q-52 0 -94.5 12t-72.5 37.5t-46.5 65t-16.5 93.5q0 21 3 44.5t8 49.5l91 430h61l-92 -435q-10 -46 -10 -87q0 -78 41.5 -117t129.5 -39q55 0 94.5 15.5t67 46t46 76t31.5 105.5l92 435h61l-92 -434q-17 -79 -43 -135.5t-62.5 -92.5t-85.5 -53t-111 -17zM390 774
l133 129h81l-150 -129h-64z" />
    <glyph glyph-name="Ucircumflex" unicode="&#xdb;" horiz-adv-x="676" 
d="M316 -18q-52 0 -94.5 12t-72.5 37.5t-46.5 65t-16.5 93.5q0 21 3 44.5t8 49.5l91 430h61l-92 -435q-10 -46 -10 -87q0 -78 41.5 -117t129.5 -39q55 0 94.5 15.5t67 46t46 76t31.5 105.5l92 435h61l-92 -434q-17 -79 -43 -135.5t-62.5 -92.5t-85.5 -53t-111 -17zM312 774
l139 129h57l85 -129h-60l-59 83l-100 -83h-62z" />
    <glyph glyph-name="Udieresis" unicode="&#xdc;" horiz-adv-x="676" 
d="M316 -18q-52 0 -94.5 12t-72.5 37.5t-46.5 65t-16.5 93.5q0 21 3 44.5t8 49.5l91 430h61l-92 -435q-10 -46 -10 -87q0 -78 41.5 -117t129.5 -39q55 0 94.5 15.5t67 46t46 76t31.5 105.5l92 435h61l-92 -434q-17 -79 -43 -135.5t-62.5 -92.5t-85.5 -53t-111 -17zM340 795
l19 87h67l-19 -87h-67zM504 795l19 87h68l-19 -87h-68z" />
    <glyph glyph-name="Yacute" unicode="&#xdd;" horiz-adv-x="588" 
d="M126 714h66l136 -353l286 353h70l-333 -405l-65 -309h-61l65 309zM345 774l133 129h81l-150 -129h-64z" />
    <glyph glyph-name="Thorn" unicode="&#xde;" horiz-adv-x="619" 
d="M613 401q0 -66 -22.5 -113.5t-63 -78t-97.5 -45t-126 -14.5h-171l-31 -150h-60l151 714h60l-29 -139h166q64 0 106.5 -16t68.5 -41t37 -56t11 -61zM313 203q53 0 97 9.5t75 32.5t48 61t17 96q0 26 -9 48t-29 38t-52.5 25t-79.5 9h-168l-67 -319h168z" />
    <glyph glyph-name="germandbls" unicode="&#xdf;" horiz-adv-x="561" 
d="M185 62q26 -13 55 -18.5t55 -5.5q48 0 80.5 13t53 36.5t29.5 56.5t9 74q0 66 -41 102.5t-117 36.5h-59l11 51h44q35 0 67 9t56.5 28.5t39 48.5t14.5 70q0 45 -27 77.5t-89 32.5q-70 0 -109.5 -36.5t-56.5 -118.5l-110 -519h-58l112 531q20 94 73.5 142.5t150.5 48.5
q44 0 76.5 -12.5t54 -33.5t32 -49t10.5 -59q0 -70 -35.5 -114.5t-103.5 -67.5q25 -7 48 -21t40.5 -35t27.5 -48.5t10 -60.5q0 -50 -13 -93t-41 -74t-73.5 -48.5t-109.5 -17.5q-32 0 -66 6.5t-60 20.5z" />
    <glyph glyph-name="agrave" unicode="&#xe0;" horiz-adv-x="525" 
d="M25 123q0 54 22 89.5t61.5 58t93.5 32.5t118 13l104 4l2 10q2 13 4 25.5t2 23.5q0 45 -26 74t-93 29q-37 0 -63 -4.5t-44 -14.5t-30.5 -27t-22.5 -42l-54 9q24 70 76.5 99t142.5 29q89 0 131 -41.5t42 -110.5q0 -14 -2 -28.5t-5 -29.5l-68 -321h-58l15 73
q-35 -35 -81 -60t-114 -25q-67 0 -110 36.5t-43 98.5zM186 40q33 0 65.5 7.5t57.5 24.5q20 13 34.5 25.5t25 26.5t18 32t12.5 42l16 76l-96 -4q-66 -3 -110.5 -12.5t-71.5 -27t-38.5 -44t-11.5 -62.5q0 -34 22 -59t77 -25zM344 590l-105 134h74l89 -134h-58z" />
    <glyph glyph-name="aacute" unicode="&#xe1;" horiz-adv-x="525" 
d="M25 123q0 54 22 89.5t61.5 58t93.5 32.5t118 13l104 4l2 10q2 13 4 25.5t2 23.5q0 45 -26 74t-93 29q-37 0 -63 -4.5t-44 -14.5t-30.5 -27t-22.5 -42l-54 9q24 70 76.5 99t142.5 29q89 0 131 -41.5t42 -110.5q0 -14 -2 -28.5t-5 -29.5l-68 -321h-58l15 73
q-35 -35 -81 -60t-114 -25q-67 0 -110 36.5t-43 98.5zM186 40q33 0 65.5 7.5t57.5 24.5q20 13 34.5 25.5t25 26.5t18 32t12.5 42l16 76l-96 -4q-66 -3 -110.5 -12.5t-71.5 -27t-38.5 -44t-11.5 -62.5q0 -34 22 -59t77 -25zM265 590l133 134h82l-149 -134h-66z" />
    <glyph glyph-name="acircumflex" unicode="&#xe2;" horiz-adv-x="525" 
d="M25 123q0 54 22 89.5t61.5 58t93.5 32.5t118 13l104 4l2 10q2 13 4 25.5t2 23.5q0 45 -26 74t-93 29q-37 0 -63 -4.5t-44 -14.5t-30.5 -27t-22.5 -42l-54 9q24 70 76.5 99t142.5 29q89 0 131 -41.5t42 -110.5q0 -14 -2 -28.5t-5 -29.5l-68 -321h-58l15 73
q-35 -35 -81 -60t-114 -25q-67 0 -110 36.5t-43 98.5zM186 40q33 0 65.5 7.5t57.5 24.5q20 13 34.5 25.5t25 26.5t18 32t12.5 42l16 76l-96 -4q-66 -3 -110.5 -12.5t-71.5 -27t-38.5 -44t-11.5 -62.5q0 -34 22 -59t77 -25zM182 590l141 134h57l84 -134h-57l-61 90l-103 -90
h-61z" />
    <glyph glyph-name="atilde" unicode="&#xe3;" horiz-adv-x="525" 
d="M25 123q0 54 22 89.5t61.5 58t93.5 32.5t118 13l104 4l2 10q2 13 4 25.5t2 23.5q0 45 -26 74t-93 29q-37 0 -63 -4.5t-44 -14.5t-30.5 -27t-22.5 -42l-54 9q24 70 76.5 99t142.5 29q89 0 131 -41.5t42 -110.5q0 -14 -2 -28.5t-5 -29.5l-68 -321h-58l15 73
q-35 -35 -81 -60t-114 -25q-67 0 -110 36.5t-43 98.5zM186 40q33 0 65.5 7.5t57.5 24.5q20 13 34.5 25.5t25 26.5t18 32t12.5 42l16 76l-96 -4q-66 -3 -110.5 -12.5t-71.5 -27t-38.5 -44t-11.5 -62.5q0 -34 22 -59t77 -25zM404 604q-24 0 -42 9t-33.5 19.5t-30 19.5t-30.5 9
q-26 0 -37.5 -13t-16.5 -42h-48q8 51 31 77.5t70 26.5q24 0 42 -9t33.5 -19.5t30 -19.5t30.5 -9q26 0 37.5 13t16.5 42h48q-8 -51 -31 -77.5t-70 -26.5z" />
    <glyph glyph-name="adieresis" unicode="&#xe4;" horiz-adv-x="525" 
d="M25 123q0 54 22 89.5t61.5 58t93.5 32.5t118 13l104 4l2 10q2 13 4 25.5t2 23.5q0 45 -26 74t-93 29q-37 0 -63 -4.5t-44 -14.5t-30.5 -27t-22.5 -42l-54 9q24 70 76.5 99t142.5 29q89 0 131 -41.5t42 -110.5q0 -14 -2 -28.5t-5 -29.5l-68 -321h-58l15 73
q-35 -35 -81 -60t-114 -25q-67 0 -110 36.5t-43 98.5zM186 40q33 0 65.5 7.5t57.5 24.5q20 13 34.5 25.5t25 26.5t18 32t12.5 42l16 76l-96 -4q-66 -3 -110.5 -12.5t-71.5 -27t-38.5 -44t-11.5 -62.5q0 -34 22 -59t77 -25zM217 619l18 85h65l-18 -85h-65zM377 619l18 85h66
l-18 -85h-66z" />
    <glyph glyph-name="aring" unicode="&#xe5;" horiz-adv-x="525" 
d="M25 123q0 54 22 89.5t61.5 58t93.5 32.5t118 13l104 4l2 10q2 13 4 25.5t2 23.5q0 45 -26 74t-93 29q-37 0 -63 -4.5t-44 -14.5t-30.5 -27t-22.5 -42l-54 9q24 70 76.5 99t142.5 29q89 0 131 -41.5t42 -110.5q0 -14 -2 -28.5t-5 -29.5l-68 -321h-58l15 73
q-35 -35 -81 -60t-114 -25q-67 0 -110 36.5t-43 98.5zM186 40q33 0 65.5 7.5t57.5 24.5q20 13 34.5 25.5t25 26.5t18 32t12.5 42l16 76l-96 -4q-66 -3 -110.5 -12.5t-71.5 -27t-38.5 -44t-11.5 -62.5q0 -34 22 -59t77 -25zM240 683q0 47 28 71t66 24q18 0 35.5 -6t30.5 -18
t21 -30t8 -41q0 -24 -8 -41.5t-21 -29t-30.5 -17.5t-35.5 -6q-38 0 -66 23.5t-28 70.5zM284 683q0 -28 13.5 -41.5t36.5 -13.5t36.5 13.5t13.5 41.5t-13.5 41.5t-36.5 13.5t-36.5 -13.5t-13.5 -41.5z" />
    <glyph glyph-name="ae" unicode="&#xe6;" horiz-adv-x="890" 
d="M456 203q0 -35 9 -66t28 -54t48.5 -37t71.5 -14q37 0 63 8t43.5 21.5t28.5 32.5t19 41h57q-12 -33 -28 -61t-41 -48t-60.5 -31t-85.5 -11q-45 0 -78.5 11t-56.5 29t-38.5 41t-24.5 47q-47 -68 -101 -96t-129 -28q-35 0 -63.5 9.5t-49 27t-32 42.5t-11.5 56
q0 54 21.5 89.5t59.5 58t90 32.5t112 13l108 4l2 10q6 30 4 57.5t-14.5 48.5t-37 33.5t-63.5 12.5q-35 0 -59.5 -4.5t-42.5 -14.5t-30 -27t-22 -42l-54 9q24 70 76 99t137 29q60 0 101 -25t55 -73q35 46 83.5 72t120.5 26q48 0 83.5 -15.5t59 -42t34.5 -62.5t11 -77
q0 -15 -1 -36.5t-4 -38.5l-3 -16h-395q-1 -10 -1 -19.5v-20.5zM189 40q40 0 69.5 7.5t48.5 21.5q35 25 54.5 53t29.5 76l16 76l-100 -4q-63 -3 -105 -12.5t-67.5 -27t-36.5 -44t-11 -62.5q0 -34 22.5 -59t79.5 -25zM667 484q-79 0 -131 -50t-71 -141h336q2 9 2.5 22t0.5 24
q0 31 -8 57.5t-24.5 46t-42.5 30.5t-62 11z" />
    <glyph glyph-name="ccedilla" unicode="&#xe7;" horiz-adv-x="554" 
d="M233 -14q-43 5 -76 23.5t-55 47t-33 65t-11 77.5q0 79 23 140.5t62 104t90.5 65t108.5 22.5q49 0 84 -14t57.5 -38t34 -55t14.5 -64l-55 -11q-3 24 -10 47.5t-22 42t-40 30.5t-64 12q-50 0 -90.5 -20.5t-69.5 -57t-44.5 -87.5t-15.5 -111q0 -36 8 -67.5t26 -54.5
t46.5 -36t69.5 -13q38 0 66.5 10t49 27.5t34 41t22.5 49.5h59q-23 -75 -77 -124.5t-147 -53.5l-20 -36q43 -7 59.5 -26t16.5 -39q0 -49 -35 -67.5t-88 -18.5q-14 0 -30 2t-30 5l10 44q14 -3 25 -4.5t25 -1.5q32 0 49.5 8t17.5 30q0 15 -16.5 24.5t-56.5 9.5h-12z" />
    <glyph glyph-name="egrave" unicode="&#xe8;" horiz-adv-x="560" 
d="M118 203q0 -35 9.5 -66t29 -54t49.5 -37t72 -14q37 0 63.5 8t45 21.5t30.5 32.5t20 41h57q-12 -33 -29 -61t-43 -48t-62 -31t-86 -11q-54 0 -94.5 18t-67.5 48.5t-40.5 70t-13.5 83.5q0 79 22 140t60 102.5t88.5 63t108.5 21.5q48 0 84.5 -15.5t60.5 -42t36 -62.5t12 -77
q0 -15 -1 -36.5t-4 -38.5l-3 -16h-403q-1 -10 -1 -19.5v-20.5zM332 484q-79 0 -132.5 -50t-72.5 -141h344q2 9 2.5 22t0.5 24q0 31 -8.5 57.5t-26.5 46t-44.5 30.5t-62.5 11zM361 590l-105 134h74l89 -134h-58z" />
    <glyph glyph-name="eacute" unicode="&#xe9;" horiz-adv-x="560" 
d="M118 203q0 -35 9.5 -66t29 -54t49.5 -37t72 -14q37 0 63.5 8t45 21.5t30.5 32.5t20 41h57q-12 -33 -29 -61t-43 -48t-62 -31t-86 -11q-54 0 -94.5 18t-67.5 48.5t-40.5 70t-13.5 83.5q0 79 22 140t60 102.5t88.5 63t108.5 21.5q48 0 84.5 -15.5t60.5 -42t36 -62.5t12 -77
q0 -15 -1 -36.5t-4 -38.5l-3 -16h-403q-1 -10 -1 -19.5v-20.5zM332 484q-79 0 -132.5 -50t-72.5 -141h344q2 9 2.5 22t0.5 24q0 31 -8.5 57.5t-26.5 46t-44.5 30.5t-62.5 11zM282 590l133 134h82l-149 -134h-66z" />
    <glyph glyph-name="ecircumflex" unicode="&#xea;" horiz-adv-x="560" 
d="M118 203q0 -35 9.5 -66t29 -54t49.5 -37t72 -14q37 0 63.5 8t45 21.5t30.5 32.5t20 41h57q-12 -33 -29 -61t-43 -48t-62 -31t-86 -11q-54 0 -94.5 18t-67.5 48.5t-40.5 70t-13.5 83.5q0 79 22 140t60 102.5t88.5 63t108.5 21.5q48 0 84.5 -15.5t60.5 -42t36 -62.5t12 -77
q0 -15 -1 -36.5t-4 -38.5l-3 -16h-403q-1 -10 -1 -19.5v-20.5zM332 484q-79 0 -132.5 -50t-72.5 -141h344q2 9 2.5 22t0.5 24q0 31 -8.5 57.5t-26.5 46t-44.5 30.5t-62.5 11zM206 590l141 134h57l84 -134h-57l-61 90l-103 -90h-61z" />
    <glyph glyph-name="edieresis" unicode="&#xeb;" horiz-adv-x="560" 
d="M118 203q0 -35 9.5 -66t29 -54t49.5 -37t72 -14q37 0 63.5 8t45 21.5t30.5 32.5t20 41h57q-12 -33 -29 -61t-43 -48t-62 -31t-86 -11q-54 0 -94.5 18t-67.5 48.5t-40.5 70t-13.5 83.5q0 79 22 140t60 102.5t88.5 63t108.5 21.5q48 0 84.5 -15.5t60.5 -42t36 -62.5t12 -77
q0 -15 -1 -36.5t-4 -38.5l-3 -16h-403q-1 -10 -1 -19.5v-20.5zM332 484q-79 0 -132.5 -50t-72.5 -141h344q2 9 2.5 22t0.5 24q0 31 -8.5 57.5t-26.5 46t-44.5 30.5t-62.5 11zM235 619l18 85h65l-18 -85h-65zM395 619l18 85h66l-18 -85h-66z" />
    <glyph glyph-name="igrave" unicode="&#xec;" horiz-adv-x="204" 
d="M33 0l109 515h58l-109 -515h-58zM153 590l-105 134h74l89 -134h-58z" />
    <glyph glyph-name="iacute" unicode="&#xed;" horiz-adv-x="204" 
d="M33 0l109 515h58l-109 -515h-58zM132 590l133 134h82l-149 -134h-66z" />
    <glyph glyph-name="icircumflex" unicode="&#xee;" horiz-adv-x="204" 
d="M33 0l109 515h58l-109 -515h-58zM32 590l141 134h57l84 -134h-57l-61 90l-103 -90h-61z" />
    <glyph glyph-name="idieresis" unicode="&#xef;" horiz-adv-x="204" 
d="M33 0l109 515h58l-109 -515h-58zM66 619l18 85h65l-18 -85h-65zM226 619l18 85h66l-18 -85h-66z" />
    <glyph glyph-name="eth" unicode="&#xf0;" horiz-adv-x="593" 
d="M285 583l68 59q-54 26 -124 33l11 49q47 -5 85 -16.5t70 -28.5l83 72l32 -35l-74 -64q37 -29 61 -66.5t38 -80.5t20 -91t6 -97q0 -75 -22 -136.5t-61 -105t-92 -67.5t-115 -24q-47 0 -86 15.5t-67 43t-43.5 65t-15.5 80.5q0 64 22 119.5t59.5 96.5t88.5 64t109 23
q50 0 88.5 -17.5t65.5 -47.5q-7 67 -31.5 114t-65.5 77l-78 -68zM276 34q50 0 91 20t70.5 54.5t45.5 82t16 101.5q0 32 -10 58t-35 49q-46 42 -121 42q-50 0 -89 -21t-66.5 -56t-42 -79.5t-14.5 -91.5q0 -33 10 -61.5t30 -50.5t48.5 -34.5t66.5 -12.5z" />
    <glyph glyph-name="ntilde" unicode="&#xf1;" horiz-adv-x="558" 
d="M391 0l68 319q3 14 5 28t2 28q0 47 -21.5 75.5t-75.5 28.5q-29 0 -63.5 -12t-66.5 -37q-32 -26 -55.5 -53.5t-33.5 -74.5l-64 -302h-58l109 515h58l-18 -84q50 54 102 77t99 23q72 0 109.5 -39t37.5 -108q0 -26 -6 -54l-70 -330h-58zM451 604q-24 0 -42 9t-33.5 19.5
t-30 19.5t-30.5 9q-26 0 -37.5 -13t-16.5 -42h-48q8 51 31 77.5t70 26.5q24 0 42 -9t33.5 -19.5t30 -19.5t30.5 -9q26 0 37.5 13t16.5 42h48q-8 -51 -31 -77.5t-70 -26.5z" />
    <glyph glyph-name="ograve" unicode="&#xf2;" horiz-adv-x="593" 
d="M266 34q52 0 94.5 21.5t72.5 59t46.5 88.5t16.5 109q0 75 -37.5 122t-110.5 47q-52 0 -94.5 -21.5t-72.5 -59t-46.5 -88.5t-16.5 -109q0 -75 37.5 -122t110.5 -47zM261 -16q-45 0 -82.5 15.5t-64.5 43.5t-42.5 67.5t-15.5 87.5q0 77 23.5 138.5t64 105t94.5 66.5t115 23
q45 0 82.5 -15.5t64.5 -43.5t42.5 -67.5t15.5 -87.5q0 -77 -23 -138.5t-62.5 -105t-94 -66.5t-117.5 -23zM367 590l-105 134h74l89 -134h-58z" />
    <glyph glyph-name="oacute" unicode="&#xf3;" horiz-adv-x="593" 
d="M266 34q52 0 94.5 21.5t72.5 59t46.5 88.5t16.5 109q0 75 -37.5 122t-110.5 47q-52 0 -94.5 -21.5t-72.5 -59t-46.5 -88.5t-16.5 -109q0 -75 37.5 -122t110.5 -47zM261 -16q-45 0 -82.5 15.5t-64.5 43.5t-42.5 67.5t-15.5 87.5q0 77 23.5 138.5t64 105t94.5 66.5t115 23
q45 0 82.5 -15.5t64.5 -43.5t42.5 -67.5t15.5 -87.5q0 -77 -23 -138.5t-62.5 -105t-94 -66.5t-117.5 -23zM308 590l133 134h82l-149 -134h-66z" />
    <glyph glyph-name="ocircumflex" unicode="&#xf4;" horiz-adv-x="593" 
d="M266 34q52 0 94.5 21.5t72.5 59t46.5 88.5t16.5 109q0 75 -37.5 122t-110.5 47q-52 0 -94.5 -21.5t-72.5 -59t-46.5 -88.5t-16.5 -109q0 -75 37.5 -122t110.5 -47zM261 -16q-45 0 -82.5 15.5t-64.5 43.5t-42.5 67.5t-15.5 87.5q0 77 23.5 138.5t64 105t94.5 66.5t115 23
q45 0 82.5 -15.5t64.5 -43.5t42.5 -67.5t15.5 -87.5q0 -77 -23 -138.5t-62.5 -105t-94 -66.5t-117.5 -23zM220 590l141 134h57l84 -134h-57l-61 90l-103 -90h-61z" />
    <glyph glyph-name="otilde" unicode="&#xf5;" horiz-adv-x="593" 
d="M266 34q52 0 94.5 21.5t72.5 59t46.5 88.5t16.5 109q0 75 -37.5 122t-110.5 47q-52 0 -94.5 -21.5t-72.5 -59t-46.5 -88.5t-16.5 -109q0 -75 37.5 -122t110.5 -47zM261 -16q-45 0 -82.5 15.5t-64.5 43.5t-42.5 67.5t-15.5 87.5q0 77 23.5 138.5t64 105t94.5 66.5t115 23
q45 0 82.5 -15.5t64.5 -43.5t42.5 -67.5t15.5 -87.5q0 -77 -23 -138.5t-62.5 -105t-94 -66.5t-117.5 -23zM444 604q-24 0 -42 9t-33.5 19.5t-30 19.5t-30.5 9q-26 0 -37.5 -13t-16.5 -42h-48q8 51 31 77.5t70 26.5q24 0 42 -9t33.5 -19.5t30 -19.5t30.5 -9q26 0 37.5 13
t16.5 42h48q-8 -51 -31 -77.5t-70 -26.5z" />
    <glyph glyph-name="odieresis" unicode="&#xf6;" horiz-adv-x="593" 
d="M266 34q52 0 94.5 21.5t72.5 59t46.5 88.5t16.5 109q0 75 -37.5 122t-110.5 47q-52 0 -94.5 -21.5t-72.5 -59t-46.5 -88.5t-16.5 -109q0 -75 37.5 -122t110.5 -47zM261 -16q-45 0 -82.5 15.5t-64.5 43.5t-42.5 67.5t-15.5 87.5q0 77 23.5 138.5t64 105t94.5 66.5t115 23
q45 0 82.5 -15.5t64.5 -43.5t42.5 -67.5t15.5 -87.5q0 -77 -23 -138.5t-62.5 -105t-94 -66.5t-117.5 -23zM254 619l18 85h65l-18 -85h-65zM414 619l18 85h66l-18 -85h-66z" />
    <glyph glyph-name="divide" unicode="&#xf7;" 
d="M321 479l19 86h71l-19 -86h-71zM244 115l18 86h71l-18 -86h-71zM107 313l12 55h430l-12 -55h-430z" />
    <glyph glyph-name="oslash" unicode="&#xf8;" horiz-adv-x="593" 
d="M517 455q21 -27 32.5 -61.5t11.5 -76.5q0 -77 -23 -138.5t-62.5 -105t-94 -66.5t-117.5 -23q-36 0 -67 10t-56 28l-57 -65l-38 31l59 68q-22 27 -34 63t-12 79q0 77 23.5 138.5t64 105t94.5 66.5t115 23q37 0 68.5 -10.5t57.5 -30.5l57 65l38 -31zM121 203q0 -59 23 -102
l302 348q-18 15 -42 23.5t-53 8.5q-52 0 -94.5 -21.5t-72.5 -59t-46.5 -88.5t-16.5 -109zM269 34q52 0 94.5 21.5t72.5 59t46.5 88.5t16.5 109q0 55 -22 97l-301 -346q37 -29 93 -29z" />
    <glyph glyph-name="ugrave" unicode="&#xf9;" horiz-adv-x="547" 
d="M193 515l-69 -324q-2 -12 -3.5 -27t-1.5 -29q0 -20 4 -37.5t14.5 -31.5t28.5 -22t45 -8q29 0 61 11.5t63 37.5t54 53.5t33 74.5l64 302h58l-109 -515h-58l18 84q-48 -54 -97 -77t-96 -23q-37 0 -64 11t-44.5 30.5t-26 46t-8.5 57.5q0 13 1.5 27.5t4.5 28.5l70 330h58z
M334 590l-105 134h74l89 -134h-58z" />
    <glyph glyph-name="uacute" unicode="&#xfa;" horiz-adv-x="547" 
d="M193 515l-69 -324q-2 -12 -3.5 -27t-1.5 -29q0 -20 4 -37.5t14.5 -31.5t28.5 -22t45 -8q29 0 61 11.5t63 37.5t54 53.5t33 74.5l64 302h58l-109 -515h-58l18 84q-48 -54 -97 -77t-96 -23q-37 0 -64 11t-44.5 30.5t-26 46t-8.5 57.5q0 13 1.5 27.5t4.5 28.5l70 330h58z
M284 590l133 134h82l-149 -134h-66z" />
    <glyph glyph-name="ucircumflex" unicode="&#xfb;" horiz-adv-x="547" 
d="M193 515l-69 -324q-2 -12 -3.5 -27t-1.5 -29q0 -20 4 -37.5t14.5 -31.5t28.5 -22t45 -8q29 0 61 11.5t63 37.5t54 53.5t33 74.5l64 302h58l-109 -515h-58l18 84q-48 -54 -97 -77t-96 -23q-37 0 -64 11t-44.5 30.5t-26 46t-8.5 57.5q0 13 1.5 27.5t4.5 28.5l70 330h58z
M200 590l141 134h57l84 -134h-57l-61 90l-103 -90h-61z" />
    <glyph glyph-name="udieresis" unicode="&#xfc;" horiz-adv-x="547" 
d="M193 515l-69 -324q-2 -12 -3.5 -27t-1.5 -29q0 -20 4 -37.5t14.5 -31.5t28.5 -22t45 -8q29 0 61 11.5t63 37.5t54 53.5t33 74.5l64 302h58l-109 -515h-58l18 84q-48 -54 -97 -77t-96 -23q-37 0 -64 11t-44.5 30.5t-26 46t-8.5 57.5q0 13 1.5 27.5t4.5 28.5l70 330h58z
M232 619l18 85h65l-18 -85h-65zM392 619l18 85h66l-18 -85h-66z" />
    <glyph glyph-name="yacute" unicode="&#xfd;" horiz-adv-x="498" 
d="M182 7l-113 508h63l94 -442l260 442h69l-358 -583q-19 -29 -34.5 -52.5t-32 -40t-35.5 -25t-45 -8.5q-23 0 -41.5 4t-32.5 11l19 47q9 -4 21 -7.5t27 -3.5q18 0 30 4.5t23 14.5t22 27t27 43zM245 590l133 134h82l-149 -134h-66z" />
    <glyph glyph-name="thorn" unicode="&#xfe;" horiz-adv-x="583" 
d="M46 -194h-58l193 908h58l-58 -276q40 45 86 69t103 24q51 0 86 -18.5t56.5 -49t31 -69.5t9.5 -79q0 -59 -18 -118t-53.5 -106t-88 -77t-120.5 -30q-52 0 -97 23.5t-72 71.5zM276 34q48 0 87.5 22.5t68 61t44 88.5t15.5 106q0 85 -33.5 127t-94.5 42q-32 0 -57 -8t-53 -27
q-39 -26 -67 -65.5t-41 -100.5l-9 -43q-9 -39 -9 -68q0 -34 11 -57t33 -43q20 -17 45.5 -26t59.5 -9z" />
    <glyph glyph-name="ydieresis" unicode="&#xff;" horiz-adv-x="498" 
d="M182 7l-113 508h63l94 -442l260 442h69l-358 -583q-19 -29 -34.5 -52.5t-32 -40t-35.5 -25t-45 -8.5q-23 0 -41.5 4t-32.5 11l19 47q9 -4 21 -7.5t27 -3.5q18 0 30 4.5t23 14.5t22 27t27 43zM201 619l18 85h65l-18 -85h-65zM361 619l18 85h66l-18 -85h-66z" />
    <glyph glyph-name="Amacron" unicode="&#x100;" horiz-adv-x="661" 
d="M406 714h72l131 -714h-63l-40 218h-336l-131 -218h-67zM204 274h292l-68 373zM308 798l11 53h282l-11 -53h-282z" />
    <glyph glyph-name="amacron" unicode="&#x101;" horiz-adv-x="525" 
d="M25 123q0 54 22 89.5t61.5 58t93.5 32.5t118 13l104 4l2 10q2 13 4 25.5t2 23.5q0 45 -26 74t-93 29q-37 0 -63 -4.5t-44 -14.5t-30.5 -27t-22.5 -42l-54 9q24 70 76.5 99t142.5 29q89 0 131 -41.5t42 -110.5q0 -14 -2 -28.5t-5 -29.5l-68 -321h-58l15 73
q-35 -35 -81 -60t-114 -25q-67 0 -110 36.5t-43 98.5zM186 40q33 0 65.5 7.5t57.5 24.5q20 13 34.5 25.5t25 26.5t18 32t12.5 42l16 76l-96 -4q-66 -3 -110.5 -12.5t-71.5 -27t-38.5 -44t-11.5 -62.5q0 -34 22 -59t77 -25zM218 678h244l-11 -51h-244z" />
    <glyph glyph-name="Abreve" unicode="&#x102;" horiz-adv-x="661" 
d="M406 714h72l131 -714h-63l-40 218h-336l-131 -218h-67zM204 274h292l-68 373zM476 774q-51 0 -80.5 25.5t-29.5 73.5q0 13 3 30h48q-3 -14 -3 -24q0 -32 17.5 -46.5t46.5 -14.5q35 0 61 18.5t34 66.5h48q-13 -69 -49 -99t-96 -30z" />
    <glyph glyph-name="abreve" unicode="&#x103;" horiz-adv-x="525" 
d="M25 123q0 54 22 89.5t61.5 58t93.5 32.5t118 13l104 4l2 10q2 13 4 25.5t2 23.5q0 45 -26 74t-93 29q-37 0 -63 -4.5t-44 -14.5t-30.5 -27t-22.5 -42l-54 9q24 70 76.5 99t142.5 29q89 0 131 -41.5t42 -110.5q0 -14 -2 -28.5t-5 -29.5l-68 -321h-58l15 73
q-35 -35 -81 -60t-114 -25q-67 0 -110 36.5t-43 98.5zM186 40q33 0 65.5 7.5t57.5 24.5q20 13 34.5 25.5t25 26.5t18 32t12.5 42l16 76l-96 -4q-66 -3 -110.5 -12.5t-71.5 -27t-38.5 -44t-11.5 -62.5q0 -34 22 -59t77 -25zM336 589q-51 0 -80.5 26.5t-29.5 74.5q0 13 3 30
h48q-3 -14 -3 -24q0 -32 17.5 -48t46.5 -16q35 0 61 20t34 68h48q-13 -69 -49 -100t-96 -31z" />
    <glyph glyph-name="Aogonek" unicode="&#x104;" horiz-adv-x="661" 
d="M586 -175q-6 -1 -13 -1.5t-17 -0.5q-38 0 -60.5 19t-22.5 49t17 56.5t58 52.5h-2l-40 218h-336l-131 -218h-67l434 714h72l131 -714q-77 -53 -77 -94q0 -16 10 -25.5t30 -9.5q5 0 12 0.5t13 1.5zM204 274h292l-68 373z" />
    <glyph glyph-name="aogonek" unicode="&#x105;" horiz-adv-x="525" 
d="M393 -170q-6 -1 -13 -1.5t-16 -0.5q-38 0 -59.5 18.5t-21.5 47.5t17.5 54.5t57.5 51.5l15 73q-35 -35 -81 -60t-114 -25q-67 0 -110 36.5t-43 98.5q0 54 22 89.5t61.5 58t93.5 32.5t118 13l104 4l2 10q2 13 4 25.5t2 23.5q0 45 -26 74t-93 29q-37 0 -63 -4.5t-44 -14.5
t-30.5 -27t-22.5 -42l-54 9q24 70 76.5 99t142.5 29q89 0 131 -41.5t42 -110.5q0 -14 -2 -28.5t-5 -29.5l-68 -321h-1q-38 -26 -56.5 -48t-18.5 -43q0 -34 39 -34q5 0 12 0.5t12 1.5zM186 40q33 0 65.5 7.5t57.5 24.5q20 13 34.5 25.5t25 26.5t18 32t12.5 42l16 76l-96 -4
q-66 -3 -110.5 -12.5t-71.5 -27t-38.5 -44t-11.5 -62.5q0 -34 22 -59t77 -25z" />
    <glyph glyph-name="Cacute" unicode="&#x106;" horiz-adv-x="709" 
d="M667 219q-12 -50 -37 -93.5t-63.5 -75.5t-90.5 -50t-119 -18q-59 0 -110 20t-88.5 57.5t-58.5 92t-21 123.5q0 91 25.5 174t74.5 146t119 100t160 37q112 0 175.5 -60.5t74.5 -170.5l-61 -12q-13 97 -58 143.5t-136 46.5q-71 0 -128 -31.5t-97 -85.5t-61.5 -126.5
t-21.5 -154.5q0 -51 14 -95.5t41 -78t67.5 -52.5t93.5 -19q52 0 92 13.5t69.5 38t49 58t28.5 73.5h67zM415 774l133 129h81l-150 -129h-64z" />
    <glyph glyph-name="cacute" unicode="&#x107;" horiz-adv-x="554" 
d="M477 349q-3 24 -10 47.5t-22 42t-40 30.5t-64 12q-50 0 -90.5 -20.5t-69.5 -57t-44.5 -87.5t-15.5 -111q0 -36 8 -67.5t26 -54.5t46.5 -36t69.5 -13q38 0 66.5 10t49 27.5t34 41t22.5 49.5h59q-12 -39 -32 -71.5t-49 -56t-68 -37t-88 -13.5q-51 0 -89.5 17t-65 46
t-39.5 68t-13 84q0 79 23 140.5t62 104t90.5 65t108.5 22.5q49 0 84 -14t57.5 -38t34 -55t14.5 -64zM294 590l133 134h82l-149 -134h-66z" />
    <glyph glyph-name="Ccircumflex" unicode="&#x108;" horiz-adv-x="709" 
d="M667 219q-12 -50 -37 -93.5t-63.5 -75.5t-90.5 -50t-119 -18q-59 0 -110 20t-88.5 57.5t-58.5 92t-21 123.5q0 91 25.5 174t74.5 146t119 100t160 37q112 0 175.5 -60.5t74.5 -170.5l-61 -12q-13 97 -58 143.5t-136 46.5q-71 0 -128 -31.5t-97 -85.5t-61.5 -126.5
t-21.5 -154.5q0 -51 14 -95.5t41 -78t67.5 -52.5t93.5 -19q52 0 92 13.5t69.5 38t49 58t28.5 73.5h67zM325 774l139 129h57l85 -129h-60l-59 83l-100 -83h-62z" />
    <glyph glyph-name="ccircumflex" unicode="&#x109;" horiz-adv-x="554" 
d="M477 349q-3 24 -10 47.5t-22 42t-40 30.5t-64 12q-50 0 -90.5 -20.5t-69.5 -57t-44.5 -87.5t-15.5 -111q0 -36 8 -67.5t26 -54.5t46.5 -36t69.5 -13q38 0 66.5 10t49 27.5t34 41t22.5 49.5h59q-12 -39 -32 -71.5t-49 -56t-68 -37t-88 -13.5q-51 0 -89.5 17t-65 46
t-39.5 68t-13 84q0 79 23 140.5t62 104t90.5 65t108.5 22.5q49 0 84 -14t57.5 -38t34 -55t14.5 -64zM216 590l141 134h57l84 -134h-57l-61 90l-103 -90h-61z" />
    <glyph glyph-name="Cdotaccent" unicode="&#x10a;" horiz-adv-x="709" 
d="M667 219q-12 -50 -37 -93.5t-63.5 -75.5t-90.5 -50t-119 -18q-59 0 -110 20t-88.5 57.5t-58.5 92t-21 123.5q0 91 25.5 174t74.5 146t119 100t160 37q112 0 175.5 -60.5t74.5 -170.5l-61 -12q-13 97 -58 143.5t-136 46.5q-71 0 -128 -31.5t-97 -85.5t-61.5 -126.5
t-21.5 -154.5q0 -51 14 -95.5t41 -78t67.5 -52.5t93.5 -19q52 0 92 13.5t69.5 38t49 58t28.5 73.5h67zM439 794l19 89h68l-19 -89h-68z" />
    <glyph glyph-name="cdotaccent" unicode="&#x10b;" horiz-adv-x="554" 
d="M477 349q-3 24 -10 47.5t-22 42t-40 30.5t-64 12q-50 0 -90.5 -20.5t-69.5 -57t-44.5 -87.5t-15.5 -111q0 -36 8 -67.5t26 -54.5t46.5 -36t69.5 -13q38 0 66.5 10t49 27.5t34 41t22.5 49.5h59q-12 -39 -32 -71.5t-49 -56t-68 -37t-88 -13.5q-51 0 -89.5 17t-65 46
t-39.5 68t-13 84q0 79 23 140.5t62 104t90.5 65t108.5 22.5q49 0 84 -14t57.5 -38t34 -55t14.5 -64zM322 618l18 87h66l-18 -87h-66z" />
    <glyph glyph-name="Ccaron" unicode="&#x10c;" horiz-adv-x="709" 
d="M667 219q-12 -50 -37 -93.5t-63.5 -75.5t-90.5 -50t-119 -18q-59 0 -110 20t-88.5 57.5t-58.5 92t-21 123.5q0 91 25.5 174t74.5 146t119 100t160 37q112 0 175.5 -60.5t74.5 -170.5l-61 -12q-13 97 -58 143.5t-136 46.5q-71 0 -128 -31.5t-97 -85.5t-61.5 -126.5
t-21.5 -154.5q0 -51 14 -95.5t41 -78t67.5 -52.5t93.5 -19q52 0 92 13.5t69.5 38t49 58t28.5 73.5h67zM637 906l-139 -129h-57l-85 129h60l59 -83l100 83h62z" />
    <glyph glyph-name="ccaron" unicode="&#x10d;" horiz-adv-x="554" 
d="M477 349q-3 24 -10 47.5t-22 42t-40 30.5t-64 12q-50 0 -90.5 -20.5t-69.5 -57t-44.5 -87.5t-15.5 -111q0 -36 8 -67.5t26 -54.5t46.5 -36t69.5 -13q38 0 66.5 10t49 27.5t34 41t22.5 49.5h59q-12 -39 -32 -71.5t-49 -56t-68 -37t-88 -13.5q-51 0 -89.5 17t-65 46
t-39.5 68t-13 84q0 79 23 140.5t62 104t90.5 65t108.5 22.5q49 0 84 -14t57.5 -38t34 -55t14.5 -64zM527 726l-141 -134h-57l-84 134h57l61 -90l103 90h61z" />
    <glyph glyph-name="Dcaron" unicode="&#x10e;" horiz-adv-x="702" 
d="M42 0l151 714h226q62 0 112.5 -21t86.5 -58.5t55.5 -89.5t19.5 -115q0 -90 -25.5 -168.5t-78.5 -136.5t-134 -91.5t-191 -33.5h-222zM273 54q88 0 154.5 26.5t111.5 76t67.5 119t22.5 156.5q0 47 -14 88.5t-41 73t-67.5 49.5t-93.5 18h-170l-129 -607h159zM573 906
l-139 -129h-57l-85 129h60l59 -83l100 83h62z" />
    <glyph glyph-name="dcaron" unicode="&#x10f;" horiz-adv-x="581" 
d="M429 77q-38 -48 -82.5 -70.5t-101.5 -22.5q-51 0 -87 19.5t-58.5 50t-32.5 69.5t-10 78q0 59 18.5 118t54 106t87.5 76.5t120 29.5q52 0 97 -24t72 -72l59 279h58l-152 -714h-58zM474 278q9 40 9 70q0 32 -11 55.5t-33 42.5q-20 17 -45.5 26t-59.5 9q-48 0 -87.5 -22
t-68 -60t-44 -88.5t-15.5 -107.5q0 -82 36 -125.5t99 -43.5q32 0 56 7t50 25q38 27 65 67.5t40 101.5zM648 532l63 182h63l-76 -182h-50z" />
    <glyph glyph-name="Dcroat" unicode="&#x110;" horiz-adv-x="712" 
d="M52 0l72 342h-82l12 54h82l67 318h226q62 0 112.5 -21t86.5 -58.5t55.5 -89.5t19.5 -115q0 -90 -25.5 -168.5t-78.5 -136.5t-134 -91.5t-191 -33.5h-222zM283 54q88 0 154.5 26.5t111.5 76t67.5 119t22.5 156.5q0 47 -14 88.5t-41 73t-67.5 49.5t-93.5 18h-170l-57 -265
h200l-12 -54h-199l-61 -288h159z" />
    <glyph glyph-name="dcroat" unicode="&#x111;" 
d="M596 587l-125 -587h-58l16 77q-40 -45 -83.5 -69t-100.5 -24q-51 0 -87 19.5t-58.5 50t-32.5 68t-10 72.5q0 55 19 111.5t55 102t88 74.5t118 29q52 0 95 -23.5t70 -71.5l36 171h-176l11 50h175l17 77h58l-17 -77h71l-11 -50h-70zM470 258q10 43 10 76q0 30 -10.5 52
t-30.5 40q-20 17 -45.5 26t-59.5 9q-48 0 -87.5 -23t-68 -60.5t-44 -85.5t-15.5 -99q0 -73 36 -116t99 -43q32 0 56 8t50 27q36 28 64 64t39 92z" />
    <glyph glyph-name="Emacron" unicode="&#x112;" horiz-adv-x="588" 
d="M243 659l-56 -262h368l-12 -57h-368l-61 -284h409l-24 -56h-457l151 714h449l-11 -55h-388zM287 798l11 53h282l-11 -53h-282z" />
    <glyph glyph-name="emacron" unicode="&#x113;" horiz-adv-x="560" 
d="M118 203q0 -35 9.5 -66t29 -54t49.5 -37t72 -14q37 0 63.5 8t45 21.5t30.5 32.5t20 41h57q-12 -33 -29 -61t-43 -48t-62 -31t-86 -11q-54 0 -94.5 18t-67.5 48.5t-40.5 70t-13.5 83.5q0 79 22 140t60 102.5t88.5 63t108.5 21.5q48 0 84.5 -15.5t60.5 -42t36 -62.5t12 -77
q0 -15 -1 -36.5t-4 -38.5l-3 -16h-403q-1 -10 -1 -19.5v-20.5zM332 484q-79 0 -132.5 -50t-72.5 -141h344q2 9 2.5 22t0.5 24q0 31 -8.5 57.5t-26.5 46t-44.5 30.5t-62.5 11zM235 678h244l-11 -51h-244z" />
    <glyph glyph-name="Ebreve" unicode="&#x114;" horiz-adv-x="588" 
d="M243 659l-56 -262h368l-12 -57h-368l-61 -284h409l-24 -56h-457l151 714h449l-11 -55h-388zM450 774q-51 0 -80.5 25.5t-29.5 73.5q0 13 3 30h48q-3 -14 -3 -24q0 -32 17.5 -46.5t46.5 -14.5q35 0 61 18.5t34 66.5h48q-13 -69 -49 -99t-96 -30z" />
    <glyph glyph-name="ebreve" unicode="&#x115;" horiz-adv-x="560" 
d="M118 203q0 -35 9.5 -66t29 -54t49.5 -37t72 -14q37 0 63.5 8t45 21.5t30.5 32.5t20 41h57q-12 -33 -29 -61t-43 -48t-62 -31t-86 -11q-54 0 -94.5 18t-67.5 48.5t-40.5 70t-13.5 83.5q0 79 22 140t60 102.5t88.5 63t108.5 21.5q48 0 84.5 -15.5t60.5 -42t36 -62.5t12 -77
q0 -15 -1 -36.5t-4 -38.5l-3 -16h-403q-1 -10 -1 -19.5v-20.5zM332 484q-79 0 -132.5 -50t-72.5 -141h344q2 9 2.5 22t0.5 24q0 31 -8.5 57.5t-26.5 46t-44.5 30.5t-62.5 11zM351 589q-51 0 -80.5 26.5t-29.5 74.5q0 13 3 30h48q-3 -14 -3 -24q0 -32 17.5 -48t46.5 -16
q35 0 61 20t34 68h48q-13 -69 -49 -100t-96 -31z" />
    <glyph glyph-name="Edotaccent" unicode="&#x116;" horiz-adv-x="588" 
d="M243 659l-56 -262h368l-12 -57h-368l-61 -284h409l-24 -56h-457l151 714h449l-11 -55h-388zM393 794l19 89h68l-19 -89h-68z" />
    <glyph glyph-name="edotaccent" unicode="&#x117;" horiz-adv-x="560" 
d="M118 203q0 -35 9.5 -66t29 -54t49.5 -37t72 -14q37 0 63.5 8t45 21.5t30.5 32.5t20 41h57q-12 -33 -29 -61t-43 -48t-62 -31t-86 -11q-54 0 -94.5 18t-67.5 48.5t-40.5 70t-13.5 83.5q0 79 22 140t60 102.5t88.5 63t108.5 21.5q48 0 84.5 -15.5t60.5 -42t36 -62.5t12 -77
q0 -15 -1 -36.5t-4 -38.5l-3 -16h-403q-1 -10 -1 -19.5v-20.5zM332 484q-79 0 -132.5 -50t-72.5 -141h344q2 9 2.5 22t0.5 24q0 31 -8.5 57.5t-26.5 46t-44.5 30.5t-62.5 11zM318 618l18 87h66l-18 -87h-66z" />
    <glyph glyph-name="Eogonek" unicode="&#x118;" horiz-adv-x="588" 
d="M476 -175q-6 -1 -13 -1.5t-17 -0.5q-38 0 -60.5 19t-22.5 49t17 56.5t58 52.5h-396l151 714h449l-11 -55h-388l-56 -262h368l-12 -57h-368l-61 -284h409l-24 -56q-77 -53 -77 -94q0 -16 10 -25.5t30 -9.5q5 0 12 0.5t13 1.5z" />
    <glyph glyph-name="eogonek" unicode="&#x119;" horiz-adv-x="560" 
d="M352 -170q-6 -1 -13 -1.5t-16 -0.5q-38 0 -59.5 18.5t-21.5 47.5q0 25 12.5 47t40.5 44q-5 -1 -10.5 -1h-10.5q-54 0 -94.5 18t-67.5 48.5t-40.5 70t-13.5 83.5q0 79 22 140t60 102.5t88.5 63t108.5 21.5q48 0 84.5 -15.5t60.5 -42t36 -62.5t12 -77q0 -15 -1 -36.5
t-4 -38.5l-3 -16h-403q-1 -10 -1 -19.5v-20.5q0 -35 9.5 -66t29 -54t49.5 -37t72 -14q37 0 63.5 8t45 21.5t30.5 32.5t20 41h57q-17 -48 -44.5 -83t-76.5 -52q-37 -26 -55.5 -48t-18.5 -43q0 -34 39 -34q5 0 12 0.5t12 1.5zM332 484q-79 0 -132.5 -50t-72.5 -141h344
q2 9 2.5 22t0.5 24q0 31 -8.5 57.5t-26.5 46t-44.5 30.5t-62.5 11z" />
    <glyph glyph-name="Ecaron" unicode="&#x11a;" horiz-adv-x="588" 
d="M243 659l-56 -262h368l-12 -57h-368l-61 -284h409l-24 -56h-457l151 714h449l-11 -55h-388zM592 906l-139 -129h-57l-85 129h60l59 -83l100 83h62z" />
    <glyph glyph-name="ecaron" unicode="&#x11b;" horiz-adv-x="560" 
d="M118 203q0 -35 9.5 -66t29 -54t49.5 -37t72 -14q37 0 63.5 8t45 21.5t30.5 32.5t20 41h57q-12 -33 -29 -61t-43 -48t-62 -31t-86 -11q-54 0 -94.5 18t-67.5 48.5t-40.5 70t-13.5 83.5q0 79 22 140t60 102.5t88.5 63t108.5 21.5q48 0 84.5 -15.5t60.5 -42t36 -62.5t12 -77
q0 -15 -1 -36.5t-4 -38.5l-3 -16h-403q-1 -10 -1 -19.5v-20.5zM332 484q-79 0 -132.5 -50t-72.5 -141h344q2 9 2.5 22t0.5 24q0 31 -8.5 57.5t-26.5 46t-44.5 30.5t-62.5 11zM517 726l-141 -134h-57l-84 134h57l61 -90l103 90h61z" />
    <glyph glyph-name="Gcircumflex" unicode="&#x11c;" horiz-adv-x="711" 
d="M647 524q-15 78 -65 116.5t-127 38.5q-76 0 -134 -33.5t-97.5 -89t-59.5 -127.5t-20 -148q0 -50 14 -94.5t41 -78t67 -53t91 -19.5q43 0 77 6t60.5 15.5t45 20.5t32.5 21l43 199h-205l12 55h263l-60 -282q-17 -15 -42.5 -30.5t-60 -28.5t-76.5 -21.5t-92 -8.5
q-60 0 -110.5 21t-87.5 59.5t-57.5 92.5t-20.5 120q0 87 24.5 169t72.5 146t119.5 103t166.5 39q96 0 161 -49t84 -146zM325 774l139 129h57l85 -129h-60l-59 83l-100 -83h-62z" />
    <glyph glyph-name="gcircumflex" unicode="&#x11d;" horiz-adv-x="580" 
d="M475 19q-11 -52 -30 -93.5t-49 -70.5t-73.5 -44.5t-103.5 -15.5q-42 0 -78 8t-62 25.5t-42 46t-17 69.5h55q4 -27 13.5 -46t26 -31t42 -17.5t62.5 -5.5q85 0 131.5 41.5t67.5 139.5l15 70q-34 -44 -82 -65.5t-105 -21.5q-51 0 -86 18.5t-57 48t-31.5 66.5t-9.5 73
q0 56 18 112.5t53 102t86.5 74t117.5 28.5q52 0 97 -24t72 -72l17 80h58zM334 481q-48 0 -87 -22t-66 -59t-42 -85t-15 -100q0 -75 34 -116t95 -41q32 0 61.5 8t57.5 27q39 26 61.5 63t35.5 98l5 24q9 40 9 71q0 32 -11 55t-33 42q-20 17 -45.5 26t-59.5 9zM219 590l141 134
h57l84 -134h-57l-61 90l-103 -90h-61z" />
    <glyph glyph-name="Gbreve" unicode="&#x11e;" horiz-adv-x="711" 
d="M647 524q-15 78 -65 116.5t-127 38.5q-76 0 -134 -33.5t-97.5 -89t-59.5 -127.5t-20 -148q0 -50 14 -94.5t41 -78t67 -53t91 -19.5q43 0 77 6t60.5 15.5t45 20.5t32.5 21l43 199h-205l12 55h263l-60 -282q-17 -15 -42.5 -30.5t-60 -28.5t-76.5 -21.5t-92 -8.5
q-60 0 -110.5 21t-87.5 59.5t-57.5 92.5t-20.5 120q0 87 24.5 169t72.5 146t119.5 103t166.5 39q96 0 161 -49t84 -146zM492 774q-51 0 -80.5 25.5t-29.5 73.5q0 13 3 30h48q-3 -14 -3 -24q0 -32 17.5 -46.5t46.5 -14.5q35 0 61 18.5t34 66.5h48q-13 -69 -49 -99t-96 -30z
" />
    <glyph glyph-name="gbreve" unicode="&#x11f;" horiz-adv-x="580" 
d="M475 19q-11 -52 -30 -93.5t-49 -70.5t-73.5 -44.5t-103.5 -15.5q-42 0 -78 8t-62 25.5t-42 46t-17 69.5h55q4 -27 13.5 -46t26 -31t42 -17.5t62.5 -5.5q85 0 131.5 41.5t67.5 139.5l15 70q-34 -44 -82 -65.5t-105 -21.5q-51 0 -86 18.5t-57 48t-31.5 66.5t-9.5 73
q0 56 18 112.5t53 102t86.5 74t117.5 28.5q52 0 97 -24t72 -72l17 80h58zM334 481q-48 0 -87 -22t-66 -59t-42 -85t-15 -100q0 -75 34 -116t95 -41q32 0 61.5 8t57.5 27q39 26 61.5 63t35.5 98l5 24q9 40 9 71q0 32 -11 55t-33 42q-20 17 -45.5 26t-59.5 9zM370 589
q-51 0 -80.5 26.5t-29.5 74.5q0 13 3 30h48q-3 -14 -3 -24q0 -32 17.5 -48t46.5 -16q35 0 61 20t34 68h48q-13 -69 -49 -100t-96 -31z" />
    <glyph glyph-name="Gdotaccent" unicode="&#x120;" horiz-adv-x="711" 
d="M647 524q-15 78 -65 116.5t-127 38.5q-76 0 -134 -33.5t-97.5 -89t-59.5 -127.5t-20 -148q0 -50 14 -94.5t41 -78t67 -53t91 -19.5q43 0 77 6t60.5 15.5t45 20.5t32.5 21l43 199h-205l12 55h263l-60 -282q-17 -15 -42.5 -30.5t-60 -28.5t-76.5 -21.5t-92 -8.5
q-60 0 -110.5 21t-87.5 59.5t-57.5 92.5t-20.5 120q0 87 24.5 169t72.5 146t119.5 103t166.5 39q96 0 161 -49t84 -146zM439 794l19 89h68l-19 -89h-68z" />
    <glyph glyph-name="gdotaccent" unicode="&#x121;" horiz-adv-x="580" 
d="M475 19q-11 -52 -30 -93.5t-49 -70.5t-73.5 -44.5t-103.5 -15.5q-42 0 -78 8t-62 25.5t-42 46t-17 69.5h55q4 -27 13.5 -46t26 -31t42 -17.5t62.5 -5.5q85 0 131.5 41.5t67.5 139.5l15 70q-34 -44 -82 -65.5t-105 -21.5q-51 0 -86 18.5t-57 48t-31.5 66.5t-9.5 73
q0 56 18 112.5t53 102t86.5 74t117.5 28.5q52 0 97 -24t72 -72l17 80h58zM334 481q-48 0 -87 -22t-66 -59t-42 -85t-15 -100q0 -75 34 -116t95 -41q32 0 61.5 8t57.5 27q39 26 61.5 63t35.5 98l5 24q9 40 9 71q0 32 -11 55t-33 42q-20 17 -45.5 26t-59.5 9zM331 618l18 87
h66l-18 -87h-66z" />
    <glyph glyph-name="Gcommaaccent" unicode="&#x122;" horiz-adv-x="711" 
d="M647 524q-15 78 -65 116.5t-127 38.5q-76 0 -134 -33.5t-97.5 -89t-59.5 -127.5t-20 -148q0 -50 14 -94.5t41 -78t67 -53t91 -19.5q43 0 77 6t60.5 15.5t45 20.5t32.5 21l43 199h-205l12 55h263l-60 -282q-17 -15 -42.5 -30.5t-60 -28.5t-76.5 -21.5t-92 -8.5
q-60 0 -110.5 21t-87.5 59.5t-57.5 92.5t-20.5 120q0 87 24.5 169t72.5 146t119.5 103t166.5 39q96 0 161 -49t84 -146zM208 -212l103 144h76l-120 -144h-59z" />
    <glyph glyph-name="gcommaaccent" unicode="&#x123;" horiz-adv-x="580" 
d="M475 19q-11 -52 -30 -93.5t-49 -70.5t-73.5 -44.5t-103.5 -15.5q-42 0 -78 8t-62 25.5t-42 46t-17 69.5h55q4 -27 13.5 -46t26 -31t42 -17.5t62.5 -5.5q85 0 131.5 41.5t67.5 139.5l15 70q-34 -44 -82 -65.5t-105 -21.5q-51 0 -86 18.5t-57 48t-31.5 66.5t-9.5 73
q0 56 18 112.5t53 102t86.5 74t117.5 28.5q52 0 97 -24t72 -72l17 80h58zM334 481q-48 0 -87 -22t-66 -59t-42 -85t-15 -100q0 -75 34 -116t95 -41q32 0 61.5 8t57.5 27q39 26 61.5 63t35.5 98l5 24q9 40 9 71q0 32 -11 55t-33 42q-20 17 -45.5 26t-59.5 9zM504 724
l-100 -140h-74l117 140h57z" />
    <glyph glyph-name="Hcircumflex" unicode="&#x124;" horiz-adv-x="689" 
d="M506 0l72 341h-403l-72 -341h-61l151 714h61l-67 -316h403l67 316h61l-151 -714h-61zM319 774l139 129h57l85 -129h-60l-59 83l-100 -83h-62z" />
    <glyph glyph-name="hcircumflex" unicode="&#x125;" horiz-adv-x="558" 
d="M179 431q50 54 102 77t99 23q72 0 109.5 -39t37.5 -108q0 -26 -6 -54l-70 -330h-58l68 319q3 14 5 28t2 28q0 47 -21.5 75.5t-75.5 28.5q-29 0 -63.5 -12t-66.5 -37q-32 -26 -55.5 -53.5t-33.5 -74.5l-64 -302h-58l151 714h58zM194 774l139 129h57l85 -129h-60l-59 83
l-100 -83h-62z" />
    <glyph glyph-name="Hbar" unicode="&#x126;" horiz-adv-x="709" 
d="M516 0l70 333h-403l-70 -333h-61l112 529h-82l11 53h82l28 132h61l-28 -132h403l28 132h61l-28 -132h82l-11 -53h-82l-112 -529h-61zM598 390l29 139h-403l-29 -139h403z" />
    <glyph glyph-name="hbar" unicode="&#x127;" horiz-adv-x="569" 
d="M233 637h177l-11 -50h-176l-37 -176q50 54 102 77t99 23q72 0 109.5 -39t37.5 -108q0 -26 -6 -54l-66 -310h-58l64 299q3 14 5 28t2 28q0 47 -21.5 75.5t-75.5 28.5q-29 0 -63.5 -12t-66.5 -37q-32 -26 -55.5 -53.5t-33.5 -74.5l-60 -282h-58l124 587h-71l11 50h70l17 77
h58z" />
    <glyph glyph-name="Itilde" unicode="&#x128;" horiz-adv-x="225" 
d="M42 0l151 714h61l-151 -714h-61zM309 781q-25 0 -43.5 9t-34.5 20t-31 20t-31 9q-26 0 -38 -13.5t-18 -43.5h-49q8 52 32 78.5t72 26.5q25 0 43.5 -9t34.5 -19.5t30.5 -19.5t31.5 -9q26 0 38 13t17 43h50q-8 -52 -32 -78.5t-72 -26.5z" />
    <glyph glyph-name="itilde" unicode="&#x129;" horiz-adv-x="204" 
d="M33 0l109 515h58l-109 -515h-58zM251 604q-24 0 -42 9t-33.5 19.5t-30 19.5t-30.5 9q-26 0 -37.5 -13t-16.5 -42h-48q8 51 31 77.5t70 26.5q24 0 42 -9t33.5 -19.5t30 -19.5t30.5 -9q26 0 37.5 13t16.5 42h48q-8 -51 -31 -77.5t-70 -26.5z" />
    <glyph glyph-name="Imacron" unicode="&#x12a;" horiz-adv-x="225" 
d="M42 0l151 714h61l-151 -714h-61zM91 798l11 53h282l-11 -53h-282z" />
    <glyph glyph-name="imacron" unicode="&#x12b;" horiz-adv-x="204" 
d="M33 0l109 515h58l-109 -515h-58zM70 678h244l-11 -51h-244z" />
    <glyph glyph-name="Ibreve" unicode="&#x12c;" horiz-adv-x="225" 
d="M42 0l151 714h61l-151 -714h-61zM259 774q-51 0 -80.5 25.5t-29.5 73.5q0 13 3 30h48q-3 -14 -3 -24q0 -32 17.5 -46.5t46.5 -14.5q35 0 61 18.5t34 66.5h48q-13 -69 -49 -99t-96 -30z" />
    <glyph glyph-name="ibreve" unicode="&#x12d;" horiz-adv-x="204" 
d="M33 0l109 515h58l-109 -515h-58zM187 589q-51 0 -80.5 26.5t-29.5 74.5q0 13 3 30h48q-3 -14 -3 -24q0 -32 17.5 -48t46.5 -16q35 0 61 20t34 68h48q-13 -69 -49 -100t-96 -31z" />
    <glyph glyph-name="Iogonek" unicode="&#x12e;" horiz-adv-x="225" 
d="M80 -175q-6 -1 -13 -1.5t-17 -0.5q-38 0 -60.5 19t-22.5 49t17 56.5t58 52.5l151 714h61l-151 -714q-77 -53 -77 -94q0 -16 10 -25.5t30 -9.5q5 0 12 0.5t13 1.5z" />
    <glyph glyph-name="iogonek" unicode="&#x12f;" horiz-adv-x="204" 
d="M69 -170q-6 -1 -13 -1.5t-16 -0.5q-38 0 -59.5 18.5t-21.5 47.5t17.5 54.5t57.5 51.5h-1l109 515h58l-109 -515q-38 -26 -56.5 -48t-18.5 -43q0 -34 39 -34q5 0 12 0.5t12 1.5zM157 627l18 87h66l-18 -87h-66z" />
    <glyph glyph-name="Idotaccent" unicode="&#x130;" horiz-adv-x="225" 
d="M42 0l151 714h61l-151 -714h-61zM207 794l19 89h68l-19 -89h-68z" />
    <glyph glyph-name="dotlessi" unicode="&#x131;" horiz-adv-x="204" 
d="M33 0l109 515h58l-109 -515h-58z" />
    <glyph glyph-name="IJ" unicode="&#x132;" horiz-adv-x="801" 
d="M42 0l151 714h61l-151 -714h-61zM731 224q-26 -125 -91 -183.5t-177 -58.5q-47 0 -85.5 11.5t-66 35.5t-43 59.5t-15.5 83.5v12t1 13h58v-13q0 -31 6.5 -58t24 -47t47 -31.5t75.5 -11.5q95 0 141.5 52t66.5 148l101 478h61z" />
    <glyph glyph-name="ij" unicode="&#x133;" horiz-adv-x="408" 
d="M33 0l109 515h58l-109 -515h-58zM157 627l18 87h66l-18 -87h-66zM291 -18q-8 -35 -18 -65.5t-27 -53t-43 -36t-65 -13.5q-34 0 -54.5 6t-34.5 12l20 48q12 -5 28 -9.5t41 -4.5q41 0 61 24.5t29 66.5l118 558h58zM361 627l18 87h66l-18 -87h-66z" />
    <glyph glyph-name="Jcircumflex" unicode="&#x134;" horiz-adv-x="576" 
d="M506 224q-26 -125 -91 -183.5t-177 -58.5q-47 0 -85.5 11.5t-66 35.5t-43 59.5t-15.5 83.5v12t1 13h58v-13q0 -31 6.5 -58t24 -47t47 -31.5t75.5 -11.5q95 0 141.5 52t66.5 148l101 478h61zM445 774l139 129h57l85 -129h-60l-59 83l-100 -83h-62z" />
    <glyph glyph-name="jcircumflex" unicode="&#x135;" horiz-adv-x="205" 
d="M88 -18q-8 -35 -18 -65.5t-27 -53t-43 -36t-65 -13.5q-34 0 -54.5 6t-34.5 12l20 48q12 -5 28 -9.5t41 -4.5q41 0 61 24.5t29 66.5l118 558h58zM28 590l141 134h57l84 -134h-57l-61 90l-103 -90h-61z" />
    <glyph glyph-name="Kcommaaccent" unicode="&#x136;" horiz-adv-x="636" 
d="M330 405l-170 -137l-57 -268h-61l151 714h61l-78 -371l453 371h73l-322 -272l196 -442h-70zM149 -212l103 144h76l-120 -144h-59z" />
    <glyph glyph-name="kcommaaccent" unicode="&#x137;" horiz-adv-x="493" 
d="M30 0l151 714h58l-91 -435l311 236h75l-219 -173l132 -342h-65l-116 310l-134 -100l-44 -210h-58zM79 -208l100 140h74l-117 -140h-57z" />
    <glyph glyph-name="kgreenlandic" unicode="&#x138;" horiz-adv-x="493" 
d="M30 0l109 515h58l-56 -262l317 262h75l-221 -189l136 -326h-66l-118 293l-138 -112l-38 -181h-58z" />
    <glyph glyph-name="Lacute" unicode="&#x139;" horiz-adv-x="550" 
d="M478 0h-436l151 714h61l-139 -657h388zM189 774l133 129h81l-150 -129h-64z" />
    <glyph glyph-name="lacute" unicode="&#x13a;" horiz-adv-x="204" 
d="M33 0l151 714h58l-151 -714h-58zM179 774l133 129h81l-150 -129h-64z" />
    <glyph glyph-name="Lcommaaccent" unicode="&#x13b;" horiz-adv-x="550" 
d="M478 0h-436l151 714h61l-139 -657h388zM114 -212l103 144h76l-120 -144h-59z" />
    <glyph glyph-name="lcommaaccent" unicode="&#x13c;" horiz-adv-x="204" 
d="M33 0l151 714h58l-151 -714h-58zM-90 -208l100 140h74l-117 -140h-57z" />
    <glyph glyph-name="Lcaron" unicode="&#x13d;" horiz-adv-x="550" 
d="M478 0h-436l151 714h61l-139 -657h388zM389.897 524.594l66.1494 191.098h66.1484l-79.7988 -191.098h-52.499z" />
    <glyph glyph-name="lcaron" unicode="&#x13e;" horiz-adv-x="204" 
d="M33 0l151 714h58l-151 -714h-58zM267 532l63 182h63l-76 -182h-50z" />
    <glyph glyph-name="Ldot" unicode="&#x13f;" horiz-adv-x="550" 
d="M478 0h-436l151 714h61l-139 -657h388zM372 347l19 93h75l-19 -93h-75z" />
    <glyph glyph-name="ldot" unicode="&#x140;" horiz-adv-x="291" 
d="M33 0l151 714h58l-151 -714h-58zM236 327l19 93h75l-19 -93h-75z" />
    <glyph glyph-name="Lslash" unicode="&#x141;" horiz-adv-x="560" 
d="M488 0h-436l55 259l-95 -59l13 64l95 59l83 391h61l-74 -349l254 158l-14 -64l-253 -158l-52 -244h388z" />
    <glyph glyph-name="lslash" unicode="&#x142;" horiz-adv-x="250" 
d="M56 0l72 341l-106 -69l12 60l107 69l66 313h58l-59 -277l106 70l-12 -61l-106 -69l-80 -377h-58z" />
    <glyph glyph-name="Nacute" unicode="&#x143;" horiz-adv-x="690" 
d="M505 0l-272 622l-132 -622h-59l151 714h64l271 -620l132 620h59l-151 -714h-63zM406 774l133 129h81l-150 -129h-64z" />
    <glyph glyph-name="nacute" unicode="&#x144;" horiz-adv-x="558" 
d="M391 0l68 319q3 14 5 28t2 28q0 47 -21.5 75.5t-75.5 28.5q-29 0 -63.5 -12t-66.5 -37q-32 -26 -55.5 -53.5t-33.5 -74.5l-64 -302h-58l109 515h58l-18 -84q50 54 102 77t99 23q72 0 109.5 -39t37.5 -108q0 -26 -6 -54l-70 -330h-58zM285 590l133 134h82l-149 -134h-66z
" />
    <glyph glyph-name="Ncommaaccent" unicode="&#x145;" horiz-adv-x="690" 
d="M505 0l-272 622l-132 -622h-59l151 714h64l271 -620l132 620h59l-151 -714h-63zM156 -212l103 144h76l-120 -144h-59z" />
    <glyph glyph-name="ncommaaccent" unicode="&#x146;" horiz-adv-x="558" 
d="M391 0l68 319q3 14 5 28t2 28q0 47 -21.5 75.5t-75.5 28.5q-29 0 -63.5 -12t-66.5 -37q-32 -26 -55.5 -53.5t-33.5 -74.5l-64 -302h-58l109 515h58l-18 -84q50 54 102 77t99 23q72 0 109.5 -39t37.5 -108q0 -26 -6 -54l-70 -330h-58zM108 -208l100 140h74l-117 -140h-57z
" />
    <glyph glyph-name="Ncaron" unicode="&#x147;" horiz-adv-x="690" 
d="M505 0l-272 622l-132 -622h-59l151 714h64l271 -620l132 620h59l-151 -714h-63zM630 906l-139 -129h-57l-85 129h60l59 -83l100 83h62z" />
    <glyph glyph-name="ncaron" unicode="&#x148;" horiz-adv-x="558" 
d="M391 0l68 319q3 14 5 28t2 28q0 47 -21.5 75.5t-75.5 28.5q-29 0 -63.5 -12t-66.5 -37q-32 -26 -55.5 -53.5t-33.5 -74.5l-64 -302h-58l109 515h58l-18 -84q50 54 102 77t99 23q72 0 109.5 -39t37.5 -108q0 -26 -6 -54l-70 -330h-58zM538 726l-141 -134h-57l-84 134h57
l61 -90l103 90h61z" />
    <glyph glyph-name="napostrophe" unicode="&#x149;" horiz-adv-x="589" 
d="M421 0l68 319q3 14 5 28t2 28q0 47 -21.5 75.5t-75.5 28.5q-29 0 -63.5 -12t-66.5 -37q-32 -26 -55.5 -53.5t-33.5 -74.5l-64 -302h-58l109 515h58l-18 -84q50 54 102 77t99 23q72 0 109.5 -39t37.5 -108q0 -26 -6 -54l-70 -330h-58zM68 528l64 186h67l-86 -186h-45z" />
    <glyph glyph-name="Eng" unicode="&#x14a;" horiz-adv-x="690" 
d="M198 -121q21 -11 50 -20t75 -9q50 0 82 9t52 28t30.5 46.5t18.5 65.5l-273 623l-132 -622h-59l151 714h64l271 -620l132 620h59l-151 -714q-12 -55 -30 -94t-47 -63.5t-70.5 -36t-99.5 -11.5q-45 0 -80.5 8t-67.5 25z" />
    <glyph glyph-name="eng" unicode="&#x14b;" horiz-adv-x="558" 
d="M447 -18q-8 -35 -18 -65.5t-26.5 -53t-42.5 -36t-65 -13.5q-34 0 -54.5 6t-34.5 12l20 48q12 -5 28 -9.5t41 -4.5q41 0 60.5 24.5t28.5 66.5l77 362q3 14 5 28t2 28q0 47 -21.5 75.5t-75.5 28.5q-29 0 -63.5 -12t-66.5 -37q-32 -26 -55.5 -53.5t-33.5 -74.5l-64 -302h-58
l109 515h58l-18 -84q50 54 102 77t99 23q72 0 109.5 -39t37.5 -108q0 -26 -6 -54z" />
    <glyph glyph-name="Omacron" unicode="&#x14c;" horiz-adv-x="756" 
d="M466 732q59 0 110.5 -20t89.5 -58t59.5 -92.5t21.5 -124.5q0 -83 -25.5 -164t-75 -146t-121 -105t-164.5 -40q-59 0 -110.5 20t-89.5 57.5t-59.5 92t-21.5 124.5q0 82 26.5 164t76 146.5t121 105t162.5 40.5zM363 36q75 0 134.5 34.5t100.5 91t62.5 128t21.5 145.5
q0 53 -14 97.5t-42 77t-68.5 50.5t-93.5 18q-75 0 -134.5 -35t-100.5 -91t-62.5 -128t-21.5 -145q0 -53 14 -98t42 -77t68.5 -50t93.5 -18zM340 798l11 53h282l-11 -53h-282z" />
    <glyph glyph-name="omacron" unicode="&#x14d;" horiz-adv-x="593" 
d="M266 34q52 0 94.5 21.5t72.5 59t46.5 88.5t16.5 109q0 75 -37.5 122t-110.5 47q-52 0 -94.5 -21.5t-72.5 -59t-46.5 -88.5t-16.5 -109q0 -75 37.5 -122t110.5 -47zM261 -16q-45 0 -82.5 15.5t-64.5 43.5t-42.5 67.5t-15.5 87.5q0 77 23.5 138.5t64 105t94.5 66.5t115 23
q45 0 82.5 -15.5t64.5 -43.5t42.5 -67.5t15.5 -87.5q0 -77 -23 -138.5t-62.5 -105t-94 -66.5t-117.5 -23zM249 678h244l-11 -51h-244z" />
    <glyph glyph-name="Obreve" unicode="&#x14e;" horiz-adv-x="756" 
d="M466 732q59 0 110.5 -20t89.5 -58t59.5 -92.5t21.5 -124.5q0 -83 -25.5 -164t-75 -146t-121 -105t-164.5 -40q-59 0 -110.5 20t-89.5 57.5t-59.5 92t-21.5 124.5q0 82 26.5 164t76 146.5t121 105t162.5 40.5zM363 36q75 0 134.5 34.5t100.5 91t62.5 128t21.5 145.5
q0 53 -14 97.5t-42 77t-68.5 50.5t-93.5 18q-75 0 -134.5 -35t-100.5 -91t-62.5 -128t-21.5 -145q0 -53 14 -98t42 -77t68.5 -50t93.5 -18zM508 774q-51 0 -80.5 25.5t-29.5 73.5q0 13 3 30h48q-3 -14 -3 -24q0 -32 17.5 -46.5t46.5 -14.5q35 0 61 18.5t34 66.5h48
q-13 -69 -49 -99t-96 -30z" />
    <glyph glyph-name="obreve" unicode="&#x14f;" horiz-adv-x="593" 
d="M266 34q52 0 94.5 21.5t72.5 59t46.5 88.5t16.5 109q0 75 -37.5 122t-110.5 47q-52 0 -94.5 -21.5t-72.5 -59t-46.5 -88.5t-16.5 -109q0 -75 37.5 -122t110.5 -47zM261 -16q-45 0 -82.5 15.5t-64.5 43.5t-42.5 67.5t-15.5 87.5q0 77 23.5 138.5t64 105t94.5 66.5t115 23
q45 0 82.5 -15.5t64.5 -43.5t42.5 -67.5t15.5 -87.5q0 -77 -23 -138.5t-62.5 -105t-94 -66.5t-117.5 -23zM371 589q-51 0 -80.5 26.5t-29.5 74.5q0 13 3 30h48q-3 -14 -3 -24q0 -32 17.5 -48t46.5 -16q35 0 61 20t34 68h48q-13 -69 -49 -100t-96 -31z" />
    <glyph glyph-name="Ohungarumlaut" unicode="&#x150;" horiz-adv-x="756" 
d="M466 732q59 0 110.5 -20t89.5 -58t59.5 -92.5t21.5 -124.5q0 -83 -25.5 -164t-75 -146t-121 -105t-164.5 -40q-59 0 -110.5 20t-89.5 57.5t-59.5 92t-21.5 124.5q0 82 26.5 164t76 146.5t121 105t162.5 40.5zM363 36q75 0 134.5 34.5t100.5 91t62.5 128t21.5 145.5
q0 53 -14 97.5t-42 77t-68.5 50.5t-93.5 18q-75 0 -134.5 -35t-100.5 -91t-62.5 -128t-21.5 -145q0 -53 14 -98t42 -77t68.5 -50t93.5 -18zM355 774l120 129h76l-136 -129h-60zM517 774l120 129h76l-136 -129h-60z" />
    <glyph glyph-name="ohungarumlaut" unicode="&#x151;" horiz-adv-x="593" 
d="M266 34q52 0 94.5 21.5t72.5 59t46.5 88.5t16.5 109q0 75 -37.5 122t-110.5 47q-52 0 -94.5 -21.5t-72.5 -59t-46.5 -88.5t-16.5 -109q0 -75 37.5 -122t110.5 -47zM261 -16q-45 0 -82.5 15.5t-64.5 43.5t-42.5 67.5t-15.5 87.5q0 77 23.5 138.5t64 105t94.5 66.5t115 23
q45 0 82.5 -15.5t64.5 -43.5t42.5 -67.5t15.5 -87.5q0 -77 -23 -138.5t-62.5 -105t-94 -66.5t-117.5 -23zM247 590l128 134h78l-144 -134h-62zM413 590l128 134h78l-144 -134h-62z" />
    <glyph glyph-name="OE" unicode="&#x152;" horiz-adv-x="1083" 
d="M451 732q91 0 150.5 -46.5t82.5 -127.5l32 156h421l-11 -55h-362l-56 -262h342l-12 -57h-342l-61 -284h383l-24 -56h-429l22 103q-41 -52 -99.5 -86.5t-141.5 -34.5q-55 0 -103.5 20t-84.5 57.5t-57 92t-21 124.5q0 82 25.5 164t73.5 146.5t117 105t155 40.5zM348 36
q80 0 136.5 37.5t92.5 96t52.5 129t16.5 136.5q0 53 -11 97.5t-34.5 77t-61 50.5t-90.5 18q-72 0 -128.5 -35t-95.5 -91t-59.5 -128t-20.5 -145q0 -53 13 -98t39 -77t63.5 -50t87.5 -18z" />
    <glyph glyph-name="oe" unicode="&#x153;" horiz-adv-x="973" 
d="M261 -16q-45 0 -82 15.5t-63.5 43.5t-41.5 67.5t-15 87.5q0 77 23 138.5t63 105t93.5 66.5t114.5 23q69 0 114 -34t65 -95q35 60 89.5 94.5t131.5 34.5q48 0 84 -15.5t59.5 -42t35 -62.5t11.5 -77q0 -15 -1 -36.5t-4 -38.5l-3 -16h-393q-1 -10 -1 -19.5v-20.5
q0 -35 8.5 -66t27.5 -54t47.5 -37t69.5 -14q37 0 63 8t44 21.5t29.5 32.5t19.5 41h57q-12 -33 -28.5 -61t-42 -48t-61 -31t-85.5 -11q-43 0 -75 11.5t-55.5 30.5t-39.5 43.5t-27 51.5q-20 -30 -42.5 -55.5t-50.5 -43.5t-62.5 -28t-76.5 -10zM266 34q52 0 93.5 21.5t70 59
t43.5 88.5t15 109q0 75 -33.5 122t-106.5 47q-52 0 -94 -21.5t-71.5 -59t-45.5 -88.5t-16 -109q0 -75 36 -122t109 -47zM748 484q-79 0 -129 -50t-69 -141h334q2 9 2.5 22t0.5 24q0 31 -8 57.5t-25.5 46t-43.5 30.5t-62 11z" />
    <glyph glyph-name="Racute" unicode="&#x154;" horiz-adv-x="625" 
d="M168 312l-66 -312h-60l151 714h220q64 0 107 -15.5t68.5 -40.5t36 -56.5t10.5 -62.5q0 -89 -45.5 -140t-126.5 -72l82 -327h-69l-74 315q-17 -2 -38 -2.5t-41 -0.5h-155zM351 366q51 0 92.5 8.5t70 28.5t44 53t15.5 83q0 25 -8 47.5t-28 39t-53.5 26t-84.5 9.5h-157
l-63 -295h172zM351 774l133 129h81l-150 -129h-64z" />
    <glyph glyph-name="racute" unicode="&#x155;" horiz-adv-x="337" 
d="M375 465q-17 3 -37 3q-16 0 -42 -7t-55 -31q-32 -26 -55.5 -54t-33.5 -75l-64 -301h-58l109 515h58l-18 -84q48 53 88 72.5t82 19.5q11 0 23 -1.5t19 -3.5zM214 590l133 134h82l-149 -134h-66z" />
    <glyph glyph-name="Rcommaaccent" unicode="&#x156;" horiz-adv-x="625" 
d="M168 312l-66 -312h-60l151 714h220q64 0 107 -15.5t68.5 -40.5t36 -56.5t10.5 -62.5q0 -89 -45.5 -140t-126.5 -72l82 -327h-69l-74 315q-17 -2 -38 -2.5t-41 -0.5h-155zM351 366q51 0 92.5 8.5t70 28.5t44 53t15.5 83q0 25 -8 47.5t-28 39t-53.5 26t-84.5 9.5h-157
l-63 -295h172zM131 -212l103 144h76l-120 -144h-59z" />
    <glyph glyph-name="rcommaaccent" unicode="&#x157;" horiz-adv-x="337" 
d="M375 465q-17 3 -37 3q-16 0 -42 -7t-55 -31q-32 -26 -55.5 -54t-33.5 -75l-64 -301h-58l109 515h58l-18 -84q48 53 88 72.5t82 19.5q11 0 23 -1.5t19 -3.5zM-87 -208l100 140h74l-117 -140h-57z" />
    <glyph glyph-name="Rcaron" unicode="&#x158;" horiz-adv-x="625" 
d="M168 312l-66 -312h-60l151 714h220q64 0 107 -15.5t68.5 -40.5t36 -56.5t10.5 -62.5q0 -89 -45.5 -140t-126.5 -72l82 -327h-69l-74 315q-17 -2 -38 -2.5t-41 -0.5h-155zM351 366q51 0 92.5 8.5t70 28.5t44 53t15.5 83q0 25 -8 47.5t-28 39t-53.5 26t-84.5 9.5h-157
l-63 -295h172zM565 906l-139 -129h-57l-85 129h60l59 -83l100 83h62z" />
    <glyph glyph-name="rcaron" unicode="&#x159;" horiz-adv-x="337" 
d="M375 465q-17 3 -37 3q-16 0 -42 -7t-55 -31q-32 -26 -55.5 -54t-33.5 -75l-64 -301h-58l109 515h58l-18 -84q48 53 88 72.5t82 19.5q11 0 23 -1.5t19 -3.5zM437 726l-141 -134h-57l-84 134h57l61 -90l103 90h61z" />
    <glyph glyph-name="Sacute" unicode="&#x15a;" horiz-adv-x="642" 
d="M574 206q0 -55 -20.5 -96.5t-56 -70t-83.5 -43t-104 -14.5q-47 0 -93.5 8t-84 30.5t-62 62.5t-26.5 104h60q4 -40 18 -68.5t39 -47t62.5 -27t90.5 -8.5q52 0 89 13t60 36t34 54t11 68q0 18 -4 36.5t-15.5 34.5t-32.5 28.5t-54 19.5l-103 22q-77 17 -122 58t-45 116
q0 52 18 91.5t52 66t82 39.5t107 13q61 0 105 -15.5t73 -41t44.5 -59t20.5 -69.5l-57 -12q-11 70 -54 107t-137 37q-56 0 -93.5 -12t-59.5 -32.5t-31 -47t-9 -55.5q0 -24 5.5 -43.5t19 -35.5t37 -27.5t59.5 -19.5l99 -21q45 -9 76 -26t49.5 -40.5t27 -52t8.5 -60.5zM349 774
l133 129h81l-150 -129h-64z" />
    <glyph glyph-name="sacute" unicode="&#x15b;" horiz-adv-x="514" 
d="M441 140q-1 -40 -18.5 -69.5t-46 -48.5t-65.5 -28.5t-77 -9.5q-36 0 -72.5 7.5t-65.5 26t-47 49t-18 76.5h56q0 -32 12.5 -53.5t33.5 -34t48.5 -17.5t58.5 -5q74 0 107 31.5t33 74.5q0 40 -18.5 59.5t-67.5 30.5l-59 13q-74 17 -107 47t-33 84q0 40 17 70t45 49.5
t64.5 29t74.5 9.5q50 0 84.5 -11t56 -30t33 -45t15.5 -55l-53 -10q-5 26 -14.5 45t-26 31.5t-40.5 18.5t-59 6q-37 0 -63.5 -8t-43 -22t-24.5 -32t-8 -37q0 -17 4 -30.5t14.5 -24t29 -18.5t47.5 -14l65 -14q60 -13 94 -44.5t34 -96.5zM267 590l133 134h82l-149 -134h-66z
" />
    <glyph glyph-name="Scircumflex" unicode="&#x15c;" horiz-adv-x="642" 
d="M574 206q0 -55 -20.5 -96.5t-56 -70t-83.5 -43t-104 -14.5q-47 0 -93.5 8t-84 30.5t-62 62.5t-26.5 104h60q4 -40 18 -68.5t39 -47t62.5 -27t90.5 -8.5q52 0 89 13t60 36t34 54t11 68q0 18 -4 36.5t-15.5 34.5t-32.5 28.5t-54 19.5l-103 22q-77 17 -122 58t-45 116
q0 52 18 91.5t52 66t82 39.5t107 13q61 0 105 -15.5t73 -41t44.5 -59t20.5 -69.5l-57 -12q-11 70 -54 107t-137 37q-56 0 -93.5 -12t-59.5 -32.5t-31 -47t-9 -55.5q0 -24 5.5 -43.5t19 -35.5t37 -27.5t59.5 -19.5l99 -21q45 -9 76 -26t49.5 -40.5t27 -52t8.5 -60.5zM277 774
l139 129h57l85 -129h-60l-59 83l-100 -83h-62z" />
    <glyph glyph-name="scircumflex" unicode="&#x15d;" horiz-adv-x="514" 
d="M441 140q-1 -40 -18.5 -69.5t-46 -48.5t-65.5 -28.5t-77 -9.5q-36 0 -72.5 7.5t-65.5 26t-47 49t-18 76.5h56q0 -32 12.5 -53.5t33.5 -34t48.5 -17.5t58.5 -5q74 0 107 31.5t33 74.5q0 40 -18.5 59.5t-67.5 30.5l-59 13q-74 17 -107 47t-33 84q0 40 17 70t45 49.5
t64.5 29t74.5 9.5q50 0 84.5 -11t56 -30t33 -45t15.5 -55l-53 -10q-5 26 -14.5 45t-26 31.5t-40.5 18.5t-59 6q-37 0 -63.5 -8t-43 -22t-24.5 -32t-8 -37q0 -17 4 -30.5t14.5 -24t29 -18.5t47.5 -14l65 -14q60 -13 94 -44.5t34 -96.5zM172 590l141 134h57l84 -134h-57
l-61 90l-103 -90h-61z" />
    <glyph glyph-name="Scedilla" unicode="&#x15e;" horiz-adv-x="642" 
d="M262 -16q-41 3 -79.5 14.5t-68.5 34.5t-49 60.5t-21 93.5h60q4 -40 18 -68.5t39 -47t62.5 -27t90.5 -8.5q52 0 89 13t60 36t34 54t11 68q0 18 -4 36.5t-15.5 34.5t-32.5 28.5t-54 19.5l-103 22q-77 17 -122 58t-45 116q0 52 18 91.5t52 66t82 39.5t107 13q61 0 105 -15.5
t73 -41t44.5 -59t20.5 -69.5l-57 -12q-11 70 -54 107t-137 37q-56 0 -93.5 -12t-59.5 -32.5t-31 -47t-9 -55.5q0 -24 5.5 -43.5t19 -35.5t37 -27.5t59.5 -19.5l99 -21q45 -9 76 -26t49.5 -40.5t27 -52t8.5 -60.5q0 -55 -20.5 -96.5t-56 -70t-83.5 -43t-104 -14.5h-1l-22 -40
q23 -4 38.5 -12t24.5 -18t13 -21t4 -20q0 -26 -10 -43t-27 -27.5t-41 -14.5t-52 -4q-16 0 -32 2t-31 5l11 45q15 -3 25.5 -4.5t26.5 -1.5q34 0 52.5 9t18.5 32q0 16 -17.5 26.5t-60.5 10.5h-12z" />
    <glyph glyph-name="scedilla" unicode="&#x15f;" horiz-adv-x="514" 
d="M193 -14q-32 4 -61 14t-51.5 28.5t-36 46.5t-13.5 68h56q0 -32 12.5 -53.5t33.5 -34t48.5 -17.5t58.5 -5q74 0 107 31.5t33 74.5q0 40 -18.5 59.5t-67.5 30.5l-59 13q-74 17 -107 47t-33 84q0 40 17 70t45 49.5t64.5 29t74.5 9.5q50 0 84.5 -11t56 -30t33 -45t15.5 -55
l-53 -10q-5 26 -14.5 45t-26 31.5t-40.5 18.5t-59 6q-37 0 -63.5 -8t-43 -22t-24.5 -32t-8 -37q0 -17 4 -30.5t14.5 -24t29 -18.5t47.5 -14l65 -14q60 -13 94 -44.5t34 -96.5q-1 -40 -18 -69t-45 -48t-64.5 -28.5t-75.5 -10.5l-20 -36q43 -7 59.5 -26t16.5 -39
q0 -49 -35 -67.5t-88 -18.5q-14 0 -30 2t-30 5l10 44q14 -3 25 -4.5t25 -1.5q32 0 49.5 8t17.5 30q0 15 -16.5 24.5t-56.5 9.5h-12z" />
    <glyph glyph-name="Scaron" unicode="&#x160;" horiz-adv-x="642" 
d="M574 206q0 -55 -20.5 -96.5t-56 -70t-83.5 -43t-104 -14.5q-47 0 -93.5 8t-84 30.5t-62 62.5t-26.5 104h60q4 -40 18 -68.5t39 -47t62.5 -27t90.5 -8.5q52 0 89 13t60 36t34 54t11 68q0 18 -4 36.5t-15.5 34.5t-32.5 28.5t-54 19.5l-103 22q-77 17 -122 58t-45 116
q0 52 18 91.5t52 66t82 39.5t107 13q61 0 105 -15.5t73 -41t44.5 -59t20.5 -69.5l-57 -12q-11 70 -54 107t-137 37q-56 0 -93.5 -12t-59.5 -32.5t-31 -47t-9 -55.5q0 -24 5.5 -43.5t19 -35.5t37 -27.5t59.5 -19.5l99 -21q45 -9 76 -26t49.5 -40.5t27 -52t8.5 -60.5zM579 906
l-139 -129h-57l-85 129h60l59 -83l100 83h62z" />
    <glyph glyph-name="scaron" unicode="&#x161;" horiz-adv-x="514" 
d="M390 726l-141 -134h-57l-84 134h57l61 -90l103 90h61zM441 140q-1 -40 -18.5 -69.5t-46 -48.5t-65.5 -28.5t-77 -9.5q-36 0 -72.5 7.5t-65.5 26t-47 49t-18 76.5h56q0 -32 12.5 -53.5t33.5 -34t48.5 -17.5t58.5 -5q74 0 107 31.5t33 74.5q0 40 -18.5 59.5t-67.5 30.5
l-59 13q-74 17 -107 47t-33 84q0 40 17 70t45 49.5t64.5 29t74.5 9.5q50 0 84.5 -11t56 -30t33 -45t15.5 -55l-53 -10q-5 26 -14.5 45t-26 31.5t-40.5 18.5t-59 6q-37 0 -63.5 -8t-43 -22t-24.5 -32t-8 -37q0 -17 4 -30.5t14.5 -24t29 -18.5t47.5 -14l65 -14
q60 -13 94 -44.5t34 -96.5z" />
    <glyph glyph-name="uni0162" unicode="&#x162;" horiz-adv-x="590" 
d="M232 0h-7l139 658h-248l12 56h556l-12 -56h-247l-139 -658h-8l-29 -52q43 -7 59.5 -26t16.5 -39q0 -49 -35 -67.5t-88 -18.5q-14 0 -30 2t-30 5l10 44q14 -3 25 -4.5t25 -1.5q32 0 49.5 8t17.5 30q0 15 -16.5 24.5t-56.5 9.5h-12z" />
    <glyph glyph-name="uni0163" unicode="&#x163;" horiz-adv-x="330" 
d="M159 -6q-36 8 -55.5 33.5t-19.5 67.5q0 11 1 22.5t4 24.5l69 325h-80l10 48h80l30 142h58l-30 -142h146l-10 -48h-146l-69 -325q-2 -11 -3.5 -20.5t-1.5 -18.5q0 -64 63 -64q26 0 41 4t29 9l10 -47q-16 -5 -36 -10t-46 -6l-23 -41q43 -7 59.5 -26t16.5 -39
q0 -49 -35 -67.5t-88 -18.5q-14 0 -30 2t-30 5l10 44q14 -3 25 -4.5t25 -1.5q32 0 49.5 8t17.5 30q0 15 -16.5 24.5t-56.5 9.5h-12z" />
    <glyph glyph-name="Tcaron" unicode="&#x164;" horiz-adv-x="590" 
d="M425 658l-139 -658h-61l139 658h-248l12 56h556l-12 -56h-247zM578 906l-139 -129h-57l-85 129h60l59 -83l100 83h62z" />
    <glyph glyph-name="tcaron" unicode="&#x165;" horiz-adv-x="330" 
d="M297 571l57 153h60l-69 -153h-48zM285 5q-17 -6 -37.5 -11t-48.5 -5q-55 0 -85 26.5t-30 79.5q0 11 1 22.5t4 24.5l69 325h-80l10 48h80l30 142h58l-30 -142h146l-10 -48h-146l-69 -325q-2 -11 -3.5 -20.5t-1.5 -18.5q0 -64 63 -64q26 0 41 4t29 9z" />
    <glyph glyph-name="Tbar" unicode="&#x166;" horiz-adv-x="590" 
d="M425 658l-58 -274h161l-11 -54h-161l-70 -330h-61l70 330h-161l11 54h161l58 274h-248l12 56h556l-12 -56h-247z" />
    <glyph glyph-name="tbar" unicode="&#x167;" horiz-adv-x="330" 
d="M170 250l-23 -108q-2 -11 -3.5 -20.5t-1.5 -18.5q0 -64 63 -64q26 0 41 4t29 9l10 -47q-17 -6 -37.5 -11t-48.5 -5q-55 0 -85 26.5t-30 79.5q0 11 1 22.5t4 24.5l23 108h-80l10 51h81l35 166h-80l10 48h80l30 142h58l-30 -142h146l-10 -48h-146l-35 -166h145l-10 -51
h-146z" />
    <glyph glyph-name="Utilde" unicode="&#x168;" horiz-adv-x="676" 
d="M316 -18q-52 0 -94.5 12t-72.5 37.5t-46.5 65t-16.5 93.5q0 21 3 44.5t8 49.5l91 430h61l-92 -435q-10 -46 -10 -87q0 -78 41.5 -117t129.5 -39q55 0 94.5 15.5t67 46t46 76t31.5 105.5l92 435h61l-92 -434q-17 -79 -43 -135.5t-62.5 -92.5t-85.5 -53t-111 -17zM539 781
q-25 0 -43.5 9t-34.5 20t-31 20t-31 9q-26 0 -38 -13.5t-18 -43.5h-49q8 52 32 78.5t72 26.5q25 0 43.5 -9t34.5 -19.5t30.5 -19.5t31.5 -9q26 0 38 13t17 43h50q-8 -52 -32 -78.5t-72 -26.5z" />
    <glyph glyph-name="utilde" unicode="&#x169;" horiz-adv-x="547" 
d="M193 515l-69 -324q-2 -12 -3.5 -27t-1.5 -29q0 -20 4 -37.5t14.5 -31.5t28.5 -22t45 -8q29 0 61 11.5t63 37.5t54 53.5t33 74.5l64 302h58l-109 -515h-58l18 84q-48 -54 -97 -77t-96 -23q-37 0 -64 11t-44.5 30.5t-26 46t-8.5 57.5q0 13 1.5 27.5t4.5 28.5l70 330h58z
M422 604q-24 0 -42 9t-33.5 19.5t-30 19.5t-30.5 9q-26 0 -37.5 -13t-16.5 -42h-48q8 51 31 77.5t70 26.5q24 0 42 -9t33.5 -19.5t30 -19.5t30.5 -9q26 0 37.5 13t16.5 42h48q-8 -51 -31 -77.5t-70 -26.5z" />
    <glyph glyph-name="Umacron" unicode="&#x16a;" horiz-adv-x="676" 
d="M316 -18q-52 0 -94.5 12t-72.5 37.5t-46.5 65t-16.5 93.5q0 21 3 44.5t8 49.5l91 430h61l-92 -435q-10 -46 -10 -87q0 -78 41.5 -117t129.5 -39q55 0 94.5 15.5t67 46t46 76t31.5 105.5l92 435h61l-92 -434q-17 -79 -43 -135.5t-62.5 -92.5t-85.5 -53t-111 -17zM316 798
l11 53h282l-11 -53h-282z" />
    <glyph glyph-name="umacron" unicode="&#x16b;" horiz-adv-x="547" 
d="M193 515l-69 -324q-2 -12 -3.5 -27t-1.5 -29q0 -20 4 -37.5t14.5 -31.5t28.5 -22t45 -8q29 0 61 11.5t63 37.5t54 53.5t33 74.5l64 302h58l-109 -515h-58l18 84q-48 -54 -97 -77t-96 -23q-37 0 -64 11t-44.5 30.5t-26 46t-8.5 57.5q0 13 1.5 27.5t4.5 28.5l70 330h58z
M236 678h244l-11 -51h-244z" />
    <glyph glyph-name="Ubreve" unicode="&#x16c;" horiz-adv-x="676" 
d="M316 -18q-52 0 -94.5 12t-72.5 37.5t-46.5 65t-16.5 93.5q0 21 3 44.5t8 49.5l91 430h61l-92 -435q-10 -46 -10 -87q0 -78 41.5 -117t129.5 -39q55 0 94.5 15.5t67 46t46 76t31.5 105.5l92 435h61l-92 -434q-17 -79 -43 -135.5t-62.5 -92.5t-85.5 -53t-111 -17zM484 774
q-51 0 -80.5 25.5t-29.5 73.5q0 13 3 30h48q-3 -14 -3 -24q0 -32 17.5 -46.5t46.5 -14.5q35 0 61 18.5t34 66.5h48q-13 -69 -49 -99t-96 -30z" />
    <glyph glyph-name="ubreve" unicode="&#x16d;" horiz-adv-x="547" 
d="M193 515l-69 -324q-2 -12 -3.5 -27t-1.5 -29q0 -20 4 -37.5t14.5 -31.5t28.5 -22t45 -8q29 0 61 11.5t63 37.5t54 53.5t33 74.5l64 302h58l-109 -515h-58l18 84q-48 -54 -97 -77t-96 -23q-37 0 -64 11t-44.5 30.5t-26 46t-8.5 57.5q0 13 1.5 27.5t4.5 28.5l70 330h58z
M351 589q-51 0 -80.5 26.5t-29.5 74.5q0 13 3 30h48q-3 -14 -3 -24q0 -32 17.5 -48t46.5 -16q35 0 61 20t34 68h48q-13 -69 -49 -100t-96 -31z" />
    <glyph glyph-name="Uring" unicode="&#x16e;" horiz-adv-x="676" 
d="M316 -18q-52 0 -94.5 12t-72.5 37.5t-46.5 65t-16.5 93.5q0 21 3 44.5t8 49.5l91 430h61l-92 -435q-10 -46 -10 -87q0 -78 41.5 -117t129.5 -39q55 0 94.5 15.5t67 46t46 76t31.5 105.5l92 435h61l-92 -434q-17 -79 -43 -135.5t-62.5 -92.5t-85.5 -53t-111 -17zM355 830
q0 48 28.5 72t66.5 24q19 0 36 -6t30.5 -18t21.5 -30t8 -42q0 -23 -8 -41t-21.5 -30t-30.5 -18t-36 -6q-38 0 -66.5 24t-28.5 71zM399 830q0 -28 14 -41t37 -13q24 0 37.5 13t13.5 41q0 29 -13.5 42.5t-37.5 13.5q-23 0 -37 -13.5t-14 -42.5z" />
    <glyph glyph-name="uring" unicode="&#x16f;" horiz-adv-x="547" 
d="M193 515l-69 -324q-2 -12 -3.5 -27t-1.5 -29q0 -20 4 -37.5t14.5 -31.5t28.5 -22t45 -8q29 0 61 11.5t63 37.5t54 53.5t33 74.5l64 302h58l-109 -515h-58l18 84q-48 -54 -97 -77t-96 -23q-37 0 -64 11t-44.5 30.5t-26 46t-8.5 57.5q0 13 1.5 27.5t4.5 28.5l70 330h58z
M252 683q0 47 28 71t66 24q18 0 35.5 -6t30.5 -18t21 -30t8 -41q0 -24 -8 -41.5t-21 -29t-30.5 -17.5t-35.5 -6q-38 0 -66 23.5t-28 70.5zM296 683q0 -28 13.5 -41.5t36.5 -13.5t36.5 13.5t13.5 41.5t-13.5 41.5t-36.5 13.5t-36.5 -13.5t-13.5 -41.5z" />
    <glyph glyph-name="Uhungarumlaut" unicode="&#x170;" horiz-adv-x="676" 
d="M316 -18q-52 0 -94.5 12t-72.5 37.5t-46.5 65t-16.5 93.5q0 21 3 44.5t8 49.5l91 430h61l-92 -435q-10 -46 -10 -87q0 -78 41.5 -117t129.5 -39q55 0 94.5 15.5t67 46t46 76t31.5 105.5l92 435h61l-92 -434q-17 -79 -43 -135.5t-62.5 -92.5t-85.5 -53t-111 -17zM325 774
l120 129h76l-136 -129h-60zM487 774l120 129h76l-136 -129h-60z" />
    <glyph glyph-name="uhungarumlaut" unicode="&#x171;" horiz-adv-x="547" 
d="M193 515l-69 -324q-2 -12 -3.5 -27t-1.5 -29q0 -20 4 -37.5t14.5 -31.5t28.5 -22t45 -8q29 0 61 11.5t63 37.5t54 53.5t33 74.5l64 302h58l-109 -515h-58l18 84q-48 -54 -97 -77t-96 -23q-37 0 -64 11t-44.5 30.5t-26 46t-8.5 57.5q0 13 1.5 27.5t4.5 28.5l70 330h58z
M220 590l128 134h78l-144 -134h-62zM386 590l128 134h78l-144 -134h-62z" />
    <glyph glyph-name="Uogonek" unicode="&#x172;" horiz-adv-x="676" 
d="M406 -175q-6 -1 -13 -1.5t-17 -0.5q-38 0 -60.5 19t-22.5 49q0 26 12 48t39 44q-7 0 -14 -0.5t-14 -0.5q-52 0 -94.5 12t-72.5 37.5t-46.5 65t-16.5 93.5q0 21 2.5 44.5t8.5 49.5l91 430h61l-92 -435q-10 -46 -10 -87q0 -78 41.5 -117t129.5 -39q55 0 94.5 15.5t67 46
t46 76t31.5 105.5l92 435h61l-92 -434q-26 -119 -71.5 -186.5t-118.5 -93.5q-76 -53 -76 -94q0 -16 10 -25.5t30 -9.5q5 0 12 0.5t13 1.5z" />
    <glyph glyph-name="uogonek" unicode="&#x173;" horiz-adv-x="547" 
d="M413 -170q-6 -1 -13 -1.5t-16 -0.5q-38 0 -59.5 18.5t-21.5 47.5t17.5 54.5t57.5 51.5h-1l18 84q-48 -54 -97 -77t-96 -23q-37 0 -64 11t-44.5 30.5t-26 46t-8.5 57.5q0 13 1.5 27.5t4.5 28.5l70 330h58l-69 -324q-2 -12 -3.5 -27t-1.5 -29q0 -20 4 -37.5t14.5 -31.5
t28.5 -22t45 -8q29 0 61 11.5t63 37.5t54 53.5t33 74.5l64 302h58l-109 -515q-38 -26 -56.5 -48t-18.5 -43q0 -34 39 -34q5 0 12 0.5t12 1.5z" />
    <glyph glyph-name="Wcircumflex" unicode="&#x174;" horiz-adv-x="911" 
d="M548 635l-306 -635h-67l-51 714h64l35 -638l310 635h65l40 -634l303 637h68l-352 -714h-70zM439 774l139 129h57l85 -129h-60l-59 83l-100 -83h-62z" />
    <glyph glyph-name="wcircumflex" unicode="&#x175;" horiz-adv-x="711" 
d="M505 0h-67l-34 450l-225 -450h-67l-40 515h62l24 -450l226 447h68l33 -447l216 450h64zM274 590l141 134h57l84 -134h-57l-61 90l-103 -90h-61z" />
    <glyph glyph-name="Ycircumflex" unicode="&#x176;" horiz-adv-x="588" 
d="M126 714h66l136 -353l286 353h70l-333 -405l-65 -309h-61l65 309zM268 774l139 129h57l85 -129h-60l-59 83l-100 -83h-62z" />
    <glyph glyph-name="ycircumflex" unicode="&#x177;" horiz-adv-x="498" 
d="M182 7l-113 508h63l94 -442l260 442h69l-358 -583q-19 -29 -34.5 -52.5t-32 -40t-35.5 -25t-45 -8.5q-23 0 -41.5 4t-32.5 11l19 47q9 -4 21 -7.5t27 -3.5q18 0 30 4.5t23 14.5t22 27t27 43zM167 590l141 134h57l84 -134h-57l-61 90l-103 -90h-61z" />
    <glyph glyph-name="Ydieresis" unicode="&#x178;" horiz-adv-x="588" 
d="M175 795l19 87h67l-19 -87h-67zM339 795l19 87h68l-19 -87h-68zM126 714h66l136 -353l286 353h70l-333 -405l-65 -309h-61l65 309z" />
    <glyph glyph-name="Zacute" unicode="&#x179;" horiz-adv-x="585" 
d="M510 0h-512l10 50l556 609h-424l11 55h503l-11 -51l-554 -607h445zM343 774l133 129h81l-150 -129h-64z" />
    <glyph glyph-name="zacute" unicode="&#x17a;" horiz-adv-x="449" 
d="M-4 49l407 417h-317l10 49h389l-10 -49l-407 -417h343l-18 -49h-407zM240 590l133 134h82l-149 -134h-66z" />
    <glyph glyph-name="Zdotaccent" unicode="&#x17b;" horiz-adv-x="585" 
d="M510 0h-512l10 50l556 609h-424l11 55h503l-11 -51l-554 -607h445zM371 794l19 89h68l-19 -89h-68z" />
    <glyph glyph-name="zdotaccent" unicode="&#x17c;" horiz-adv-x="449" 
d="M-4 49l407 417h-317l10 49h389l-10 -49l-407 -417h343l-18 -49h-407zM263 618l18 87h66l-18 -87h-66z" />
    <glyph glyph-name="Zcaron" unicode="&#x17d;" horiz-adv-x="585" 
d="M510 0h-512l10 50l556 609h-424l11 55h503l-11 -51l-554 -607h445zM581 906l-139 -129h-57l-85 129h60l59 -83l100 83h62z" />
    <glyph glyph-name="zcaron" unicode="&#x17e;" horiz-adv-x="449" 
d="M-4 49l407 417h-317l10 49h389l-10 -49l-407 -417h343l-18 -49h-407zM464 726l-141 -134h-57l-84 134h57l61 -90l103 90h61z" />
    <glyph glyph-name="longs" unicode="&#x17f;" horiz-adv-x="202" 
d="M372 660q-13 5 -26 8t-35 3q-42 0 -64.5 -23t-32.5 -68l-123 -580h-58l123 578q17 78 57.5 111t98.5 33q23 0 42 -4t36 -11z" />
    <glyph glyph-name="florin" unicode="&#x192;" 
d="M186 -46q-26 -75 -63 -102t-92 -27q-29 0 -46 4t-37 13l18 47q17 -8 29.5 -11t36.5 -3q40 0 60 18.5t36 64.5l174 493h-79l13 51h84l28 79q13 37 29.5 62t36.5 40t44 21t53 6t46 -4t37 -13l-18 -47q-17 8 -29.5 11t-36.5 3q-42 0 -65 -18.5t-39 -64.5l-26 -75h135
l-14 -51h-139z" />
    <glyph glyph-name="Scommaaccent" unicode="&#x218;" horiz-adv-x="642" 
d="M574 206q0 -55 -20.5 -96.5t-56 -70t-83.5 -43t-104 -14.5q-47 0 -93.5 8t-84 30.5t-62 62.5t-26.5 104h60q4 -40 18 -68.5t39 -47t62.5 -27t90.5 -8.5q52 0 89 13t60 36t34 54t11 68q0 18 -4 36.5t-15.5 34.5t-32.5 28.5t-54 19.5l-103 22q-77 17 -122 58t-45 116
q0 52 18 91.5t52 66t82 39.5t107 13q61 0 105 -15.5t73 -41t44.5 -59t20.5 -69.5l-57 -12q-11 70 -54 107t-137 37q-56 0 -93.5 -12t-59.5 -32.5t-31 -47t-9 -55.5q0 -24 5.5 -43.5t19 -35.5t37 -27.5t59.5 -19.5l99 -21q45 -9 76 -26t49.5 -40.5t27 -52t8.5 -60.5z
M154 -212l103 144h76l-120 -144h-59z" />
    <glyph glyph-name="scommaaccent" unicode="&#x219;" horiz-adv-x="514" 
d="M441 140q-1 -40 -18.5 -69.5t-46 -48.5t-65.5 -28.5t-77 -9.5q-36 0 -72.5 7.5t-65.5 26t-47 49t-18 76.5h56q0 -32 12.5 -53.5t33.5 -34t48.5 -17.5t58.5 -5q74 0 107 31.5t33 74.5q0 40 -18.5 59.5t-67.5 30.5l-59 13q-74 17 -107 47t-33 84q0 40 17 70t45 49.5
t64.5 29t74.5 9.5q50 0 84.5 -11t56 -30t33 -45t15.5 -55l-53 -10q-5 26 -14.5 45t-26 31.5t-40.5 18.5t-59 6q-37 0 -63.5 -8t-43 -22t-24.5 -32t-8 -37q0 -17 4 -30.5t14.5 -24t29 -18.5t47.5 -14l65 -14q60 -13 94 -44.5t34 -96.5zM89 -208l100 140h74l-117 -140h-57z
" />
    <glyph glyph-name="uni021A" unicode="&#x21a;" horiz-adv-x="590" 
d="M425 658l-139 -658h-61l139 658h-248l12 56h556l-12 -56h-247zM102 -212l103 144h76l-120 -144h-59z" />
    <glyph glyph-name="uni021B" unicode="&#x21b;" horiz-adv-x="330" 
d="M285 5q-17 -6 -37.5 -11t-48.5 -5q-55 0 -85 26.5t-30 79.5q0 11 1 22.5t4 24.5l69 325h-80l10 48h80l30 142h58l-30 -142h146l-10 -48h-146l-69 -325q-2 -11 -3.5 -20.5t-1.5 -18.5q0 -64 63 -64q26 0 41 4t29 9zM19 -208l100 140h74l-117 -140h-57z" />
    <glyph glyph-name="dotlessj" unicode="&#x237;" horiz-adv-x="204" 
d="M87 -18q-8 -35 -18 -65.5t-27 -53t-43 -36t-65 -13.5q-34 0 -54.5 6t-34.5 12l20 48q12 -5 28 -9.5t41 -4.5q41 0 61 24.5t29 66.5l118 558h58z" />
    <glyph glyph-name="apostrophe" unicode="&#x2bc;" horiz-adv-x="182" 
d="M95 528l64 186h67l-86 -186h-45z" />
    <glyph glyph-name="circumflex" unicode="&#x2c6;" horiz-adv-x="379" 
d="M113 590l141 134h57l84 -134h-57l-61 90l-103 -90h-61z" />
    <glyph glyph-name="caron" unicode="&#x2c7;" horiz-adv-x="379" 
d="M424 726l-141 -134h-57l-84 134h57l61 -90l103 90h61z" />
    <glyph glyph-name="uni02C9" unicode="&#x2c9;" horiz-adv-x="379" 
d="M151 678h244l-11 -51h-244z" />
    <glyph glyph-name="breve" unicode="&#x2d8;" horiz-adv-x="379" 
d="M273 589q-51 0 -80.5 26.5t-29.5 74.5q0 13 3 30h48q-3 -14 -3 -24q0 -32 17.5 -48t46.5 -16q35 0 61 20t34 68h48q-13 -69 -49 -100t-96 -31z" />
    <glyph glyph-name="dotaccent" unicode="&#x2d9;" horiz-adv-x="379" 
d="M227 618l18 87h66l-18 -87h-66z" />
    <glyph glyph-name="ring" unicode="&#x2da;" horiz-adv-x="379" 
d="M169 683q0 47 28 71t66 24q18 0 35.5 -6t30.5 -18t21 -30t8 -41q0 -24 -8 -41.5t-21 -29t-30.5 -17.5t-35.5 -6q-38 0 -66 23.5t-28 70.5zM213 683q0 -28 13.5 -41.5t36.5 -13.5t36.5 13.5t13.5 41.5t-13.5 41.5t-36.5 13.5t-36.5 -13.5t-13.5 -41.5z" />
    <glyph glyph-name="ogonek" unicode="&#x2db;" horiz-adv-x="379" 
d="M182 -170q-6 -1 -13 -1.5t-16 -0.5q-38 0 -59.5 18.5t-21.5 47.5t17.5 54.5t57.5 51.5h57q-38 -26 -56.5 -48t-18.5 -43q0 -34 39 -34q5 0 12 0.5t12 1.5z" />
    <glyph glyph-name="tilde" unicode="&#x2dc;" horiz-adv-x="379" 
d="M337 604q-24 0 -42 9t-33.5 19.5t-30 19.5t-30.5 9q-26 0 -37.5 -13t-16.5 -42h-48q8 51 31 77.5t70 26.5q24 0 42 -9t33.5 -19.5t30 -19.5t30.5 -9q26 0 37.5 13t16.5 42h48q-8 -51 -31 -77.5t-70 -26.5z" />
    <glyph glyph-name="hungarumlaut" unicode="&#x2dd;" horiz-adv-x="379" 
d="M96 590l128 134h78l-144 -134h-62zM262 590l128 134h78l-144 -134h-62z" />
    <glyph glyph-name="tonos" unicode="&#x384;" horiz-adv-x="379" 
d="M207 734h76l-118 -144h-57z" />
    <glyph glyph-name="dieresistonos" unicode="&#x385;" horiz-adv-x="379" 
d="M208 736h74l-98 -146h-55zM46 623l16 77h61l-16 -77h-61zM276 623l16 77h61l-16 -77h-61z" />
    <glyph glyph-name="Alphatonos" unicode="&#x386;" horiz-adv-x="661" 
d="M406 714h72l131 -714h-63l-40 218h-336l-131 -218h-67zM204 274h292l-68 373zM214 714h74l-115 -154h-55z" />
    <glyph glyph-name="Epsilontonos" unicode="&#x388;" horiz-adv-x="701" 
d="M356 659l-56 -262h368l-12 -57h-368l-61 -284h409l-24 -56h-457l151 714h449l-11 -55h-388zM168 714h74l-115 -154h-55z" />
    <glyph glyph-name="Etatonos" unicode="&#x389;" horiz-adv-x="802" 
d="M619 0l72 341h-403l-72 -341h-61l151 714h61l-67 -316h403l67 316h61l-151 -714h-61zM168 714h74l-115 -154h-55z" />
    <glyph glyph-name="Iotatonos" unicode="&#x38a;" horiz-adv-x="338" 
d="M155 0l151 714h61l-151 -714h-61zM168 714h74l-115 -154h-55z" />
    <glyph glyph-name="Omicrontonos" unicode="&#x38c;" horiz-adv-x="810" 
d="M520 732q59 0 110.5 -20t89.5 -58t59.5 -92.5t21.5 -124.5q0 -83 -25.5 -164t-75 -146t-121 -105t-164.5 -40q-59 0 -110.5 20t-89.5 57.5t-59.5 92t-21.5 124.5q0 82 26.5 164t76 146.5t121 105t162.5 40.5zM417 36q75 0 134.5 34.5t100.5 91t62.5 128t21.5 145.5
q0 53 -14 97.5t-42 77t-68.5 50.5t-93.5 18q-75 0 -134.5 -35t-100.5 -91t-62.5 -128t-21.5 -145q0 -53 14 -98t42 -77t68.5 -50t93.5 -18zM161 714h74l-115 -154h-55z" />
    <glyph glyph-name="Upsilontonos" unicode="&#x38e;" horiz-adv-x="743" 
d="M281 714h66l136 -353l286 353h70l-333 -405l-65 -309h-61l65 309zM165 714h74l-115 -154h-55z" />
    <glyph glyph-name="Omegatonos" unicode="&#x38f;" horiz-adv-x="783" 
d="M460 54q118 66 178 170.5t60 238.5q0 101 -47.5 158t-141.5 57q-79 0 -137.5 -33.5t-97 -88t-57.5 -124t-19 -141.5q0 -73 30 -135.5t84 -101.5l-11 -54h-248l11 55h172q-19 17 -37 41.5t-32.5 55t-23 66t-8.5 74.5q0 83 25 162.5t73 141t119 99t163 37.5
q54 0 99.5 -17.5t78.5 -51.5t51.5 -84t18.5 -114q0 -79 -18 -142t-48.5 -113t-70.5 -88t-83 -67h177l-23 -55h-248zM152 714h74l-115 -154h-55z" />
    <glyph glyph-name="iotadieresistonos" unicode="&#x390;" horiz-adv-x="252" 
d="M140 515h58l-82 -386q-2 -11 -4 -22.5t-2 -22.5q0 -19 10 -32.5t39 -13.5q11 0 24.5 1t27.5 6l8 -46q-13 -5 -30 -8t-45 -3q-52 0 -73 23.5t-21 57.5q0 23 6 49.5t12 55.5zM216 736h74l-98 -146h-55zM54 623l16 77h61l-16 -77h-61zM284 623l16 77h61l-16 -77h-61z" />
    <glyph glyph-name="Alpha" unicode="&#x391;" horiz-adv-x="661" 
d="M406 714h72l131 -714h-63l-40 218h-336l-131 -218h-67zM204 274h292l-68 373z" />
    <glyph glyph-name="Beta" unicode="&#x392;" horiz-adv-x="624" 
d="M631 559q0 -140 -154 -186q52 -20 80.5 -61.5t28.5 -91.5t-17 -91t-53.5 -69.5t-93 -44t-135.5 -15.5h-245l151 714h231q63 0 103.5 -15t63.5 -38t31.5 -50.5t8.5 -51.5zM362 401q39 0 76.5 7t66.5 24.5t46.5 47.5t17.5 76q0 23 -7.5 42t-25.5 33t-47.5 22t-73.5 8h-173
l-55 -260h175zM113 54h183q62 0 105 10t69.5 31t38.5 52.5t12 73.5q0 26 -9.5 49t-29 40t-49.5 26.5t-72 9.5h-186z" />
    <glyph glyph-name="Gamma" unicode="&#x393;" horiz-adv-x="518" 
d="M242 659l-139 -659h-61l151 714h424l-12 -55h-363z" />
    <glyph glyph-name="uni0394" unicode="&#x394;" horiz-adv-x="644" 
d="M400 714h66l125 -714h-618zM73 56h446l-98 589z" />
    <glyph glyph-name="Epsilon" unicode="&#x395;" horiz-adv-x="588" 
d="M243 659l-56 -262h368l-12 -57h-368l-61 -284h409l-24 -56h-457l151 714h449l-11 -55h-388z" />
    <glyph glyph-name="Zeta" unicode="&#x396;" horiz-adv-x="585" 
d="M510 0h-512l10 50l556 609h-424l11 55h503l-11 -51l-554 -607h445z" />
    <glyph glyph-name="Eta" unicode="&#x397;" horiz-adv-x="689" 
d="M506 0l72 341h-403l-72 -341h-61l151 714h61l-67 -316h403l67 316h61l-151 -714h-61z" />
    <glyph glyph-name="Theta" unicode="&#x398;" horiz-adv-x="756" 
d="M243 398h360l-12 -57h-360zM466 732q59 0 110.5 -20t89.5 -58t59.5 -92.5t21.5 -124.5q0 -83 -25.5 -164t-75 -146t-121 -105t-164.5 -40q-59 0 -110.5 20t-89.5 57.5t-59.5 92t-21.5 124.5q0 82 26.5 164t76 146.5t121 105t162.5 40.5zM363 36q75 0 134.5 34.5t100.5 91
t62.5 128t21.5 145.5q0 53 -14 97.5t-42 77t-68.5 50.5t-93.5 18q-75 0 -134.5 -35t-100.5 -91t-62.5 -128t-21.5 -145q0 -53 14 -98t42 -77t68.5 -50t93.5 -18z" />
    <glyph glyph-name="Iota" unicode="&#x399;" horiz-adv-x="225" 
d="M42 0l151 714h61l-151 -714h-61z" />
    <glyph glyph-name="Kappa" unicode="&#x39a;" horiz-adv-x="636" 
d="M330 405l-170 -137l-57 -268h-61l151 714h61l-78 -371l453 371h73l-322 -272l196 -442h-70z" />
    <glyph glyph-name="Lambda" unicode="&#x39b;" horiz-adv-x="643" 
d="M419 645l-380 -645h-67l426 714h66l127 -714h-63z" />
    <glyph glyph-name="Mu" unicode="&#x39c;" horiz-adv-x="838" 
d="M349 0l-121 608l-129 -608h-57l151 714h76l123 -643l397 643h78l-151 -714h-57l130 611l-382 -611h-58z" />
    <glyph glyph-name="Nu" unicode="&#x39d;" horiz-adv-x="690" 
d="M505 0l-272 622l-132 -622h-59l151 714h64l271 -620l132 620h59l-151 -714h-63z" />
    <glyph glyph-name="Xi" unicode="&#x39e;" horiz-adv-x="539" 
d="M102 398h406l-12 -57h-406zM4 56h471l-24 -56h-458zM149 714h446l-11 -56h-446z" />
    <glyph glyph-name="Omicron" unicode="&#x39f;" horiz-adv-x="756" 
d="M466 732q59 0 110.5 -20t89.5 -58t59.5 -92.5t21.5 -124.5q0 -83 -25.5 -164t-75 -146t-121 -105t-164.5 -40q-59 0 -110.5 20t-89.5 57.5t-59.5 92t-21.5 124.5q0 82 26.5 164t76 146.5t121 105t162.5 40.5zM363 36q75 0 134.5 34.5t100.5 91t62.5 128t21.5 145.5
q0 53 -14 97.5t-42 77t-68.5 50.5t-93.5 18q-75 0 -134.5 -35t-100.5 -91t-62.5 -128t-21.5 -145q0 -53 14 -98t42 -77t68.5 -50t93.5 -18z" />
    <glyph glyph-name="Pi" unicode="&#x3a0;" horiz-adv-x="678" 
d="M250 659l-139 -659h-61l151 714h514l-151 -714h-61l139 659h-392z" />
    <glyph glyph-name="Rho" unicode="&#x3a1;" horiz-adv-x="619" 
d="M643 540q0 -66 -22.5 -113.5t-63 -78t-97.5 -45t-126 -14.5h-171l-61 -289h-60l151 714h227q64 0 106.5 -16t68.5 -41t37 -56t11 -61zM343 342q53 0 97 9.5t75 32.5t48 61t17 96q0 26 -9 48t-29 38t-52.5 25t-79.5 9h-168l-68 -319h169z" />
    <glyph glyph-name="Sigma" unicode="&#x3a3;" horiz-adv-x="568" 
d="M81 56h448l-24 -56h-512l10 50l315 314l-178 300l10 50h487l-11 -56h-418l178 -303z" />
    <glyph glyph-name="Tau" unicode="&#x3a4;" horiz-adv-x="590" 
d="M425 658l-139 -658h-61l139 658h-248l12 56h556l-12 -56h-247z" />
    <glyph glyph-name="Upsilon" unicode="&#x3a5;" horiz-adv-x="588" 
d="M126 714h66l136 -353l286 353h70l-333 -405l-65 -309h-61l65 309z" />
    <glyph glyph-name="Phi" unicode="&#x3a6;" horiz-adv-x="808" 
d="M335 0l19 92q-55 5 -103 21.5t-83.5 45.5t-56 70.5t-20.5 96.5q0 81 29.5 142.5t81 103.5t122 65t152.5 26l17 81h61l-18 -83q55 -5 103 -21.5t84 -45t56.5 -70t20.5 -96.5q0 -82 -29.5 -143.5t-81 -103.5t-122 -64.5t-152.5 -25.5l-19 -91h-61zM736 430q0 45 -15.5 77.5
t-43.5 55t-66.5 34.5t-84.5 16l-100 -473q68 3 125 21t98 53t64 88.5t23 127.5zM155 324q0 -45 15.5 -78t43.5 -55t66.5 -34.5t84.5 -16.5l100 473q-68 -3 -125 -21t-98 -53t-64 -88.5t-23 -126.5z" />
    <glyph glyph-name="Chi" unicode="&#x3a7;" horiz-adv-x="613" 
d="M379 371l181 -371h-70l-157 329l-289 -329h-70l333 380l-162 334h68l138 -296l263 296h69z" />
    <glyph glyph-name="Psi" unicode="&#x3a8;" horiz-adv-x="816" 
d="M335 0l43 203q-54 3 -100.5 16t-80.5 38.5t-53.5 65t-19.5 94.5q0 22 2.5 46.5t8.5 51.5l42 199h60l-43 -201q-11 -50 -11 -86q0 -92 52.5 -131t152.5 -44l98 462h60l-98 -461q58 3 106.5 18t86.5 46.5t65.5 81t43.5 123.5l42 192h61l-41 -190q-18 -84 -49 -143
t-77 -97.5t-108 -58t-141 -23.5l-42 -202h-60z" />
    <glyph glyph-name="Omega" unicode="&#x3a9;" horiz-adv-x="747" 
d="M424 54q118 66 178 170.5t60 238.5q0 101 -47.5 158t-141.5 57q-79 0 -137.5 -33.5t-97 -88t-57.5 -124t-19 -141.5q0 -73 30 -135.5t84 -101.5l-11 -54h-248l11 55h172q-19 17 -37 41.5t-32.5 55t-23 66t-8.5 74.5q0 83 25 162.5t73 141t119 99t163 37.5
q54 0 99.5 -17.5t78.5 -51.5t51.5 -84t18.5 -114q0 -79 -18 -142t-48.5 -113t-70.5 -88t-83 -67h177l-23 -55h-248z" />
    <glyph glyph-name="Iotadieresis" unicode="&#x3aa;" horiz-adv-x="225" 
d="M42 0l151 714h61l-151 -714h-61zM115 795l19 87h67l-19 -87h-67zM279 795l19 87h68l-19 -87h-68z" />
    <glyph glyph-name="Upsilondieresis" unicode="&#x3ab;" horiz-adv-x="588" 
d="M126 714h66l136 -353l286 353h70l-333 -405l-65 -309h-61l65 309zM293 795l19 87h67l-19 -87h-67zM457 795l19 87h68l-19 -87h-68z" />
    <glyph glyph-name="alphatonos" unicode="&#x3ac;" horiz-adv-x="663" 
d="M524 240l13 -111q7 -55 17 -74t33 -19q8 0 15.5 1t14.5 3l5 -46q-8 -2 -17 -4q-8 -2 -17 -3t-18 -1q-35 0 -54 23t-26 74l-13 95q-27 -43 -54 -79t-56.5 -61.5t-63.5 -39.5t-76 -14q-41 0 -72.5 14.5t-53 40.5t-32.5 62t-11 79q0 67 18 130.5t52.5 112.5t85 78.5
t116.5 29.5q82 0 128 -55.5t54 -158.5l100 198h59zM237 34q33 0 62.5 15t57.5 43.5t55.5 68.5t56.5 90q-4 58 -12 101.5t-24.5 72t-42.5 42.5t-65 14q-53 0 -92 -27.5t-64.5 -70.5t-38 -95.5t-12.5 -103.5q0 -73 31 -111.5t88 -38.5zM390 734h76l-118 -144h-57z" />
    <glyph glyph-name="epsilontonos" unicode="&#x3ad;" horiz-adv-x="517" 
d="M462 140q-7 -28 -19.5 -56t-37.5 -50t-65.5 -36t-103.5 -14q-48 0 -85.5 11t-63 30.5t-38.5 46t-13 57.5q0 60 35 95t92 49q-31 11 -51 40t-20 64q0 28 10.5 55.5t35.5 49.5t67.5 35.5t105.5 13.5q45 0 78.5 -10.5t56 -28.5t34.5 -42t16 -52l-51 -10q-4 19 -12.5 36.5
t-24 30.5t-39.5 20.5t-60 7.5q-32 0 -60.5 -5t-50 -16.5t-34 -31t-12.5 -49.5q0 -36 22 -62t78 -26h107l-8 -48h-103q-29 0 -56 -4.5t-48.5 -16.5t-34.5 -34t-13 -56q0 -47 36.5 -73.5t114.5 -26.5q41 0 68.5 7.5t45.5 21t28.5 33.5t17.5 44h55zM351 734h76l-118 -144h-57z
" />
    <glyph glyph-name="etatonos" unicode="&#x3ae;" horiz-adv-x="560" 
d="M350 -194l111 513q3 14 5 28t2 28q0 47 -21.5 75.5t-75.5 28.5q-29 0 -63.5 -12t-66.5 -37q-32 -26 -55.5 -53.5t-33.5 -74.5l-64 -302h-58l109 515h58l-18 -84q50 54 102 77t99 23q72 0 109.5 -39t37.5 -108q0 -26 -6 -54l-113 -524h-58zM411 734h76l-118 -144h-57z" />
    <glyph glyph-name="iotatonos" unicode="&#x3af;" horiz-adv-x="252" 
d="M140 515h58l-82 -386q-2 -11 -4 -22.5t-2 -22.5q0 -19 10 -32.5t39 -13.5q11 0 24.5 1t27.5 6l8 -46q-13 -5 -30 -8t-45 -3q-52 0 -73 23.5t-21 57.5q0 23 6 49.5t12 55.5zM233 734h76l-118 -144h-57z" />
    <glyph glyph-name="upsilondieresistonos" unicode="&#x3b0;" horiz-adv-x="548" 
d="M135 515h58l-63 -298q-5 -21 -8 -43.5t-3 -38.5q0 -50 32 -75.5t88 -25.5q43 0 73 11t51 33.5t35 57t24 81.5l63 298h58l-63 -298q-14 -63 -33.5 -107.5t-48 -72.5t-67 -40.5t-88.5 -12.5q-39 0 -72 8.5t-57.5 26.5t-38 45t-13.5 65q0 19 2.5 41t7.5 47zM374 736h74
l-98 -146h-55zM212 623l16 77h61l-16 -77h-61zM442 623l16 77h61l-16 -77h-61z" />
    <glyph glyph-name="alpha" unicode="&#x3b1;" horiz-adv-x="663" 
d="M524 240l13 -111q7 -55 17 -74t33 -19q8 0 15.5 1t14.5 3l5 -46q-8 -2 -17 -4q-8 -2 -17 -3t-18 -1q-35 0 -54 23t-26 74l-13 95q-27 -43 -54 -79t-56.5 -61.5t-63.5 -39.5t-76 -14q-41 0 -72.5 14.5t-53 40.5t-32.5 62t-11 79q0 67 18 130.5t52.5 112.5t85 78.5
t116.5 29.5q82 0 128 -55.5t54 -158.5l100 198h59zM237 34q33 0 62.5 15t57.5 43.5t55.5 68.5t56.5 90q-4 58 -12 101.5t-24.5 72t-42.5 42.5t-65 14q-53 0 -92 -27.5t-64.5 -70.5t-38 -95.5t-12.5 -103.5q0 -73 31 -111.5t88 -38.5z" />
    <glyph glyph-name="beta" unicode="&#x3b2;" horiz-adv-x="569" 
d="M530 222q0 -51 -16 -93.5t-46 -73.5t-74 -48.5t-101 -17.5q-58 0 -107.5 25t-77.5 74l-60 -282h-58l151 709q23 106 81 156.5t161 50.5q34 0 65 -10t54.5 -29.5t37.5 -48t14 -64.5q0 -71 -40.5 -115.5t-102.5 -66.5q27 -8 49 -24.5t37.5 -38.5t24 -48.5t8.5 -54.5z
M469 221q0 63 -38 99.5t-109 36.5h-57l11 50h41q31 0 62.5 9.5t57 29t41.5 50t16 71.5q0 50 -33 77.5t-87 27.5q-41 0 -70.5 -11t-50 -31t-33.5 -49t-21 -65l-65 -301q-2 -10 -3 -20.5t-1 -20.5q0 -54 43 -93q17 -16 47.5 -29t75.5 -13q89 0 131 47t42 135z" />
    <glyph glyph-name="gamma" unicode="&#x3b3;" horiz-adv-x="497" 
d="M133 -193l43 204l-110 504h65l86 -439l267 439h69l-319 -504l-43 -204h-58z" />
    <glyph glyph-name="delta" unicode="&#x3b4;" horiz-adv-x="571" 
d="M269 -16q-45 0 -84 15t-67 42t-44 64.5t-16 81.5q0 60 19.5 108t52 84.5t74.5 61t87 35.5q-18 12 -34 24.5t-28 26.5t-19 31t-7 37q0 34 15 58.5t40.5 39.5t59 22t69.5 7q42 0 72.5 -10.5t50 -28t30.5 -41t14 -48.5l-50 -10q-9 46 -38 68.5t-83 22.5q-36 0 -60.5 -6.5
t-39 -17t-20.5 -24.5t-6 -29q0 -21 11.5 -37t31 -31t44.5 -30t52 -34t51 -40.5t42 -48.5t28.5 -60t10.5 -74q0 -55 -19.5 -102.5t-54.5 -82t-82.5 -54.5t-102.5 -20zM272 34q42 0 77.5 14t61.5 41.5t40.5 67.5t14.5 93q0 41 -12 71t-31.5 52t-43.5 39t-49 33
q-45 -9 -83.5 -30.5t-66.5 -54.5t-44 -76t-16 -94q0 -34 10.5 -62.5t30 -49.5t48 -32.5t63.5 -11.5z" />
    <glyph glyph-name="epsilon" unicode="&#x3b5;" horiz-adv-x="517" 
d="M462 140q-7 -28 -19.5 -56t-37.5 -50t-65.5 -36t-103.5 -14q-48 0 -85.5 11t-63 30.5t-38.5 46t-13 57.5q0 60 35 95t92 49q-31 11 -51 40t-20 64q0 28 10.5 55.5t35.5 49.5t67.5 35.5t105.5 13.5q45 0 78.5 -10.5t56 -28.5t34.5 -42t16 -52l-51 -10q-4 19 -12.5 36.5
t-24 30.5t-39.5 20.5t-60 7.5q-32 0 -60.5 -5t-50 -16.5t-34 -31t-12.5 -49.5q0 -36 22 -62t78 -26h107l-8 -48h-103q-29 0 -56 -4.5t-48.5 -16.5t-34.5 -34t-13 -56q0 -47 36.5 -73.5t114.5 -26.5q41 0 68.5 7.5t45.5 21t28.5 33.5t17.5 44h55z" />
    <glyph glyph-name="zeta" unicode="&#x3b6;" horiz-adv-x="461" 
d="M589 665q-43 -26 -91.5 -56t-96 -64.5t-91 -74t-76.5 -84t-53 -94t-20 -104.5t27.5 -86t88.5 -51l55 -18q21 -7 42 -15.5t38 -21t27.5 -31t10.5 -45.5q0 -44 -19 -74.5t-48 -51.5l-35 31q19 15 32.5 37t13.5 49q0 22 -16.5 39t-68.5 33l-52 16q-158 49 -158 183
q0 85 38.5 156.5t98 131.5t130.5 108t136 86h-274l10 50h361z" />
    <glyph glyph-name="eta" unicode="&#x3b7;" horiz-adv-x="560" 
d="M350 -194l111 513q3 14 5 28t2 28q0 47 -21.5 75.5t-75.5 28.5q-29 0 -63.5 -12t-66.5 -37q-32 -26 -55.5 -53.5t-33.5 -74.5l-64 -302h-58l109 515h58l-18 -84q50 54 102 77t99 23q72 0 109.5 -39t37.5 -108q0 -26 -6 -54l-113 -524h-58z" />
    <glyph glyph-name="theta" unicode="&#x3b8;" horiz-adv-x="589" 
d="M397 722q89 0 138.5 -59t49.5 -181q0 -52 -7 -109.5t-23 -113t-41.5 -105.5t-62 -88.5t-85 -61t-109.5 -22.5q-89 0 -138.5 62t-49.5 177q0 50 8 107t24.5 112.5t42.5 106.5t62.5 90t84 62t106.5 23zM262 32q52 0 93.5 21.5t72 60.5t51.5 94t33 123h-375q-4 -27 -6 -54
t-2 -53q0 -94 31.5 -143t101.5 -49zM392 672q-49 0 -89.5 -22.5t-71.5 -61.5t-52.5 -92.5t-33.5 -114.5h374q3 25 5.5 49t2.5 49q0 99 -31.5 146t-103.5 47z" />
    <glyph glyph-name="iota" unicode="&#x3b9;" horiz-adv-x="252" 
d="M140 515h58l-82 -386q-2 -11 -4 -22.5t-2 -22.5q0 -19 10 -32.5t39 -13.5q11 0 24.5 1t27.5 6l8 -46q-13 -5 -30 -8t-45 -3q-52 0 -73 23.5t-21 57.5q0 23 6 49.5t12 55.5z" />
    <glyph glyph-name="kappa" unicode="&#x3ba;" horiz-adv-x="493" 
d="M30 0l109 515h58l-56 -263l317 263h75l-221 -188l136 -327h-66l-118 294l-138 -113l-38 -181h-58z" />
    <glyph glyph-name="lambda" unicode="&#x3bb;" horiz-adv-x="498" 
d="M462 0h-64l-77 458l-281 -458h-66l331 529l-10 59q-8 48 -24 66.5t-47 18.5q-27 0 -58 -10l-8 47q42 14 78 14q44 0 71 -25t39 -91z" />
    <glyph glyph-name="uni03BC" unicode="&#x3bc;" horiz-adv-x="547" 
d="M193 515l-69 -324q-2 -12 -3.5 -25t-1.5 -27q0 -20 4 -38.5t14.5 -32.5t28.5 -23t45 -9q29 0 61 11.5t63 37.5t54 53.5t33 74.5l64 302h58l-109 -515h-58l18 84q-48 -54 -97 -77t-96 -23q-43 0 -69.5 13t-41.5 39l-49 -230h-58l151 709h58z" />
    <glyph glyph-name="nu" unicode="&#x3bd;" horiz-adv-x="496" 
d="M236 0h-68l-99 515h64l80 -452l274 452h66z" />
    <glyph glyph-name="xi" unicode="&#x3be;" horiz-adv-x="483" 
d="M314 32q19 -5 39 -13.5t36 -22t26 -32t10 -44.5q0 -44 -19 -74.5t-48 -51.5l-35 31q19 15 32.5 37t13.5 49q0 22 -16.5 39.5t-68.5 32.5l-85 24q-31 9 -58 24t-47.5 37.5t-32 52.5t-11.5 68q0 49 13.5 85t36 61t53 40t65.5 23q-82 37 -82 141q0 36 13 70.5t40 62t68.5 44
t98.5 16.5q48 0 82.5 -11.5t57.5 -31t35.5 -45t16.5 -54.5l-52 -11q-5 22 -13 41t-24 32.5t-41 21.5t-64 8q-26 0 -54 -6.5t-51 -22t-38 -42.5t-15 -68q0 -59 28.5 -93.5t88.5 -34.5h106l-10 -48h-98q-45 0 -82 -9.5t-63.5 -30t-41 -52.5t-14.5 -78q0 -32 8 -55t23.5 -39.5
t38 -27.5t52.5 -20z" />
    <glyph glyph-name="omicron" unicode="&#x3bf;" horiz-adv-x="589" 
d="M267 34q52 0 94 21.5t72 59t46 88.5t16 109q0 75 -36.5 122t-109.5 47q-52 0 -94 -21.5t-72 -59t-46 -88.5t-16 -109q0 -75 36.5 -122t109.5 -47zM262 -16q-45 0 -82 15.5t-64 43.5t-42 67.5t-15 87.5q0 77 23.5 138.5t63.5 105t93.5 66.5t114.5 23q45 0 82 -15.5
t64 -43.5t42 -67.5t15 -87.5q0 -77 -22.5 -138.5t-62 -105t-93.5 -66.5t-117 -23z" />
    <glyph glyph-name="pi" unicode="&#x3c0;" horiz-adv-x="580" 
d="M440 465h-212l-98 -465h-58l98 465h-108l11 50h535l-11 -50h-99l-69 -326q-4 -17 -6.5 -33.5t-2.5 -24.5q0 -16 6 -29.5t30 -13.5q20 0 41 6l9 -45q-11 -5 -29.5 -8t-35.5 -3q-42 0 -60.5 21.5t-18.5 61.5q0 6 0.5 13t2.5 19.5t6 31.5t10 49z" />
    <glyph glyph-name="rho" unicode="&#x3c1;" horiz-adv-x="583" 
d="M87 269q30 139 95.5 200.5t162.5 61.5q45 0 83 -15.5t65.5 -43.5t42.5 -67t15 -86q0 -70 -18.5 -131t-54 -106.5t-88 -71.5t-120.5 -26q-54 0 -97 23.5t-69 67.5l-58 -269h-58zM272 34q52 0 92.5 21t68 58.5t42 89t14.5 112.5q0 34 -9 64.5t-27 53t-45.5 35.5t-65.5 13
q-50 0 -84 -18t-56.5 -48.5t-36.5 -70.5t-23 -83l-9 -44q-4 -17 -5.5 -31t-1.5 -22q0 -29 11.5 -51t29.5 -39q17 -16 42.5 -28t62.5 -12z" />
    <glyph glyph-name="sigma1" unicode="&#x3c2;" horiz-adv-x="523" 
d="M201 7q-26 7 -51 21.5t-45 37.5t-32.5 56t-12.5 77q0 79 22.5 140.5t60 104t87 65t104.5 22.5q47 0 81.5 -14t57.5 -38t35 -55t15 -64l-55 -11q-3 24 -10.5 47.5t-23 42t-40 30.5t-61.5 12q-48 0 -87 -20.5t-66.5 -56.5t-42.5 -86.5t-15 -110.5q0 -36 8 -62t22 -43.5
t34.5 -28.5t45.5 -18l80 -23q19 -5 39 -13.5t36 -22t26 -32t10 -44.5q0 -44 -19 -74.5t-48 -51.5l-35 31q19 15 32.5 37t13.5 49q0 22 -16.5 39.5t-68.5 32.5z" />
    <glyph glyph-name="sigma" unicode="&#x3c3;" horiz-adv-x="590" 
d="M598 465h-131q29 -31 47.5 -76.5t18.5 -97.5q0 -71 -20.5 -128t-57 -96.5t-86.5 -61t-109 -21.5q-43 0 -79.5 15t-63.5 43t-42.5 67.5t-15.5 88.5q0 83 27.5 143t71.5 98.5t99 57t110 18.5h242zM265 34q49 0 87.5 19t65 52.5t40.5 79.5t14 100q0 46 -13.5 94.5
t-48.5 86.5h-31q-55 0 -102.5 -16t-82 -48.5t-54 -82t-19.5 -116.5q0 -77 37.5 -123t106.5 -46z" />
    <glyph glyph-name="tau" unicode="&#x3c4;" horiz-adv-x="482" 
d="M288 465l-70 -326q-2 -8 -3 -16t-1 -15q0 -39 21 -55.5t64 -16.5q26 0 48 5.5t39 10.5l12 -47q-17 -8 -45 -13.5t-61 -5.5q-72 0 -104 29.5t-32 82.5q0 21 6 48t11 53l57 266h-171l10 50h438l-10 -50h-209z" />
    <glyph glyph-name="upsilon" unicode="&#x3c5;" horiz-adv-x="548" 
d="M135 515h58l-63 -298q-5 -21 -8 -43.5t-3 -38.5q0 -50 32 -75.5t88 -25.5q43 0 73 11t51 33.5t35 57t24 81.5l63 298h58l-63 -298q-14 -63 -33.5 -107.5t-48 -72.5t-67 -40.5t-88.5 -12.5q-39 0 -72 8.5t-57.5 26.5t-38 45t-13.5 65q0 19 2.5 41t7.5 47z" />
    <glyph glyph-name="phi" unicode="&#x3c6;" horiz-adv-x="738" 
d="M260 -194l38 181q-53 3 -97 21t-75.5 49t-49.5 73t-18 94q0 71 27 128.5t76.5 98t119 61.5t153.5 19q64 -2 114.5 -21.5t84.5 -53t52 -77.5t18 -94q0 -69 -26 -124t-72.5 -93.5t-110.5 -60t-140 -22.5l-38 -179h-56zM120 227q0 -42 14 -77t38.5 -60.5t59 -40t76.5 -15.5
l94 448q-71 -2 -123.5 -20.5t-88 -52t-53 -80t-17.5 -102.5zM641 281q0 40 -13 75.5t-36.5 62.5t-57.5 43.5t-76 18.5l-94 -449q131 6 204 72.5t73 176.5z" />
    <glyph glyph-name="chi" unicode="&#x3c7;" horiz-adv-x="493" 
d="M344 -65q14 -51 27 -70.5t36 -19.5q20 0 41 8l10 -45q-10 -5 -26.5 -9t-33.5 -4q-26 0 -42.5 8t-28.5 24t-20.5 40.5t-17.5 56.5l-56 206l-243 -324h-64l285 381l-61 220q-11 38 -24 55.5t-36 17.5q-16 0 -38 -8l-10 45q16 7 30 10t33 3q45 0 66 -31.5t36 -89.5l46 -179
l213 285h66l-257 -344z" />
    <glyph glyph-name="psi" unicode="&#x3c8;" horiz-adv-x="766" 
d="M324 -194h-56l38 182q-48 4 -90 18t-73.5 39t-49.5 63t-18 91q0 22 2.5 46.5t8.5 51.5l46 218h58l-46 -218q-11 -50 -11 -86q0 -46 13 -77t37 -51.5t58 -31t75 -14.5l102 478h56l-102 -480q55 4 101 20t82 47.5t62 81.5t41 122l44 209h58l-44 -209q-17 -81 -46 -139
t-72 -96.5t-101.5 -59t-134.5 -25.5z" />
    <glyph glyph-name="omega" unicode="&#x3c9;" horiz-adv-x="792" 
d="M377 98q-11 -21 -26 -41.5t-36.5 -36.5t-50 -26t-65.5 -10q-32 0 -59 10t-47 30.5t-31.5 52t-11.5 74.5q0 53 12.5 103.5t34.5 97.5t51.5 89.5t63.5 80.5l45 -25q-69 -83 -109.5 -167t-40.5 -177q0 -119 100 -119q38 0 65 15t46 39t30.5 55t19.5 63l32 148h56l-29 -135
q-5 -20 -6 -41t-1 -38q0 -47 27.5 -76.5t72.5 -29.5q53 0 87.5 30t55 75t28.5 96t8 93q0 57 -12 99t-26 70l47 25q15 -28 31 -79.5t16 -117.5q0 -55 -12 -115t-40 -110.5t-72.5 -83t-108.5 -32.5q-36 0 -61.5 10t-43 26t-27 36.5t-13.5 41.5z" />
    <glyph glyph-name="iotadieresis" unicode="&#x3ca;" horiz-adv-x="252" 
d="M114 619l18 85h65l-18 -85h-65zM274 619l18 85h66l-18 -85h-66zM140 515h58l-82 -386q-2 -11 -4 -22.5t-2 -22.5q0 -19 10 -32.5t39 -13.5q11 0 24.5 1t27.5 6l8 -46q-13 -5 -30 -8t-45 -3q-52 0 -73 23.5t-21 57.5q0 23 6 49.5t12 55.5z" />
    <glyph glyph-name="upsilondieresis" unicode="&#x3cb;" horiz-adv-x="548" 
d="M135 515h58l-63 -298q-5 -21 -8 -43.5t-3 -38.5q0 -50 32 -75.5t88 -25.5q43 0 73 11t51 33.5t35 57t24 81.5l63 298h58l-63 -298q-14 -63 -33.5 -107.5t-48 -72.5t-67 -40.5t-88.5 -12.5q-39 0 -72 8.5t-57.5 26.5t-38 45t-13.5 65q0 19 2.5 41t7.5 47zM247 619l18 85
h65l-18 -85h-65zM407 619l18 85h66l-18 -85h-66z" />
    <glyph glyph-name="omicrontonos" unicode="&#x3cc;" horiz-adv-x="589" 
d="M267 34q52 0 94 21.5t72 59t46 88.5t16 109q0 75 -36.5 122t-109.5 47q-52 0 -94 -21.5t-72 -59t-46 -88.5t-16 -109q0 -75 36.5 -122t109.5 -47zM262 -16q-45 0 -82 15.5t-64 43.5t-42 67.5t-15 87.5q0 77 23.5 138.5t63.5 105t93.5 66.5t114.5 23q45 0 82 -15.5
t64 -43.5t42 -67.5t15 -87.5q0 -77 -22.5 -138.5t-62 -105t-93.5 -66.5t-117 -23zM416 734h76l-118 -144h-57z" />
    <glyph glyph-name="upsilontonos" unicode="&#x3cd;" horiz-adv-x="548" 
d="M135 515h58l-63 -298q-5 -21 -8 -43.5t-3 -38.5q0 -50 32 -75.5t88 -25.5q43 0 73 11t51 33.5t35 57t24 81.5l63 298h58l-63 -298q-14 -63 -33.5 -107.5t-48 -72.5t-67 -40.5t-88.5 -12.5q-39 0 -72 8.5t-57.5 26.5t-38 45t-13.5 65q0 19 2.5 41t7.5 47zM402 734h76
l-118 -144h-57z" />
    <glyph glyph-name="omegatonos" unicode="&#x3ce;" horiz-adv-x="792" 
d="M377 98q-11 -21 -26 -41.5t-36.5 -36.5t-50 -26t-65.5 -10q-32 0 -59 10t-47 30.5t-31.5 52t-11.5 74.5q0 53 12.5 103.5t34.5 97.5t51.5 89.5t63.5 80.5l45 -25q-69 -83 -109.5 -167t-40.5 -177q0 -119 100 -119q38 0 65 15t46 39t30.5 55t19.5 63l32 148h56l-29 -135
q-5 -20 -6 -41t-1 -38q0 -47 27.5 -76.5t72.5 -29.5q53 0 87.5 30t55 75t28.5 96t8 93q0 57 -12 99t-26 70l47 25q15 -28 31 -79.5t16 -117.5q0 -55 -12 -115t-40 -110.5t-72.5 -83t-108.5 -32.5q-36 0 -61.5 10t-43 26t-27 36.5t-13.5 41.5zM513 734h76l-118 -144h-57z" />
    <glyph glyph-name="uni0400" unicode="&#x400;" horiz-adv-x="588" 
d="M243 659l-56 -262h368l-12 -57h-368l-61 -284h409l-24 -56h-457l151 714h449l-11 -55h-388zM439 774l-104 129h75l88 -129h-59z" />
    <glyph glyph-name="afii10023" unicode="&#x401;" horiz-adv-x="588" 
d="M243 659l-56 -262h368l-12 -57h-368l-61 -284h409l-24 -56h-457l151 714h449l-11 -55h-388zM311 795l19 87h67l-19 -87h-67zM475 795l19 87h68l-19 -87h-68z" />
    <glyph glyph-name="afii10051" unicode="&#x402;" horiz-adv-x="758" 
d="M373 660l-58 -253q45 15 94.5 23.5t94.5 8.5t85.5 -10.5t71 -32.5t48.5 -57t18 -84q0 -132 -87 -193.5t-246 -61.5h-45l11 54h56q55 1 100.5 10.5t78.5 32t51.5 59.5t18.5 92q0 39 -13 65.5t-36 42.5t-56 23t-73 7q-42 0 -92 -8t-92 -24l-80 -354h-61l149 660h-200l11 54
h514l-11 -54h-252z" />
    <glyph glyph-name="afii10052" unicode="&#x403;" horiz-adv-x="518" 
d="M242 659l-139 -659h-61l151 714h424l-12 -55h-363zM328 774l133 129h81l-150 -129h-64z" />
    <glyph glyph-name="afii10053" unicode="&#x404;" horiz-adv-x="716" 
d="M502 340h-358q-3 -30 -3 -59q0 -51 14.5 -95.5t42.5 -78t69 -52.5t94 -19q52 0 90.5 11t66 32.5t46.5 53.5t31 74h60q-14 -54 -37.5 -95.5t-59.5 -70.5t-85.5 -44t-115.5 -15q-59 0 -110 20t-88.5 57.5t-58.5 92t-21 123.5q0 91 25.5 174t74.5 146t119 100t160 37
q106 0 167.5 -54t75.5 -154l-59 -12q-13 85 -57.5 126t-131.5 41q-59 0 -108 -21.5t-87.5 -59.5t-65 -90.5t-38.5 -114.5h359z" />
    <glyph glyph-name="afii10054" unicode="&#x405;" horiz-adv-x="642" 
d="M574 206q0 -55 -20.5 -96.5t-56 -70t-83.5 -43t-104 -14.5q-47 0 -93.5 8t-84 30.5t-62 62.5t-26.5 104h60q4 -40 18 -68.5t39 -47t62.5 -27t90.5 -8.5q52 0 89 13t60 36t34 54t11 68q0 18 -4 36.5t-15.5 34.5t-32.5 28.5t-54 19.5l-103 22q-77 17 -122 58t-45 116
q0 52 18 91.5t52 66t82 39.5t107 13q61 0 105 -15.5t73 -41t44.5 -59t20.5 -69.5l-57 -12q-11 70 -54 107t-137 37q-56 0 -93.5 -12t-59.5 -32.5t-31 -47t-9 -55.5q0 -24 5.5 -43.5t19 -35.5t37 -27.5t59.5 -19.5l99 -21q45 -9 76 -26t49.5 -40.5t27 -52t8.5 -60.5z" />
    <glyph glyph-name="afii10055" unicode="&#x406;" horiz-adv-x="225" 
d="M42 0l151 714h61l-151 -714h-61z" />
    <glyph glyph-name="afii10056" unicode="&#x407;" horiz-adv-x="225" 
d="M42 0l151 714h61l-151 -714h-61zM115 795l19 87h67l-19 -87h-67zM279 795l19 87h68l-19 -87h-68z" />
    <glyph glyph-name="afii10057" unicode="&#x408;" horiz-adv-x="576" 
d="M506 224q-26 -125 -91 -183.5t-177 -58.5q-47 0 -85.5 11.5t-66 35.5t-43 59.5t-15.5 83.5v12t1 13h58v-13q0 -31 6.5 -58t24 -47t47 -31.5t75.5 -11.5q95 0 141.5 52t66.5 148l101 478h61z" />
    <glyph glyph-name="afii10058" unicode="&#x409;" horiz-adv-x="1081" 
d="M644 382l-69 -329h159q119 0 174 44t55 148q0 72 -44.5 104.5t-126.5 32.5h-148zM715 714l-59 -279h118q58 0 104.5 -9t79 -31t50 -59t17.5 -92q0 -117 -71.5 -180.5t-228.5 -63.5h-222l139 660h-235l-92 -294q-36 -114 -72.5 -186t-75.5 -113t-82 -56.5t-91 -15.5h-13
l11 56h13q34 0 66 14t64 53t64 108.5t67 179.5l96 308h353z" />
    <glyph glyph-name="afii10059" unicode="&#x40a;" horiz-adv-x="1045" 
d="M677 714l-64 -305h125q58 0 104.5 -10.5t79.5 -31.5t50.5 -53.5t17.5 -77.5q0 -56 -17 -99.5t-53 -74t-92 -46.5t-134 -16h-229l74 354h-354l-74 -354h-61l151 714h61l-65 -305h354l65 305h61zM601 356l-64 -303h166q119 0 172 43t53 141q0 54 -42 86.5t-124 32.5h-161z
" />
    <glyph glyph-name="afii10060" unicode="&#x40b;" horiz-adv-x="736" 
d="M354 661l-58 -274q45 16 87.5 24t88.5 8q84 0 136.5 -39.5t52.5 -120.5q0 -14 -2 -32t-5 -33l-40 -194h-60l36 174q4 19 6.5 41t2.5 38q0 59 -34.5 87t-117.5 28q-38 0 -79 -8t-83 -24l-71 -336h-61l140 661h-182l11 53h500l-11 -53h-257z" />
    <glyph glyph-name="afii10061" unicode="&#x40c;" horiz-adv-x="618" 
d="M230 400q60 0 103 30.5t84 89.5l62 90q21 30 40 50t39.5 32t42 17t46.5 5q8 0 16 -1t15 -2q7 -2 14 -3l-17 -52l-10 2t-10.5 1.5t-13.5 0.5q-16 0 -29 -2.5t-26 -10.5t-27 -23t-32 -41l-65 -94q-28 -41 -55.5 -68t-71.5 -44q23 -8 41 -27.5t37 -60.5l132 -289h-65
l-108 245q-12 28 -25 47t-28 30t-34.5 16t-45.5 5h-63l-73 -343h-61l151 714h61l-67 -314h43zM368 774l133 129h81l-150 -129h-64z" />
    <glyph glyph-name="uni040D" unicode="&#x40d;" horiz-adv-x="676" 
d="M494 0l131 612l-522 -612h-61l152 714h60l-132 -609l521 609h62l-152 -714h-59zM440 774l-104 129h75l88 -129h-59z" />
    <glyph glyph-name="afii10062" unicode="&#x40e;" horiz-adv-x="559" 
d="M36 53q20 -9 36.5 -13.5t39.5 -4.5q33 0 56.5 16.5t50.5 58.5l53 81l-146 523h65l120 -465l289 465h68l-353 -559q-31 -49 -55 -82t-47 -53.5t-47 -29t-55 -8.5q-48 0 -95 22zM407 788q-64 0 -96 27.5t-32 75.5q0 11 3 28h47q-2 -9 -2 -13v-9q0 -14 4 -26t13.5 -21
t25.5 -14t41 -5q42 0 71.5 21t43.5 67h48q-16 -66 -58.5 -98.5t-108.5 -32.5z" />
    <glyph glyph-name="afii10145" unicode="&#x40f;" horiz-adv-x="672" 
d="M501 55l139 659h61l-151 -714h-217l-35 -173h-58l35 173h-233l151 714h61l-139 -659h386z" />
    <glyph glyph-name="afii10017" unicode="&#x410;" horiz-adv-x="661" 
d="M406 714h72l131 -714h-63l-40 218h-336l-131 -218h-67zM204 274h292l-68 373z" />
    <glyph glyph-name="afii10018" unicode="&#x411;" horiz-adv-x="621" 
d="M242 658l-49 -233h143q58 0 104.5 -9t79.5 -30t50.5 -56t17.5 -86q0 -117 -71 -180.5t-228 -63.5h-247l151 714h417l-12 -56h-356zM181 372l-67 -319h184q119 0 173.5 44t54.5 148q0 60 -40.5 93.5t-122.5 33.5h-182z" />
    <glyph glyph-name="afii10019" unicode="&#x412;" horiz-adv-x="624" 
d="M631 559q0 -140 -154 -186q52 -20 80.5 -61.5t28.5 -91.5t-17 -91t-53.5 -69.5t-93 -44t-135.5 -15.5h-245l151 714h231q63 0 103.5 -15t63.5 -38t31.5 -50.5t8.5 -51.5zM362 401q39 0 76.5 7t66.5 24.5t46.5 47.5t17.5 76q0 23 -7.5 42t-25.5 33t-47.5 22t-73.5 8h-173
l-55 -260h175zM113 54h183q62 0 105 10t69.5 31t38.5 52.5t12 73.5q0 26 -9.5 49t-29 40t-49.5 26.5t-72 9.5h-186z" />
    <glyph glyph-name="afii10020" unicode="&#x413;" horiz-adv-x="518" 
d="M242 659l-139 -659h-61l151 714h424l-12 -55h-363z" />
    <glyph glyph-name="afii10021" unicode="&#x414;" horiz-adv-x="690" 
d="M21 0l-40 -173h-58l52 228h53q39 30 72.5 72.5t64.5 103.5t62 144t66 196l44 143h378l-141 -659h63l-49 -228h-58l37 173h-546zM381 660l-37 -119q-31 -101 -59 -177.5t-56 -135t-58 -100.5t-64 -73h406l130 605h-262z" />
    <glyph glyph-name="afii10022" unicode="&#x415;" horiz-adv-x="588" 
d="M243 659l-56 -262h368l-12 -57h-368l-61 -284h409l-24 -56h-457l151 714h449l-11 -55h-388z" />
    <glyph glyph-name="afii10024" unicode="&#x416;" horiz-adv-x="972" 
d="M563 400h36q53 0 97 30t84 90l60 90q40 61 79 82.5t89 21.5q8 0 16 -1t15 -2q7 -2 14 -3l-17 -52l-10 2t-10.5 1.5t-13.5 0.5q-16 0 -29 -2.5t-26.5 -10.5t-27.5 -23t-31 -41l-63 -94q-28 -41 -55.5 -68t-71.5 -44q23 -8 41 -27.5t37 -60.5l130 -289h-68l-106 245
q-12 28 -23.5 47t-26 30t-32.5 16t-44 5h-54l-73 -343h-61l72 343h-62q-25 0 -43.5 -4t-36 -15t-35.5 -30t-43 -49l-204 -245h-76l241 288q35 43 61.5 63t60.5 28q-29 14 -45 41t-27 68l-25 103q-11 42 -27 57t-45 15q-13 0 -23.5 -1t-25.5 -3l6 49q7 1 15 3q7 1 15.5 2
t16.5 1q25 0 44 -4.5t32.5 -15t23 -29.5t16.5 -47l25 -98q16 -62 44.5 -91t84.5 -29h45l66 314h61z" />
    <glyph glyph-name="afii10025" unicode="&#x417;" horiz-adv-x="601" 
d="M348 400q43 0 78.5 9t60.5 28.5t38.5 50.5t13.5 75q0 52 -36.5 83.5t-102.5 31.5q-45 0 -78 -7t-57 -22t-41 -39t-30 -58l-56 10q12 36 32 67t50.5 54t74.5 36t105 13q48 0 85 -13t62.5 -35.5t38.5 -53t13 -64.5q0 -44 -11.5 -76.5t-31.5 -56t-47 -39t-57 -24.5
q52 -26 71 -66.5t19 -80.5q0 -120 -70 -181t-191 -61q-111 0 -169.5 49t-60.5 145h58q7 -81 51 -110.5t126 -29.5q42 0 77.5 9t61.5 30.5t41 56.5t15 87q0 64 -38 95.5t-102 31.5h-95l12 55h90z" />
    <glyph glyph-name="afii10026" unicode="&#x418;" horiz-adv-x="676" 
d="M494 0l131 612l-522 -612h-61l152 714h60l-132 -609l521 609h62l-152 -714h-59z" />
    <glyph glyph-name="afii10027" unicode="&#x419;" horiz-adv-x="676" 
d="M494 0l131 612l-522 -612h-61l152 714h60l-132 -609l521 609h62l-152 -714h-59zM469 788q-64 0 -96 27.5t-32 75.5q0 11 3 28h47q-2 -9 -2 -13v-9q0 -14 4 -26t13.5 -21t25.5 -14t41 -5q42 0 71.5 21t43.5 67h48q-16 -66 -58.5 -98.5t-108.5 -32.5z" />
    <glyph glyph-name="afii10028" unicode="&#x41a;" horiz-adv-x="618" 
d="M230 400q60 0 103 30.5t84 89.5l62 90q21 30 40 50t39.5 32t42 17t46.5 5q8 0 16 -1t15 -2q7 -2 14 -3l-17 -52l-10 2t-10.5 1.5t-13.5 0.5q-16 0 -29 -2.5t-26 -10.5t-27 -23t-32 -41l-65 -94q-28 -41 -55.5 -68t-71.5 -44q23 -8 41 -27.5t37 -60.5l132 -289h-65
l-108 245q-12 28 -25 47t-28 30t-34.5 16t-45.5 5h-63l-73 -343h-61l151 714h61l-67 -314h43z" />
    <glyph glyph-name="afii10029" unicode="&#x41b;" horiz-adv-x="711" 
d="M668 660h-261l-92 -294q-36 -114 -72.5 -186t-75.5 -113t-82 -56.5t-91 -15.5h-13l11 56h13q34 0 66 14t64 53t64 108.5t67 179.5l96 308h378l-151 -714h-61z" />
    <glyph glyph-name="afii10030" unicode="&#x41c;" horiz-adv-x="838" 
d="M349 0l-121 608l-129 -608h-57l151 714h76l123 -643l397 643h78l-151 -714h-57l130 611l-382 -611h-58z" />
    <glyph glyph-name="afii10031" unicode="&#x41d;" horiz-adv-x="689" 
d="M506 0l72 341h-403l-72 -341h-61l151 714h61l-67 -316h403l67 316h61l-151 -714h-61z" />
    <glyph glyph-name="afii10032" unicode="&#x41e;" horiz-adv-x="756" 
d="M466 732q59 0 110.5 -20t89.5 -58t59.5 -92.5t21.5 -124.5q0 -83 -25.5 -164t-75 -146t-121 -105t-164.5 -40q-59 0 -110.5 20t-89.5 57.5t-59.5 92t-21.5 124.5q0 82 26.5 164t76 146.5t121 105t162.5 40.5zM363 36q75 0 134.5 34.5t100.5 91t62.5 128t21.5 145.5
q0 53 -14 97.5t-42 77t-68.5 50.5t-93.5 18q-75 0 -134.5 -35t-100.5 -91t-62.5 -128t-21.5 -145q0 -53 14 -98t42 -77t68.5 -50t93.5 -18z" />
    <glyph glyph-name="afii10033" unicode="&#x41f;" horiz-adv-x="678" 
d="M250 659l-139 -659h-61l151 714h514l-151 -714h-61l139 659h-392z" />
    <glyph glyph-name="afii10034" unicode="&#x420;" horiz-adv-x="619" 
d="M643 540q0 -66 -22.5 -113.5t-63 -78t-97.5 -45t-126 -14.5h-171l-61 -289h-60l151 714h227q64 0 106.5 -16t68.5 -41t37 -56t11 -61zM343 342q53 0 97 9.5t75 32.5t48 61t17 96q0 26 -9 48t-29 38t-52.5 25t-79.5 9h-168l-68 -319h169z" />
    <glyph glyph-name="afii10035" unicode="&#x421;" horiz-adv-x="709" 
d="M667 219q-12 -50 -37 -93.5t-63.5 -75.5t-90.5 -50t-119 -18q-59 0 -110 20t-88.5 57.5t-58.5 92t-21 123.5q0 91 25.5 174t74.5 146t119 100t160 37q112 0 175.5 -60.5t74.5 -170.5l-61 -12q-13 97 -58 143.5t-136 46.5q-71 0 -128 -31.5t-97 -85.5t-61.5 -126.5
t-21.5 -154.5q0 -51 14 -95.5t41 -78t67.5 -52.5t93.5 -19q52 0 92 13.5t69.5 38t49 58t28.5 73.5h67z" />
    <glyph glyph-name="afii10036" unicode="&#x422;" horiz-adv-x="590" 
d="M425 658l-139 -658h-61l139 658h-248l12 56h556l-12 -56h-247z" />
    <glyph glyph-name="afii10037" unicode="&#x423;" horiz-adv-x="559" 
d="M36 53q20 -9 36.5 -13.5t39.5 -4.5q33 0 56.5 16.5t50.5 58.5l53 81l-146 523h65l120 -465l289 465h68l-353 -559q-31 -49 -55 -82t-47 -53.5t-47 -29t-55 -8.5q-48 0 -95 22z" />
    <glyph glyph-name="afii10038" unicode="&#x424;" horiz-adv-x="808" 
d="M335 0l19 92q-55 5 -103 21.5t-83.5 45.5t-56 70.5t-20.5 96.5q0 81 29.5 142.5t81 103.5t122 65t152.5 26l17 81h61l-18 -83q55 -5 103 -21.5t84 -45t56.5 -70t20.5 -96.5q0 -82 -29.5 -143.5t-81 -103.5t-122 -64.5t-152.5 -25.5l-19 -91h-61zM736 430q0 45 -15.5 77.5
t-43.5 55t-66.5 34.5t-84.5 16l-100 -473q68 3 125 21t98 53t64 88.5t23 127.5zM155 324q0 -45 15.5 -78t43.5 -55t66.5 -34.5t84.5 -16.5l100 473q-68 -3 -125 -21t-98 -53t-64 -88.5t-23 -126.5z" />
    <glyph glyph-name="afii10039" unicode="&#x425;" horiz-adv-x="613" 
d="M379 371l181 -371h-70l-157 329l-289 -329h-70l333 380l-162 334h68l138 -296l263 296h69z" />
    <glyph glyph-name="afii10040" unicode="&#x426;" horiz-adv-x="659" 
d="M537 0h-495l151 714h61l-139 -659h368l139 659h61l-139 -659h63l-49 -228h-58z" />
    <glyph glyph-name="afii10041" unicode="&#x427;" horiz-adv-x="617" 
d="M423 0l74 330q-42 -15 -88.5 -24t-90.5 -9q-46 0 -84 10t-65.5 30.5t-43 52.5t-15.5 76q0 14 1.5 31t5.5 34l39 183h61l-34 -161q-5 -22 -8 -41t-3 -36q0 -64 36.5 -95t123.5 -31q45 0 89.5 8.5t88.5 23.5l74 332h62l-161 -714h-62z" />
    <glyph glyph-name="afii10042" unicode="&#x428;" horiz-adv-x="933" 
d="M407 55l140 659h61l-140 -659h294l139 659h61l-151 -714h-769l151 714h61l-139 -659h292z" />
    <glyph glyph-name="afii10043" unicode="&#x429;" horiz-adv-x="937" 
d="M816 0h-774l151 714h61l-139 -659h292l140 659h61l-140 -659h294l139 659h61l-139 -659h63l-49 -228h-58z" />
    <glyph glyph-name="afii10044" unicode="&#x42a;" horiz-adv-x="692" 
d="M243 435h153q58 0 104.5 -10.5t79 -33.5t50 -59.5t17.5 -87.5q0 -117 -71.5 -180.5t-228.5 -63.5h-257l139 659h-151l12 55h212zM231 382l-69 -329h194q119 0 174 44t55 148q0 68 -44.5 102.5t-126.5 34.5h-183z" />
    <glyph glyph-name="afii10045" unicode="&#x42b;" horiz-adv-x="824" 
d="M329 435q58 0 104.5 -10.5t79 -33.5t50 -59.5t17.5 -87.5q0 -117 -71.5 -180.5t-228.5 -63.5h-238l151 714h61l-59 -279h134zM641 0l151 714h61l-151 -714h-61zM183 382l-69 -329h175q119 0 174 44t55 148q0 68 -44.5 102.5t-126.5 34.5h-164z" />
    <glyph glyph-name="afii10046" unicode="&#x42c;" horiz-adv-x="632" 
d="M296 54q119 0 174 43.5t55 147.5q0 68 -44.5 102.5t-126.5 34.5h-171l-69 -328h182zM42 0l151 714h61l-59 -279h141q58 0 104.5 -10.5t79 -33.5t50 -59.5t17.5 -87.5q0 -117 -71.5 -180.5t-228.5 -63.5h-245z" />
    <glyph glyph-name="afii10047" unicode="&#x42d;" horiz-adv-x="710" 
d="M637 393q1 10 1.5 20.5t0.5 21.5q0 54 -14.5 98.5t-41 76.5t-64.5 50t-86 18q-87 0 -150.5 -43t-98.5 -128l-58 17q42 101 120.5 154.5t185.5 53.5q58 0 107 -20t85 -57.5t56.5 -92.5t20.5 -125q0 -82 -22 -163t-68 -146t-118 -105.5t-171 -40.5q-51 0 -95 15t-77 44
t-53 71t-24 95h60q10 -76 58 -123.5t133 -47.5q70 0 122.5 24.5t89.5 66.5t60 97t33 116h-360l11 53h357z" />
    <glyph glyph-name="afii10048" unicode="&#x42e;" horiz-adv-x="969" 
d="M692 732q57 0 106 -20t85 -58t56.5 -92.5t20.5 -124.5q0 -83 -25 -164t-72.5 -146t-117 -105t-158.5 -40q-57 0 -106 20t-85 57.5t-56.5 92t-20.5 124.5q0 16 1 32t3 33h-148l-72 -341h-61l151 714h61l-67 -317h146q15 66 46.5 127t77 107t105 73.5t130.5 27.5zM589 36
q72 0 128.5 34.5t96 91t60.5 128t21 145.5q0 53 -13 97.5t-39 77t-64.5 50.5t-88.5 18q-72 0 -129 -35t-96.5 -91t-61 -128t-21.5 -145q0 -53 13.5 -98t39.5 -77t65 -50t89 -18z" />
    <glyph glyph-name="afii10049" unicode="&#x42f;" horiz-adv-x="647" 
d="M272 330q-56 18 -88.5 58.5t-32.5 104.5q0 106 71.5 163.5t228.5 57.5h225l-151 -714h-61l66 312h-141q-65 0 -106.5 -29t-81.5 -90l-130 -193h-70l148 222q22 32 49 61.5t74 46.5zM542 364l62 296h-162q-120 0 -174.5 -38t-54.5 -130q0 -56 39 -92t121 -36h169z" />
    <glyph glyph-name="afii10065" unicode="&#x430;" horiz-adv-x="526" 
d="M25 123q0 55 22 91.5t61.5 59t93.5 33t118 13.5l105 4l2 10q2 13 4 26.5t2 24.5q0 47 -26.5 75t-93.5 28q-37 0 -63 -4.5t-44 -14.5t-30.5 -27t-22.5 -42l-54 9q24 70 76.5 99t142.5 29q89 0 131.5 -40.5t42.5 -111.5q0 -14 -2 -29.5t-5 -30.5l-69 -325h-58l15 73
q-35 -35 -81 -60t-114 -25q-67 0 -110 36.5t-43 98.5zM186 40q33 0 65.5 7.5t57.5 24.5q20 13 34.5 25.5t25 26.5t18 32t12.5 42l17 80l-97 -4q-66 -3 -110.5 -12.5t-71.5 -28t-38.5 -45.5t-11.5 -64q0 -34 22 -59t77 -25z" />
    <glyph glyph-name="afii10066" unicode="&#x431;" horiz-adv-x="584" 
d="M273 -18q-50 0 -88 17.5t-64 49t-39.5 75t-13.5 94.5t8.5 103.5t27 102t47 94.5t67.5 83q23 22 51 39t62.5 31t77.5 25t97 22l67 13l-3 -54l-80 -15q-86 -17 -138.5 -38.5t-90.5 -54.5q-29 -26 -56.5 -67.5t-46.5 -101.5q34 37 83 63.5t115 26.5q49 0 84 -18t58 -46.5
t34 -65t11 -72.5q0 -69 -19.5 -125t-55.5 -96.5t-85.5 -62.5t-109.5 -22zM343 440q-46 0 -86 -18t-70 -50q-25 -26 -41 -59t-16 -72q0 -44 6.5 -82.5t23.5 -66.5t47 -44t78 -16q44 0 80 19.5t61.5 52t39.5 75.5t14 90q0 36 -7 67t-23 54.5t-42.5 36.5t-64.5 13z" />
    <glyph glyph-name="afii10067" unicode="&#x432;" horiz-adv-x="533" 
d="M517 410q0 -49 -27 -87.5t-82 -54.5q18 -6 32 -17.5t23.5 -26.5t14.5 -32t5 -33q0 -73 -50.5 -116t-165.5 -43h-237l109 521h224q46 0 76 -11t47 -27.5t24 -36t7 -36.5zM315 293q27 0 52.5 5.5t46 18t32.5 33.5t12 51q0 31 -22.5 51t-83.5 20h-165l-38 -179h166zM98 49
h171q85 0 119.5 27t34.5 81q0 36 -24.5 61.5t-84.5 25.5h-175z" />
    <glyph glyph-name="afii10068" unicode="&#x433;" horiz-adv-x="413" 
d="M140 521h333l-11 -52h-275l-99 -469h-58z" />
    <glyph glyph-name="afii10069" unicode="&#x434;" horiz-adv-x="547" 
d="M-27 51h52q32 29 66 87t67 159l73 224h308l-99 -470h59l-40 -191h-53l30 140h-423l-29 -140h-53zM201 261q-13 -39 -25.5 -69.5t-25 -55.5t-27 -45.5t-30.5 -39.5h290l88 420h-201z" />
    <glyph glyph-name="afii10070" unicode="&#x435;" horiz-adv-x="560" 
d="M118 209q0 -37 9 -69t28.5 -56t50 -38t72.5 -14q37 0 63.5 8t45 21.5t30.5 32.5t20 41h57q-12 -33 -29 -61t-43 -48t-62 -31t-86 -11q-54 0 -94.5 18t-67.5 49t-40.5 71t-13.5 85q0 80 22 141.5t60 103.5t88.5 63.5t108.5 21.5q48 0 84.5 -15.5t60.5 -42.5t36 -63.5
t12 -78.5q0 -15 -1 -36.5t-4 -38.5l-3 -16h-403q-1 -10 -1 -18v-19zM332 490q-79 0 -132.5 -50t-72.5 -144h344q2 9 2.5 22t0.5 24q0 65 -35 106.5t-107 41.5z" />
    <glyph glyph-name="afii10072" unicode="&#x436;" horiz-adv-x="731" 
d="M357 287l49 234h57l-49 -234h23q42 0 71.5 18t57.5 60l47 70q15 22 28.5 38.5t28.5 27t33 15.5t42 5q7 0 14 -1t12 -2q6 -1 11 -2l-16 -47l-10 2t-10.5 1.5t-10.5 0.5q-26 0 -41.5 -14.5t-32.5 -40.5l-48 -73q-19 -29 -39.5 -46t-48.5 -29q18 -8 30.5 -23t23.5 -38
l100 -209h-63l-91 193q-12 26 -32 37.5t-55 11.5h-34l-51 -242h-57l51 242h-31q-31 0 -55.5 -11.5t-47.5 -37.5l-173 -193h-72l188 209q21 24 39.5 38t40.5 22q-20 8 -32.5 26t-20.5 50l-20 80q-6 23 -13.5 36.5t-33.5 13.5q-6 0 -12 -0.5t-11 -1.5q-6 -1 -11 -2l4 45
q6 1 13 2q6 1 12.5 2t14.5 1q23 0 37.5 -5t23.5 -15.5t15 -26.5t11 -38l17 -71q10 -42 35 -60t64 -18h28z" />
    <glyph glyph-name="afii10073" unicode="&#x437;" horiz-adv-x="509" 
d="M320 537q30 0 61 -7t57 -22.5t42.5 -40t16.5 -59.5q0 -58 -34 -91t-82 -47q39 -19 56.5 -49.5t17.5 -62.5q0 -91 -57.5 -132.5t-160.5 -41.5q-39 0 -74.5 8.5t-62.5 27t-44 48.5t-19 73h54q8 -61 46.5 -84t97.5 -23q34 0 63 4.5t50.5 17.5t33.5 36t12 60q0 39 -26.5 67.5
t-80.5 28.5h-109l10 48h107q25 0 50.5 5t46 17t33.5 32t13 50q0 38 -29 62.5t-93 24.5q-40 0 -68 -5.5t-48 -17t-33 -28.5t-22 -39l-52 10q19 60 72.5 95t154.5 35z" />
    <glyph glyph-name="afii10074" unicode="&#x438;" horiz-adv-x="552" 
d="M377 0l93 435l-376 -435h-64l111 521h58l-93 -433l373 433h67l-111 -521h-58z" />
    <glyph glyph-name="afii10075" unicode="&#x439;" horiz-adv-x="552" 
d="M377 0l93 435l-376 -435h-64l111 521h58l-93 -433l373 433h67l-111 -521h-58zM358 590q-64 0 -96 27.5t-32 75.5q0 11 3 28h47q-2 -9 -2 -13v-9q0 -14 4 -26t13.5 -21t25.5 -14t41 -5q42 0 71.5 21t43.5 67h48q-16 -66 -58.5 -98.5t-108.5 -32.5z" />
    <glyph glyph-name="afii10076" unicode="&#x43a;" horiz-adv-x="479" 
d="M89 0h-58l110 521h58l-49 -234h47q40 0 65.5 18.5t53.5 59.5l52 77q14 21 26.5 36t26.5 24.5t32 14t44 4.5q12 0 23.5 -2t15.5 -4l-16 -47l-10 2t-10.5 2t-10.5 1q-29 0 -43.5 -14.5t-31.5 -40.5l-49 -73q-19 -29 -37 -45t-46 -30q20 -8 32.5 -23t23.5 -38l93 -209h-63
l-84 193q-11 26 -31.5 37.5t-58.5 11.5h-54z" />
    <glyph glyph-name="afii10077" unicode="&#x43b;" horiz-adv-x="557" 
d="M551 521l-110 -521h-58l99 471h-201l-67 -199q-26 -76 -50.5 -129t-52.5 -86t-62 -47.5t-79 -14.5h-10l10 53h8q27 0 51 10.5t46.5 39.5t45.5 79.5t49 130.5l69 213h312z" />
    <glyph glyph-name="afii10078" unicode="&#x43c;" horiz-adv-x="688" 
d="M30 0l116 521h77l89 -460l285 460h85l-114 -521h-57l99 450l-282 -450h-55l-87 445l-99 -445h-57z" />
    <glyph glyph-name="afii10079" unicode="&#x43d;" horiz-adv-x="566" 
d="M30 0l110 521h58l-47 -222h304l47 222h58l-110 -521h-58l52 248h-304l-52 -248h-58z" />
    <glyph glyph-name="afii10080" unicode="&#x43e;" horiz-adv-x="593" 
d="M264 -16q-45 0 -82.5 15.5t-64.5 44t-42.5 68.5t-15.5 89q0 78 23.5 140t64 105.5t94.5 67t115 23.5q45 0 82.5 -15.5t64.5 -44t42.5 -68.5t15.5 -89q0 -78 -23 -140.5t-62.5 -106t-94 -66.5t-117.5 -23zM269 34q52 0 94.5 21.5t72.5 59.5t46.5 89.5t16.5 110.5
q0 78 -37.5 125t-110.5 47q-52 0 -94.5 -21.5t-72.5 -59.5t-46.5 -89.5t-16.5 -110.5q0 -78 37.5 -125t110.5 -47z" />
    <glyph glyph-name="afii10081" unicode="&#x43f;" horiz-adv-x="552" 
d="M378 0l99 469h-290l-99 -469h-58l110 521h406l-110 -521h-58z" />
    <glyph glyph-name="afii10082" unicode="&#x440;" horiz-adv-x="583" 
d="M46 -194h-58l151 715h58l-16 -77q40 45 86 69t103 24q51 0 85.5 -18.5t56.5 -49t31.5 -69.5t9.5 -80q0 -60 -18 -120t-53.5 -108t-87.5 -78t-121 -30q-52 0 -97 23.5t-72 71.5zM276 34q48 0 87.5 22.5t68 61t44 89.5t15.5 108q0 87 -33.5 129.5t-94.5 42.5q-32 0 -57 -8
t-53 -27q-39 -26 -67 -65.5t-41 -100.5q-6 -27 -9.5 -45.5t-5.5 -31.5t-2.5 -21.5t-0.5 -15.5q0 -36 11 -59.5t33 -43.5q20 -17 45.5 -26t59.5 -9z" />
    <glyph glyph-name="afii10083" unicode="&#x441;" horiz-adv-x="554" 
d="M477 355q-3 24 -10 47.5t-22 42t-40 30.5t-64 12q-50 0 -90.5 -20.5t-69.5 -57.5t-44.5 -88.5t-15.5 -112.5q0 -38 8 -69.5t26 -55t46.5 -36.5t69.5 -13q38 0 66.5 10t49 27.5t34 41t22.5 49.5h59q-12 -39 -32 -71.5t-49 -56t-68 -37t-88 -13.5q-51 0 -89.5 17t-65 46.5
t-39.5 69t-13 85.5q0 80 23 142.5t62 105t90.5 65t108.5 22.5q49 0 84 -14t57.5 -38t34 -55t14.5 -64z" />
    <glyph glyph-name="afii10084" unicode="&#x442;" horiz-adv-x="450" 
d="M256 470h-187l11 51h430l-11 -51h-185l-99 -470h-58z" />
    <glyph glyph-name="afii10085" unicode="&#x443;" horiz-adv-x="500" 
d="M185 10l-114 511h63l95 -445l261 445h69l-368 -598q-17 -28 -32 -49.5t-31 -36.5t-34.5 -23t-43.5 -8q-23 0 -41.5 4t-32.5 11l19 47q9 -4 21 -7.5t27 -3.5q18 0 30 4.5t23 14.5t22 27t27 43z" />
    <glyph glyph-name="afii10086" unicode="&#x444;" horiz-adv-x="740" 
d="M260 -194l41 195q-53 4 -98 21.5t-77 46t-50 68t-18 87.5q0 71 27.5 124.5t75 89.5t111.5 55t138 22l42 199h56l-43 -202q51 -4 94.5 -21t75.5 -46.5t50 -69.5t18 -90q0 -69 -26 -121.5t-72.5 -88.5t-109.5 -55t-138 -21l-41 -193h-56zM120 227q0 -38 14 -70t39 -55.5
t60 -37t78 -14.5l88 415q-134 -3 -206.5 -64t-72.5 -174zM641 281q0 40 -13.5 73t-37.5 56.5t-58.5 37.5t-76.5 16l-88 -416q131 6 202.5 64.5t71.5 168.5z" />
    <glyph glyph-name="afii10087" unicode="&#x445;" horiz-adv-x="480" 
d="M264 315l186 206h67l-224 -250l135 -271h-62l-115 235l-209 -235h-69l251 281l-123 240h62z" />
    <glyph glyph-name="afii10088" unicode="&#x446;" horiz-adv-x="544" 
d="M140 521h58l-99 -470h280l99 470h58l-99 -470h59l-40 -191h-53l30 140h-403z" />
    <glyph glyph-name="afii10089" unicode="&#x447;" horiz-adv-x="499" 
d="M325 0l47 221q-29 -11 -64.5 -18.5t-67.5 -7.5q-36 0 -67 8.5t-53.5 25.5t-35.5 42.5t-13 60.5q0 11 1.5 22t3.5 23l30 144h58l-26 -124q-8 -35 -8 -59q0 -47 28.5 -70t98.5 -23q31 0 62.5 7t62.5 18l53 251h58l-110 -521h-58z" />
    <glyph glyph-name="afii10090" unicode="&#x448;" horiz-adv-x="783" 
d="M198 521l-99 -470h236l100 470h58l-100 -470h239l99 470h58l-110 -521h-649l110 521h58z" />
    <glyph glyph-name="afii10091" unicode="&#x449;" horiz-adv-x="789" 
d="M198 521l-99 -470h232l100 470h58l-100 -470h235l99 470h58l-99 -470h59l-40 -191h-53l30 140h-648l110 521h58z" />
    <glyph glyph-name="afii10092" unicode="&#x44a;" horiz-adv-x="557" 
d="M249 521l-43 -205h133q86 0 133 -34t47 -108q0 -85 -53.5 -129.5t-168.5 -44.5h-216l99 471h-120l10 50h179zM195 267l-46 -218h156q81 0 117 27.5t36 95.5q0 46 -26 70.5t-82 24.5h-155z" />
    <glyph glyph-name="afii10093" unicode="&#x44b;" horiz-adv-x="676" 
d="M508 0l110 521h58l-110 -521h-58zM288 316q86 0 133 -34t47 -108q0 -85 -53.5 -129.5t-168.5 -44.5h-216l110 521h58l-43 -205h133zM144 267l-46 -218h156q81 0 117 27.5t36 95.5q0 46 -26 70.5t-82 24.5h-155z" />
    <glyph glyph-name="afii10094" unicode="&#x44c;" horiz-adv-x="518" 
d="M266 49q81 0 117 27.5t36 95.5q0 46 -26 70.5t-82 24.5h-167l-46 -218h168zM30 0l110 521h58l-43 -205h145q86 0 133 -34t47 -108q0 -85 -53.5 -129.5t-168.5 -44.5h-228z" />
    <glyph glyph-name="afii10095" unicode="&#x44d;" horiz-adv-x="549" 
d="M212 290h242q4 23 4 49q0 67 -35.5 107.5t-97.5 40.5q-72 0 -111 -27t-61 -81l-54 12q28 72 84 109.5t146 36.5q45 0 80 -15t59 -41.5t36.5 -62t12.5 -76.5q0 -61 -15.5 -124.5t-49 -115.5t-87 -85t-129.5 -33q-39 0 -73 10.5t-59.5 31.5t-40.5 52t-18 72h56
q15 -116 141 -116q45 0 79 17t58.5 45.5t40.5 66t24 78.5h-242z" />
    <glyph glyph-name="afii10096" unicode="&#x44e;" horiz-adv-x="765" 
d="M450 -16q-41 0 -75.5 14t-59.5 42t-39 68t-14 93v19t1 19h-125l-50 -239h-58l110 521h58l-49 -233h121q12 58 37.5 104t61.5 78.5t80 49.5t93 17q41 0 76 -15t60.5 -43t40 -68.5t14.5 -90.5q0 -78 -22 -140.5t-60.5 -106t-90 -66.5t-110.5 -23zM455 34q48 0 88 21.5
t68.5 59.5t44 89.5t15.5 110.5q0 81 -34 126.5t-100 45.5q-48 0 -88 -21.5t-68 -59.5t-43.5 -89.5t-15.5 -110.5q0 -81 33.5 -126.5t99.5 -45.5z" />
    <glyph glyph-name="afii10097" unicode="&#x44f;" horiz-adv-x="531" 
d="M357 0l47 223h-119q-34 0 -55.5 -12t-41.5 -37l-136 -174h-68l143 185q17 23 32 34t32 17q-45 11 -71 41.5t-26 78.5q0 81 53.5 123t168.5 42h209l-110 -521h-58zM155 356q0 -37 26 -60.5t82 -23.5h151l42 200h-148q-81 0 -117 -26t-36 -90z" />
    <glyph glyph-name="uni0450" unicode="&#x450;" horiz-adv-x="560" 
d="M357 590l-105 134h74l89 -134h-58zM118 209q0 -37 9 -69t28.5 -56t50 -38t72.5 -14q37 0 63.5 8t45 21.5t30.5 32.5t20 41h57q-12 -33 -29 -61t-43 -48t-62 -31t-86 -11q-54 0 -94.5 18t-67.5 49t-40.5 71t-13.5 85q0 80 22 141.5t60 103.5t88.5 63.5t108.5 21.5
q48 0 84.5 -15.5t60.5 -42.5t36 -63.5t12 -78.5q0 -15 -1 -36.5t-4 -38.5l-3 -16h-403q-1 -10 -1 -18v-19zM332 490q-79 0 -132.5 -50t-72.5 -144h344q2 9 2.5 22t0.5 24q0 65 -35 106.5t-107 41.5z" />
    <glyph glyph-name="afii10071" unicode="&#x451;" horiz-adv-x="560" 
d="M231 619l18 85h65l-18 -85h-65zM391 619l18 85h66l-18 -85h-66zM118 209q0 -37 9 -69t28.5 -56t50 -38t72.5 -14q37 0 63.5 8t45 21.5t30.5 32.5t20 41h57q-12 -33 -29 -61t-43 -48t-62 -31t-86 -11q-54 0 -94.5 18t-67.5 49t-40.5 71t-13.5 85q0 80 22 141.5t60 103.5
t88.5 63.5t108.5 21.5q48 0 84.5 -15.5t60.5 -42.5t36 -63.5t12 -78.5q0 -15 -1 -36.5t-4 -38.5l-3 -16h-403q-1 -10 -1 -18v-19zM332 490q-79 0 -132.5 -50t-72.5 -144h344q2 9 2.5 22t0.5 24q0 65 -35 106.5t-107 41.5z" />
    <glyph glyph-name="afii10099" unicode="&#x452;" horiz-adv-x="580" 
d="M480 299q3 14 5 27.5t2 27.5q0 47 -21.5 75.5t-75.5 28.5q-29 0 -63.5 -12t-66.5 -37q-32 -26 -55.5 -53.5t-33.5 -73.5l-60 -282h-58l124 587h-92l10 44h91l18 83h58l-18 -83h192l-10 -44h-191l-37 -177q50 54 102 77t99 23q72 0 109.5 -39t37.5 -108q0 -4 -0.5 -10
t-3 -19t-7 -37t-13 -65t-21 -102t-31.5 -148q-8 -35 -18 -65.5t-27 -53t-43 -36t-65 -13.5q-34 0 -54.5 6t-34.5 12l20 48q12 -5 28 -9.5t41 -4.5q41 0 61 24.5t29 66.5z" />
    <glyph glyph-name="afii10100" unicode="&#x453;" horiz-adv-x="413" 
d="M140 521h333l-11 -52h-275l-99 -469h-58zM247 590l133 134h82l-149 -134h-66z" />
    <glyph glyph-name="afii10101" unicode="&#x454;" horiz-adv-x="549" 
d="M367 241h-248q-1 -9 -1 -17v-16q0 -38 9 -69.5t28 -55t48 -36.5t68 -13q37 0 64.5 9t48 25t34 37t22.5 45h56q-13 -36 -32.5 -66.5t-47 -52.5t-65 -34.5t-86.5 -12.5t-87.5 17t-65 46.5t-40.5 69t-14 85.5q0 80 23.5 142.5t63 105t90.5 65t106 22.5q45 0 77 -11.5
t54.5 -31t35.5 -46.5t19 -58l-54 -12q-5 22 -13 42t-23 35t-38.5 23.5t-58.5 8.5q-41 0 -76 -14t-63 -40t-47 -62t-28 -81h251z" />
    <glyph glyph-name="afii10102" unicode="&#x455;" horiz-adv-x="514" 
d="M441 141q0 -41 -17.5 -70.5t-46.5 -48.5t-66 -28.5t-77 -9.5q-36 0 -72.5 7.5t-65.5 26t-47 49t-18 76.5h56q0 -32 12.5 -53.5t33.5 -34t48.5 -17.5t58.5 -5q37 0 63.5 8.5t43.5 23t25 34t8 41.5q0 42 -18 61.5t-68 30.5l-59 13q-74 17 -107 47t-33 86q0 40 17 70t45 50
t64.5 29.5t74.5 9.5q50 0 84.5 -11t56 -30t33 -45t15.5 -55l-53 -10q-5 26 -14.5 45t-26 31.5t-40.5 18.5t-59 6q-74 0 -106.5 -30t-32.5 -70q0 -18 4 -31.5t14.5 -24t29 -19t47.5 -14.5l65 -14q60 -13 94 -44.5t34 -98.5z" />
    <glyph glyph-name="afii10103" unicode="&#x456;" horiz-adv-x="204" 
d="M33 0l110 521h58l-110 -521h-58zM157 627l18 87h66l-18 -87h-66z" />
    <glyph glyph-name="afii10104" unicode="&#x457;" horiz-adv-x="204" 
d="M33 0l110 521h58l-110 -521h-58zM65 619l18 85h65l-18 -85h-65zM225 619l18 85h66l-18 -85h-66z" />
    <glyph glyph-name="afii10105" unicode="&#x458;" horiz-adv-x="204" 
d="M87 -18q-8 -35 -18 -65.5t-27 -53t-43 -36t-65 -13.5q-34 0 -54.5 6t-34.5 12l20 48q12 -5 28 -9.5t41 -4.5q41 0 61 24.5t29 66.5l119 564h58zM157 627l18 87h66l-18 -87h-66z" />
    <glyph glyph-name="afii10106" unicode="&#x459;" horiz-adv-x="837" 
d="M214 272q-26 -76 -50.5 -129t-52.5 -86t-62 -47.5t-79 -14.5h-10l10 53h8q27 0 51 10.5t46.5 39.5t45.5 79.5t49 130.5l69 213h290l-43 -205h133q86 0 133 -34t47 -108q0 -85 -53.5 -129.5t-168.5 -44.5h-216l99 471h-179zM475 267l-46 -218h156q81 0 117 27.5t36 95.5
q0 46 -26 70.5t-82 24.5h-155z" />
    <glyph glyph-name="afii10107" unicode="&#x45a;" horiz-adv-x="837" 
d="M585 49q81 0 117 27t36 93q0 44 -26 68t-82 24h-155l-45 -212h155zM362 0l55 260h-274l-55 -260h-58l110 521h58l-45 -210h274l45 210h58l-45 -211h136q86 0 132 -35t46 -104q0 -81 -53.5 -126t-168.5 -45h-215z" />
    <glyph glyph-name="afii10108" unicode="&#x45b;" horiz-adv-x="587" 
d="M245 631h212l-11 -44h-211l-37 -177q50 54 102 77t99 23q72 0 109.5 -39t37.5 -108q0 -25 -6 -53l-66 -310h-58l64 299q3 14 5 27.5t2 27.5q0 47 -21.5 75.5t-75.5 28.5q-29 0 -63.5 -12t-66.5 -37q-32 -26 -55.5 -53.5t-33.5 -73.5l-60 -282h-58l124 587h-99l11 44h98
l17 83h58z" />
    <glyph glyph-name="afii10109" unicode="&#x45c;" horiz-adv-x="479" 
d="M89 0h-58l110 521h58l-49 -234h47q40 0 65.5 18.5t53.5 59.5l52 77q14 21 26.5 36t26.5 24.5t32 14t44 4.5q12 0 23.5 -2t15.5 -4l-16 -47l-10 2t-10.5 2t-10.5 1q-29 0 -43.5 -14.5t-31.5 -40.5l-49 -73q-19 -29 -37 -45t-46 -30q20 -8 32.5 -23t23.5 -38l93 -209h-63
l-84 193q-11 26 -31.5 37.5t-58.5 11.5h-54zM283 590l133 134h82l-149 -134h-66z" />
    <glyph glyph-name="uni045D" unicode="&#x45d;" horiz-adv-x="552" 
d="M377 0l93 435l-376 -435h-64l111 521h58l-93 -433l373 433h67l-111 -521h-58zM361 590l-105 134h74l89 -134h-58z" />
    <glyph glyph-name="afii10110" unicode="&#x45e;" horiz-adv-x="500" 
d="M185 10l-114 511h63l95 -445l261 445h69l-368 -598q-17 -28 -32 -49.5t-31 -36.5t-34.5 -23t-43.5 -8q-23 0 -41.5 4t-32.5 11l19 47q9 -4 21 -7.5t27 -3.5q18 0 30 4.5t23 14.5t22 27t27 43zM309 590q-64 0 -96 27.5t-32 75.5q0 11 3 28h47q-2 -9 -2 -13v-9q0 -14 4 -26
t13.5 -21t25.5 -14t41 -5q42 0 71.5 21t43.5 67h48q-16 -66 -58.5 -98.5t-108.5 -32.5z" />
    <glyph glyph-name="afii10193" unicode="&#x45f;" horiz-adv-x="552" 
d="M259 0l-29 -140h-53l30 140h-177l110 521h58l-99 -469h290l99 469h58l-110 -521h-177z" />
    <glyph glyph-name="uni0462" unicode="&#x462;" horiz-adv-x="719" 
d="M413 435q58 0 104.5 -10.5t79 -33.5t50 -59.5t17.5 -87.5q0 -117 -71.5 -180.5t-228.5 -63.5h-246l124 586h-168l11 51h168l22 105h60l-22 -105h247l-11 -51h-247l-32 -151h143zM258 382l-69 -329h184q119 0 174 44t55 148q0 68 -44.5 102.5t-126.5 34.5h-173z" />
    <glyph glyph-name="uni0463" unicode="&#x463;" horiz-adv-x="591" 
d="M339 49q81 0 117 27.5t36 95.5q0 46 -26 70.5t-82 24.5h-167l-46 -218h168zM103 0l97 467h-127l10 48h128l45 217h59l-45 -217h222l-10 -48h-223l-31 -151h145q86 0 133 -34t47 -108q0 -85 -53.5 -129.5t-168.5 -44.5h-228z" />
    <glyph glyph-name="uni0472" unicode="&#x472;" horiz-adv-x="756" 
d="M466 732q59 0 110.5 -20t89.5 -58t59.5 -92.5t21.5 -124.5q0 -83 -25.5 -164t-75 -146t-121 -105t-164.5 -40q-59 0 -110.5 20t-89.5 57.5t-59.5 92t-21.5 124.5q0 82 26.5 164t76 146.5t121 105t162.5 40.5zM363 36q60 0 110.5 22.5t89 61.5t65 90.5t40.5 108.5
q-40 -20 -69 -25.5t-56 -5.5q-42 0 -74.5 15.5t-62.5 33.5t-61 33.5t-70 15.5q-32 0 -64 -11t-62 -30q-2 -17 -3 -33t-1 -33q0 -53 14 -98t42 -77t68.5 -50t93.5 -18zM464 678q-60 0 -109.5 -22t-88 -60t-65.5 -88.5t-41 -107.5q29 17 62 26.5t67 9.5q41 0 73 -15.5
t62 -33.5t61.5 -33.5t71.5 -15.5q32 0 62 10.5t59 26.5q2 15 3 30t1 30q0 53 -14 97.5t-42 77t-68.5 50.5t-93.5 18z" />
    <glyph glyph-name="uni0473" unicode="&#x473;" horiz-adv-x="593" 
d="M264 -16q-45 0 -82.5 15.5t-64.5 44t-42.5 68.5t-15.5 89q0 78 23.5 140t64 105.5t94.5 67t115 23.5q45 0 82.5 -15.5t64.5 -44t42.5 -68.5t15.5 -89q0 -78 -23 -140.5t-62.5 -106t-94 -66.5t-117.5 -23zM269 34q41 0 76 13.5t63 38t48 59t31 75.5q-20 -10 -41.5 -13
t-45.5 -3q-29 0 -50.5 11t-42.5 24t-43.5 24t-52.5 11q-26 0 -47 -5t-41 -15q-2 -12 -2 -24v-24q0 -78 37.5 -125t110.5 -47zM351 487q-41 0 -76 -13.5t-62.5 -37.5t-48 -58t-31.5 -75q20 9 42.5 12.5t47.5 3.5q32 0 55 -10.5t43 -23.5t41 -23.5t50 -10.5q25 0 44.5 4
t39.5 15q3 21 3 45q0 78 -37.5 125t-110.5 47z" />
    <glyph glyph-name="uni0474" unicode="&#x474;" horiz-adv-x="739" 
d="M298 69l309 545q29 52 64 81t90 29q29 0 52 -9t39 -23l-28 -47q-13 11 -27.5 18t-35.5 7q-18 0 -31.5 -5.5t-25.5 -16.5t-23.5 -28.5t-25.5 -41.5l-335 -578h-68l-127 714h65z" />
    <glyph glyph-name="uni0475" unicode="&#x475;" horiz-adv-x="566" 
d="M425 426q28 49 59.5 77t80.5 28q26 0 46 -8.5t37 -21.5l-28 -45q-11 9 -23.5 15t-31.5 6q-23 0 -41 -13.5t-38 -46.5l-249 -417h-68l-100 521h64l81 -458z" />
    <glyph glyph-name="uni048A" unicode="&#x48a;" horiz-adv-x="674" 
d="M622 55q-8 -45 -23.5 -81t-36.5 -65.5t-45.5 -52t-49.5 -38.5l-34 43q37 25 68.5 63t44.5 76h-52l131 612l-522 -612h-61l152 714h60l-132 -609l521 609h62l-140 -659h57zM451 774q-64 0 -96 27.5t-32 75.5q0 11 3 28h47q-2 -9 -2 -13v-9q0 -14 4 -26t13.5 -21t25.5 -14
t41 -5q42 0 71.5 21t43.5 67h48q-16 -66 -58.5 -98.5t-108.5 -32.5z" />
    <glyph glyph-name="uni048B" unicode="&#x48b;" horiz-adv-x="553" 
d="M377 0l93 435l-376 -435h-64l111 521h58l-93 -433l373 433h67l-100 -470h52q-8 -39 -20 -69t-28 -52.5t-36.5 -39.5t-44.5 -32l-31 38q68 48 89 104h-50zM368 595q-64 0 -96 27.5t-32 75.5q0 11 3 28h47q-2 -9 -2 -13v-9q0 -14 4 -26t13.5 -21t25.5 -14t41 -5
q42 0 71.5 21t43.5 67h48q-16 -66 -58.5 -98.5t-108.5 -32.5z" />
    <glyph glyph-name="uni048C" unicode="&#x48c;" horiz-adv-x="630" 
d="M284 53q119 0 174 42.5t55 144.5q0 66 -44.5 99t-126.5 33h-175l-67 -319h184zM29 0l118 559h-82l11 52h82l22 103h60l-22 -103h195l-11 -52h-195l-28 -134h145q58 0 104.5 -10t79 -32.5t50 -58t17.5 -85.5q0 -115 -71.5 -177t-228.5 -62h-246z" />
    <glyph glyph-name="uni048D" unicode="&#x48d;" horiz-adv-x="558" 
d="M306 49q81 0 117 26.5t36 94.5q0 46 -26 69.5t-82 23.5h-168l-45 -214h168zM70 0l85 406h-100l10 48h100l16 77h59l-16 -77h193l-10 -48h-194l-19 -95h146q86 0 133 -32.5t47 -106.5q0 -85 -53.5 -128.5t-168.5 -43.5h-228z" />
    <glyph glyph-name="uni048E" unicode="&#x48e;" horiz-adv-x="619" 
d="M643 540q0 -94 -43 -149.5t-118 -80.5l42 -97l-48 -21l-45 105q-23 -5 -47.5 -6.5t-49.5 -1.5h-171l-61 -289h-60l151 714h227q64 0 106.5 -16t68.5 -41t37 -56t11 -61zM462 357q55 18 86.5 61t31.5 123q0 26 -9 48t-29 38t-52.5 25t-79.5 9h-168l-68 -319h169
q17 0 33.5 1t33.5 3l-47 113l48 21z" />
    <glyph glyph-name="uni048F" unicode="&#x48f;" horiz-adv-x="583" 
d="M46 -194h-58l151 715h58l-16 -77q40 45 86 69t103 24q51 0 85.5 -18.5t56.5 -49t31.5 -69.5t9.5 -80q0 -44 -10 -88.5t-29 -84.5t-48 -73.5t-66 -55.5l42 -96l-46 -21l-41 96q-19 -6 -39.5 -9.5t-42.5 -3.5q-52 0 -97 23.5t-72 71.5zM380 67q52 36 81.5 102.5t29.5 145.5
q0 87 -33.5 129.5t-94.5 42.5q-32 0 -57 -8t-53 -27q-39 -26 -67 -65.5t-41 -100.5q-6 -27 -9.5 -45.5t-5.5 -31.5t-2.5 -21.5t-0.5 -15.5q0 -36 11 -59.5t33 -43.5q20 -17 45.5 -26t59.5 -9q32 0 59 10l-52 124l46 21z" />
    <glyph glyph-name="afii10050" unicode="&#x490;" horiz-adv-x="518" 
d="M242 659l-139 -659h-61l151 714h364l22 99h59l-33 -154h-363z" />
    <glyph glyph-name="afii10098" unicode="&#x491;" horiz-adv-x="413" 
d="M438 606h53l-29 -137h-275l-99 -469h-58l110 521h280z" />
    <glyph glyph-name="uni0492" unicode="&#x492;" horiz-adv-x="538" 
d="M262 658l-56 -264h219l-11 -55h-220l-71 -339h-61l71 339h-91l11 55h92l68 320h424l-12 -56h-363z" />
    <glyph glyph-name="uni0493" unicode="&#x493;" horiz-adv-x="433" 
d="M112 292l48 229h333l-11 -52h-275l-38 -177h169l-11 -50h-168l-51 -242h-58l51 242h-71l11 50h71z" />
    <glyph glyph-name="uni0494" unicode="&#x494;" horiz-adv-x="624" 
d="M242 659l-53 -249q39 14 80.5 21.5t89.5 7.5q58 0 100 -18.5t68.5 -51t39 -77t12.5 -96.5q0 -72 -21.5 -137t-65 -114t-109.5 -78t-156 -29h-47l12 55h35q69 0 123 20.5t91 59t56.5 93.5t19.5 124q0 97 -40.5 146.5t-134.5 49.5q-38 0 -80 -7t-84 -23l-75 -356h-61
l151 714h396l-12 -55h-335z" />
    <glyph glyph-name="uni0495" unicode="&#x495;" horiz-adv-x="512" 
d="M470 469h-283l-40 -184q32 12 63.5 18.5t63.5 6.5q52 0 88 -16t58.5 -42.5t33 -61t10.5 -71.5q0 -75 -20.5 -135t-59.5 -101t-95.5 -63t-128.5 -22h-36l10 49h29q119 0 179.5 70t60.5 198q0 75 -33.5 110t-108.5 35q-32 0 -62 -6.5t-62 -18.5l-49 -235h-58l110 521h341z
" />
    <glyph glyph-name="uni0496" unicode="&#x496;" horiz-adv-x="1003" 
d="M867 0h-29l-106 245q-12 28 -23.5 47t-26 30t-32.5 16t-44 5h-54l-73 -343h-61l72 343h-62q-25 0 -43.5 -4t-36 -15t-35.5 -30t-43 -49l-204 -245h-76l241 288q35 43 61.5 63t60.5 28q-29 14 -45 41t-27 68l-25 103q-11 42 -27 57t-45 15q-13 0 -23.5 -1t-25.5 -3l6 49
q7 1 15 3q7 1 15.5 2t16.5 1q25 0 44 -4.5t32.5 -15t23 -29.5t16.5 -47l25 -98q16 -62 44.5 -91t84.5 -29h45l66 314h61l-67 -314h36q53 0 97 30t84 90l60 90q40 61 79 82.5t89 21.5q8 0 16 -1t15 -2q7 -2 14 -3l-17 -52l-10 2t-10.5 1.5t-13.5 0.5q-16 0 -29 -2.5
t-26.5 -10.5t-27.5 -23t-31 -41l-63 -94q-28 -41 -55.5 -68t-71.5 -44q23 -8 41 -27.5t37 -60.5l105 -234h56l-49 -228h-58z" />
    <glyph glyph-name="uni0497" unicode="&#x497;" horiz-adv-x="755" 
d="M357 287l49 234h57l-49 -234h23q42 0 71.5 18t57.5 60l47 70q15 22 28.5 38.5t28.5 27t33 15.5t42 5q7 0 14 -1t12 -2q6 -1 11 -2l-16 -47l-10 2t-10.5 1.5t-10.5 0.5q-26 0 -41.5 -14.5t-32.5 -40.5l-48 -73q-19 -29 -39.5 -46t-48.5 -29q18 -8 30.5 -23t23.5 -38
l75 -158h51l-40 -191h-53l30 140h-26l-91 193q-12 26 -32 37.5t-55 11.5h-34l-51 -242h-57l51 242h-31q-31 0 -55.5 -11.5t-47.5 -37.5l-173 -193h-72l188 209q21 24 39.5 38t40.5 22q-20 8 -32.5 26t-20.5 50l-20 80q-6 23 -13.5 36.5t-33.5 13.5q-6 0 -12 -0.5t-11 -1.5
q-6 -1 -11 -2l4 45q6 1 13 2q6 1 12.5 2t14.5 1q23 0 37.5 -5t23.5 -15.5t15 -26.5t11 -38l17 -71q10 -42 35 -60t64 -18h28z" />
    <glyph glyph-name="uni0498" unicode="&#x498;" horiz-adv-x="601" 
d="M251 -18q-97 7 -147.5 55.5t-52.5 137.5h58q7 -81 51 -110.5t126 -29.5q42 0 77.5 9t61.5 30.5t41 56.5t15 87q0 64 -38 95.5t-102 31.5h-95l12 55h90q43 0 78.5 9t60.5 28.5t38.5 50.5t13.5 75q0 52 -36.5 83.5t-102.5 31.5q-45 0 -78 -7t-57 -22t-41 -39t-30 -58
l-56 10q12 36 32 67t50.5 54t74.5 36t105 13q48 0 85 -13t62.5 -35.5t38.5 -53t13 -64.5q0 -44 -11.5 -76.5t-31.5 -56t-47 -39t-57 -24.5q52 -26 71 -66.5t19 -80.5q0 -116 -65 -176.5t-179 -65.5l-21 -39q23 -4 38.5 -12t24.5 -18t13 -21t4 -20q0 -26 -10 -43t-27 -27.5
t-41 -14.5t-52 -4q-16 0 -32 2t-31 5l11 45q15 -3 25.5 -4.5t26.5 -1.5q34 0 52.5 9t18.5 32q0 16 -17.5 26.5t-60.5 10.5h-12z" />
    <glyph glyph-name="uni0499" unicode="&#x499;" horiz-adv-x="509" 
d="M211 -15q-35 2 -66 12t-54 28.5t-37.5 47t-16.5 68.5h54q8 -61 46.5 -84t97.5 -23q34 0 63 4.5t50.5 17.5t33.5 36t12 60q0 39 -26.5 67.5t-80.5 28.5h-109l10 48h107q25 0 50.5 5t46 17t33.5 32t13 50q0 38 -29 62.5t-93 24.5q-40 0 -68 -5.5t-48 -17t-33 -28.5t-22 -39
l-52 10q19 60 72.5 95t154.5 35q30 0 61 -7t57 -22.5t42.5 -40t16.5 -59.5q0 -58 -34 -91t-82 -47q39 -19 56.5 -49.5t17.5 -62.5q0 -87 -52 -128t-146 -45l-20 -37q43 -7 59.5 -26t16.5 -39q0 -49 -35 -67.5t-88 -18.5q-14 0 -30 2t-30 5l10 44q14 -3 25 -4.5t25 -1.5
q32 0 49.5 8t17.5 30q0 15 -16.5 24.5t-56.5 9.5h-12z" />
    <glyph glyph-name="uni049A" unicode="&#x49a;" horiz-adv-x="650" 
d="M230 400q60 0 103 30.5t84 89.5l62 90q21 30 40 50t39.5 32t42 17t46.5 5q8 0 16 -1t15 -2q7 -2 14 -3l-17 -52l-10 2t-10.5 1.5t-13.5 0.5q-16 0 -29 -2.5t-26 -10.5t-27 -23t-32 -41l-65 -94q-28 -41 -55.5 -68t-71.5 -44q23 -8 41 -27.5t37 -60.5l106 -233h58
l-49 -229h-58l37 173h-27l-108 245q-12 28 -25 47t-28 30t-34.5 16t-45.5 5h-63l-73 -343h-61l151 714h61l-67 -314h43z" />
    <glyph glyph-name="uni049B" unicode="&#x49b;" horiz-adv-x="503" 
d="M89 0h-58l110 521h58l-49 -234h47q40 0 65.5 18.5t53.5 59.5l52 77q14 21 26.5 36t26.5 24.5t32 14t44 4.5q12 0 23.5 -2t15.5 -4l-16 -47l-10 2t-10.5 2t-10.5 1q-29 0 -43.5 -14.5t-31.5 -40.5l-49 -73q-19 -29 -37 -45t-46 -30q20 -8 32.5 -23t23.5 -38l70 -158h50
l-40 -191h-53l30 140h-27l-84 193q-11 26 -31.5 37.5t-58.5 11.5h-54z" />
    <glyph glyph-name="uni049C" unicode="&#x49c;" horiz-adv-x="638" 
d="M313 411q35 12 63 36.5t61 72.5l62 90q21 30 40 50t39.5 32t42 17t46.5 5q8 0 16 -1t15 -2q7 -2 14 -3l-17 -52l-10 2t-10.5 1.5t-13.5 0.5q-16 0 -29 -2.5t-26 -10.5t-27 -23t-32 -41l-65 -94q-28 -41 -55.5 -68t-71.5 -44q23 -8 41 -27.5t37 -60.5l132 -289h-65
l-108 245q-11 25 -21 42t-21 27.5t-23.5 15.5t-28.5 7l-26 -120h-51l27 126h-72l-73 -343h-61l151 714h61l-66 -314h72l29 137h51z" />
    <glyph glyph-name="uni049D" unicode="&#x49d;" horiz-adv-x="504" 
d="M254 290q26 6 45.5 24.5t41.5 50.5l52 77q14 21 26.5 36t26.5 24.5t32 14t44 4.5q12 0 23.5 -2t15.5 -4l-16 -47l-10 2t-10.5 2t-10.5 1q-29 0 -43.5 -14.5t-31.5 -40.5l-49 -73q-19 -29 -37 -45t-46 -30q20 -8 32.5 -23t23.5 -38l93 -209h-63l-84 193q-10 21 -25 32.5
t-41 14.5l-21 -103h-44l20 105h-58l-51 -242h-58l110 521h58l-49 -234h59l23 108h44l-22 -104v-1z" />
    <glyph glyph-name="uni049E" unicode="&#x49e;" horiz-adv-x="638" 
d="M258 400q53 0 95.5 30.5t83.5 89.5l62 90q21 30 40 50t39.5 32t42 17t46.5 5q8 0 16 -1t15 -2q7 -2 14 -3l-17 -52l-10 2t-10.5 1.5t-13.5 0.5q-16 0 -29 -2.5t-26 -10.5t-27 -23t-32 -41l-65 -94q-28 -41 -55.5 -68t-71.5 -44q23 -8 41 -27.5t37 -60.5l132 -289h-65
l-108 245q-12 28 -24.5 47t-28 30t-34.5 16t-45 5h-64l-73 -343h-61l114 537h-81l11 53h81l26 124h61l-27 -124h111l-11 -53h-111l-29 -137h51z" />
    <glyph glyph-name="uni049F" unicode="&#x49f;" horiz-adv-x="506" 
d="M176 287h47q41 0 66.5 18t53.5 60l52 77q14 21 26.5 36t26.5 24.5t32 14t44 4.5q12 0 23.5 -2t15.5 -4l-16 -47l-10 2t-10.5 2t-10.5 1q-29 0 -43.5 -14.5t-31.5 -40.5l-49 -73q-19 -29 -37 -45t-46 -30q20 -8 32.5 -23t23.5 -38l93 -209h-63l-84 193q-11 26 -32 37.5
t-59 11.5h-54l-51 -242h-58l83 391h-71l10 47h71l17 83h58l-17 -83h95l-10 -47h-95z" />
    <glyph glyph-name="uni04A0" unicode="&#x4a0;" horiz-adv-x="686" 
d="M298 400q60 0 103 30.5t84 89.5l62 90q21 30 40 50t39.5 32t42 17t46.5 5q8 0 16 -1t15 -2q7 -2 14 -3l-17 -52l-10 2t-10.5 1.5t-13.5 0.5q-16 0 -29 -2.5t-26 -10.5t-27 -23t-32 -41l-65 -94q-28 -41 -55.5 -68t-71.5 -44q23 -8 41 -27.5t37 -60.5l132 -289h-65
l-108 245q-12 28 -25 47t-28 30t-34.5 16t-45.5 5h-63l-73 -343h-61l139 660h-138l11 54h200l-67 -314h43z" />
    <glyph glyph-name="uni04A1" unicode="&#x4a1;" horiz-adv-x="534" 
d="M143 0h-58l100 471h-105l11 50h162l-49 -234h47q40 0 65.5 18.5t53.5 59.5l52 77q14 21 26.5 36t26.5 24.5t32 14t44 4.5q12 0 23.5 -2t15.5 -4l-16 -47l-10 2t-10.5 2t-10.5 1q-29 0 -43.5 -14.5t-31.5 -40.5l-49 -73q-19 -29 -37 -45t-46 -30q20 -8 32.5 -23t23.5 -38
l93 -209h-63l-84 193q-11 26 -31.5 37.5t-58.5 11.5h-54z" />
    <glyph glyph-name="uni04A2" unicode="&#x4a2;" horiz-adv-x="693" 
d="M506 0l72 341h-403l-72 -341h-61l151 714h61l-67 -316h403l67 316h61l-139 -659h63l-49 -228h-58l37 173h-66z" />
    <glyph glyph-name="uni04A3" unicode="&#x4a3;" horiz-adv-x="573" 
d="M444 248h-304l-52 -248h-58l110 521h58l-47 -222h304l47 222h58l-99 -470h58l-40 -191h-53l30 140h-64z" />
    <glyph glyph-name="uni04A4" unicode="&#x4a4;" horiz-adv-x="755" 
d="M506 0l72 341h-403l-72 -341h-61l151 714h61l-67 -316h403l67 316h198l-12 -54h-137l-139 -660h-61z" />
    <glyph glyph-name="uni04A5" unicode="&#x4a5;" horiz-adv-x="620" 
d="M30 0l110 521h58l-47 -222h304l47 222h173l-11 -50h-115l-99 -471h-58l52 248h-304l-52 -248h-58z" />
    <glyph glyph-name="uni04A6" unicode="&#x4a6;" horiz-adv-x="1061" 
d="M538 0h-61l139 658h-374l-139 -658h-61l151 714h496l-64 -304q39 14 80.5 21.5t89.5 7.5q58 0 100 -18.5t68.5 -51t39 -77t12.5 -96.5q0 -72 -21.5 -137t-65 -114t-109.5 -78t-156 -29h-47l12 55h35q69 0 123 20.5t91 59t56.5 93.5t19.5 124q0 97 -40.5 146.5
t-134.5 49.5q-38 0 -80.5 -7t-84.5 -23z" />
    <glyph glyph-name="uni04A7" unicode="&#x4a7;" horiz-adv-x="860" 
d="M501 285q32 12 63.5 18.5t63.5 6.5q52 0 88 -16t58.5 -42.5t33 -61t10.5 -71.5q0 -75 -20.5 -135t-59.5 -101t-95.5 -63t-128.5 -22h-36l10 49h29q119 0 179.5 70t60.5 198q0 75 -33.5 110t-108.5 35q-32 0 -62 -6.5t-62 -18.5l-49 -235h-58l99 470h-296l-99 -470h-58
l110 521h412z" />
    <glyph glyph-name="uni04A8" unicode="&#x4a8;" horiz-adv-x="817" 
d="M575 654q-22 10 -50 17t-59 7q-83 0 -143 -36.5t-100 -94t-59 -130t-19 -144.5q0 -54 15 -98t44 -75.5t71.5 -48.5t97.5 -17q12 0 25.5 1t26.5 2.5t24.5 4t18.5 6.5q-37 40 -59.5 92.5t-22.5 122.5q0 54 16 113t48 108t81 81t115 32q70 0 114 -44t44 -128
q0 -53 -12.5 -105t-39.5 -101t-70 -94t-104 -82q19 -7 38.5 -9t43.5 -2q26 0 49 3.5t46 10.5l9 -49q-32 -10 -65 -13t-61 -3q-13 0 -29 2.5t-31.5 6t-30.5 9t-26 11.5q-13 -6 -31.5 -11t-39 -8.5t-41.5 -6t-39 -2.5q-66 0 -119.5 20.5t-91.5 58.5t-58.5 91t-20.5 118
q0 87 25.5 170.5t75.5 148t124 104t171 39.5q32 0 64.5 -7.5t58.5 -19.5zM635 546q-44 0 -78.5 -27t-59.5 -68.5t-38 -90.5t-13 -93q0 -63 19.5 -117t59.5 -86q40 21 79.5 54.5t70.5 78t50 99t19 116.5q0 29 -5.5 53.5t-18 42.5t-33.5 28t-52 10z" />
    <glyph glyph-name="uni04A9" unicode="&#x4a9;" horiz-adv-x="626" 
d="M413 469q-18 9 -37 13t-45 4q-49 0 -88.5 -22.5t-67 -60t-42 -87t-14.5 -103.5q0 -36 9 -68.5t28.5 -57.5t49.5 -39.5t73 -14.5q14 0 28.5 1t28.5 5q-28 27 -44.5 67.5t-16.5 83.5q0 41 11.5 83.5t35.5 76.5t60 55.5t85 21.5q54 0 88.5 -34.5t34.5 -94.5
q0 -39 -8.5 -76.5t-26.5 -72t-47 -64t-71 -52.5q21 -6 43 -6q41 0 78 13l9 -42q-39 -16 -96 -16q-22 0 -49 6.5t-42 14.5q-22 -9 -51 -14t-67 -5q-42 0 -78.5 15t-64.5 43.5t-44 69.5t-16 94q0 64 18 123.5t54 105.5t89 74t123 28q29 0 51.5 -6.5t42.5 -16.5zM458 379
q-29 0 -52.5 -15.5t-40 -41t-25.5 -58.5t-9 -68q0 -37 11.5 -74.5t46.5 -66.5q66 32 105 93.5t39 149.5q0 39 -20 60t-55 21z" />
    <glyph glyph-name="uni04AA" unicode="&#x4aa;" horiz-adv-x="709" 
d="M334 -17q-55 4 -102 25.5t-81 59t-53 89.5t-19 118q0 91 25.5 174t74.5 146t119 100t160 37q112 0 175.5 -60.5t74.5 -170.5l-61 -12q-13 97 -58 143.5t-136 46.5q-71 0 -128 -31.5t-97 -85.5t-61.5 -126.5t-21.5 -154.5q0 -51 14 -95.5t41 -78t67.5 -52.5t93.5 -19
q52 0 92 13.5t69.5 38t49 58t28.5 73.5h67q-12 -48 -35.5 -89.5t-58.5 -73t-82.5 -51t-108.5 -22.5l-22 -41q23 -4 38.5 -12t24.5 -18t13 -21t4 -20q0 -26 -10 -43t-27 -27.5t-41 -14.5t-52 -4q-16 0 -32 2t-31 5l11 45q15 -3 25.5 -4.5t26.5 -1.5q34 0 52.5 9t18.5 32
q0 16 -17.5 26.5t-60.5 10.5h-12z" />
    <glyph glyph-name="uni04AB" unicode="&#x4ab;" horiz-adv-x="554" 
d="M477 355q-3 24 -10 47.5t-22 42t-40 30.5t-64 12q-50 0 -90.5 -20.5t-69.5 -57.5t-44.5 -88.5t-15.5 -112.5q0 -38 8 -69.5t26 -55t46.5 -36.5t69.5 -13q38 0 66.5 10t49 27.5t34 41t22.5 49.5h59q-23 -75 -77 -124.5t-147 -53.5l-20 -36q43 -7 59.5 -26t16.5 -39
q0 -49 -35 -67.5t-88 -18.5q-14 0 -30 2t-30 5l10 44q14 -3 25 -4.5t25 -1.5q32 0 49.5 8t17.5 30q0 15 -16.5 24.5t-56.5 9.5h-12l40 72q-43 5 -76 24t-55 47.5t-33 65.5t-11 79q0 80 23 142.5t62 105t90.5 65t108.5 22.5q49 0 84 -14t57.5 -38t34 -55t14.5 -64z" />
    <glyph glyph-name="uni04AC" unicode="&#x4ac;" horiz-adv-x="590" 
d="M425 658l-127 -603h63l-49 -228h-58l37 173h-66l139 658h-248l12 56h556l-12 -56h-247z" />
    <glyph glyph-name="uni04AD" unicode="&#x4ad;" horiz-adv-x="450" 
d="M256 470h-187l11 51h430l-11 -51h-185l-88 -419h59l-40 -191h-53l30 140h-65z" />
    <glyph glyph-name="uni04AE" unicode="&#x4ae;" horiz-adv-x="588" 
d="M126 714h66l136 -353l286 353h70l-333 -405l-65 -309h-61l65 309z" />
    <glyph glyph-name="uni04AF" unicode="&#x4af;" horiz-adv-x="498" 
d="M142 -193l43 204l-116 510h66l92 -440l262 440h67l-313 -510l-43 -204h-58z" />
    <glyph glyph-name="uni04B0" unicode="&#x4b0;" horiz-adv-x="588" 
d="M498 263h-157l-55 -263h-61l55 263h-156l12 54h151l-161 397h66l136 -353l286 353h70l-327 -397h153z" />
    <glyph glyph-name="uni04B1" unicode="&#x4b1;" horiz-adv-x="498" 
d="M142 -193l40 193h-122l11 49h105l-107 472h66l92 -440l262 440h67l-290 -472h114l-11 -49h-129l-40 -193h-58z" />
    <glyph glyph-name="uni04B2" unicode="&#x4b2;" horiz-adv-x="623" 
d="M379 371l156 -320h50l-40 -191h-55l30 140h-30l-157 329l-289 -329h-70l333 380l-162 334h68l138 -296l263 296h69z" />
    <glyph glyph-name="uni04B3" unicode="&#x4b3;" horiz-adv-x="504" 
d="M265 315l188 206h67l-226 -250l110 -220h52l-40 -191h-53l30 140h-24l-117 235l-210 -235h-69l252 281l-124 240h62z" />
    <glyph glyph-name="uni04B4" unicode="&#x4b4;" horiz-adv-x="758" 
d="M342 661l-128 -606h368l139 659h61l-139 -659h63l-49 -228h-58l37 173h-495l140 661h-174l12 53h467l-12 -53h-232z" />
    <glyph glyph-name="uni04B5" unicode="&#x4b5;" horiz-adv-x="591" 
d="M176 470h-107l11 51h319l-11 -51h-154l-88 -419h280l99 470h58l-99 -470h59l-40 -191h-53l30 140h-403z" />
    <glyph glyph-name="uni04B6" unicode="&#x4b6;" horiz-adv-x="621" 
d="M497 55h64l-49 -228h-58l37 173h-68l74 330q-42 -15 -88.5 -24t-90.5 -9q-46 0 -84 10t-65.5 30.5t-43 52.5t-15.5 76q0 14 1.5 31t5.5 34l39 183h61l-34 -161q-5 -22 -8 -41t-3 -36q0 -64 36.5 -95t123.5 -31q45 0 89.5 8.5t88.5 23.5l74 332h62z" />
    <glyph glyph-name="uni04B7" unicode="&#x4b7;" horiz-adv-x="506" 
d="M325 0l47 221q-29 -11 -64.5 -18.5t-67.5 -7.5q-36 0 -67 8.5t-53.5 25.5t-35.5 42.5t-13 60.5q0 11 1.5 22t3.5 23l30 144h58l-26 -124q-8 -35 -8 -59q0 -47 28.5 -70t98.5 -23q31 0 62.5 7t62.5 18l53 251h58l-99 -470h60l-40 -191h-53l30 140h-66z" />
    <glyph glyph-name="uni04B8" unicode="&#x4b8;" horiz-adv-x="617" 
d="M423 0l74 330q-38 -14 -81.5 -23t-85.5 -10l-31 -128h-51l32 130q-77 8 -123.5 48t-46.5 119q0 14 1.5 31t5.5 34l39 183h61l-34 -161q-5 -22 -8 -41t-3 -36q0 -57 27.5 -87t93.5 -37l34 137h51l-35 -139q42 1 83.5 9.5t83.5 22.5l74 332h62l-161 -714h-62z" />
    <glyph glyph-name="uni04B9" unicode="&#x4b9;" horiz-adv-x="499" 
d="M325 0l47 221q-27 -10 -58.5 -17t-62.5 -9l-21 -100h-46l21 102q-60 7 -97 40t-37 95q0 11 1.5 22t3.5 23l30 144h58l-26 -124q-8 -35 -8 -59q0 -39 19.5 -61.5t66.5 -29.5l23 106h46l-23 -108q29 1 59.5 7.5t60.5 17.5l53 251h58l-110 -521h-58z" />
    <glyph glyph-name="uni04BA" unicode="&#x4ba;" horiz-adv-x="617" 
d="M42 0l151 714h61l-66 -311q42 15 89 24t93 9q92 0 147 -42t55 -129q0 -15 -1 -31.5t-5 -33.5l-42 -200h-60l37 178q9 42 9 77q0 66 -34.5 97t-122.5 31q-90 0 -175 -30l-75 -353h-61z" />
    <glyph glyph-name="uni04BB" unicode="&#x4bb;" horiz-adv-x="558" 
d="M180 437q50 54 102 77t99 23q72 0 109.5 -39t37.5 -108q0 -26 -6 -54l-71 -336h-58l69 325q3 14 5 28t2 28q0 47 -21.5 75.5t-75.5 28.5q-29 0 -63.5 -12t-66.5 -37q-32 -26 -55.5 -53.5t-33.5 -74.5l-65 -308h-58l151 714h58z" />
    <glyph glyph-name="uni04BC" unicode="&#x4bc;" horiz-adv-x="888" 
d="M295 283q0 -51 13.5 -96t42 -78.5t72.5 -53t105 -19.5q47 0 84 11.5t64.5 32.5t46 49t29.5 61h63q-30 -94 -102 -151t-191 -57q-75 0 -129.5 24.5t-90 66t-52.5 96.5t-17 116q0 14 0.5 26.5t1.5 25.5q-31 0 -59 6t-49 19t-33.5 34t-12.5 51q0 29 9 52.5t30 52.5l47 -16
q-12 -18 -21.5 -36.5t-9.5 -44.5q0 -34 30 -49.5t75 -15.5q14 81 47.5 144.5t82 107.5t109.5 67t129 23q67 0 115.5 -20t80 -55.5t47 -85t15.5 -108.5q0 -20 -2 -50t-6 -55l-3 -21h-559q-2 -14 -2 -27v-27zM602 679q-57 0 -106 -20.5t-87 -58t-65 -91t-40 -119.5h496
q2 15 3 33.5t1 35.5q0 49 -11.5 90t-36 69.5t-62.5 44.5t-92 16z" />
    <glyph glyph-name="uni04BD" unicode="&#x4bd;" horiz-adv-x="647" 
d="M205 209q0 -37 9 -69t28.5 -56t50 -38t72.5 -14q37 0 63.5 8t45 21.5t30.5 32.5t20 41h57q-12 -33 -29 -61t-43 -48t-62 -31t-86 -11q-54 0 -94.5 18t-67.5 49t-40.5 71t-13.5 85q0 13 0.5 24t1.5 17q-22 1 -42.5 6.5t-36.5 17t-25.5 29.5t-9.5 44q0 20 5 40.5t25 46.5
l43 -16q-12 -16 -17 -32.5t-5 -32.5q0 -32 20 -42t49 -12q11 58 36.5 103t61 75.5t80 46t93.5 15.5q48 0 84.5 -15.5t60.5 -42.5t36 -63.5t12 -78.5q0 -15 -1 -36.5t-4 -38.5l-3 -16h-403q-1 -10 -1 -18v-19zM419 490q-79 0 -132.5 -50t-72.5 -144h344q2 9 2.5 22t0.5 24
q0 65 -35 106.5t-107 41.5z" />
    <glyph glyph-name="uni04BE" unicode="&#x4be;" horiz-adv-x="888" 
d="M295 283q0 -51 13.5 -96t42 -78.5t72.5 -53t105 -19.5q47 0 84 11.5t64.5 32.5t46 49t29.5 61h63q-15 -46 -39.5 -84t-60 -65t-81.5 -42.5t-103 -16.5l-33 -155h-58l33 158q-62 8 -107.5 35t-75 67.5t-43.5 91t-14 106.5q0 14 0.5 26.5t1.5 25.5q-31 0 -59 6t-49 19
t-33.5 34t-12.5 51q0 29 9 52.5t30 52.5l47 -16q-12 -18 -21.5 -36.5t-9.5 -44.5q0 -34 30 -49.5t75 -15.5q14 81 47.5 144.5t82 107.5t109.5 67t129 23q67 0 115.5 -20t80 -55.5t47 -85t15.5 -108.5q0 -20 -2 -50t-6 -55l-3 -21h-559q-2 -14 -2 -27v-27zM602 679
q-57 0 -106 -20.5t-87 -58t-65 -91t-40 -119.5h496q2 15 3 33.5t1 35.5q0 49 -11.5 90t-36 69.5t-62.5 44.5t-92 16z" />
    <glyph glyph-name="uni04BF" unicode="&#x4bf;" horiz-adv-x="647" 
d="M205 209q0 -37 9 -69t28.5 -56t50 -38t72.5 -14q37 0 63.5 8t45 21.5t30.5 32.5t20 41h57q-11 -32 -27 -58.5t-40 -46.5t-57.5 -31.5t-78.5 -13.5l-26 -125h-53l27 126q-46 6 -80 25.5t-56.5 49.5t-33.5 67.5t-11 78.5q0 13 0.5 24t1.5 17q-22 1 -42.5 6.5t-36.5 17
t-25.5 29.5t-9.5 44q0 20 5 40.5t25 46.5l43 -16q-12 -16 -17 -32.5t-5 -32.5q0 -32 20 -42t49 -12q11 58 36.5 103t61 75.5t80 46t93.5 15.5q48 0 84.5 -15.5t60.5 -42.5t36 -63.5t12 -78.5q0 -15 -1 -36.5t-4 -38.5l-3 -16h-403q-1 -10 -1 -18v-19zM419 490
q-79 0 -132.5 -50t-72.5 -144h344q2 9 2.5 22t0.5 24q0 65 -35 106.5t-107 41.5z" />
    <glyph glyph-name="uni04C0" unicode="&#x4c0;" horiz-adv-x="225" 
d="M42 0l151 714h61l-151 -714h-61z" />
    <glyph glyph-name="uni04C1" unicode="&#x4c1;" horiz-adv-x="972" 
d="M563 400h36q53 0 97 30t84 90l60 90q40 61 79 82.5t89 21.5q8 0 16 -1t15 -2q7 -2 14 -3l-17 -52l-10 2t-10.5 1.5t-13.5 0.5q-16 0 -29 -2.5t-26.5 -10.5t-27.5 -23t-31 -41l-63 -94q-28 -41 -55.5 -68t-71.5 -44q23 -8 41 -27.5t37 -60.5l130 -289h-68l-106 245
q-12 28 -23.5 47t-26 30t-32.5 16t-44 5h-54l-73 -343h-61l72 343h-62q-25 0 -43.5 -4t-36 -15t-35.5 -30t-43 -49l-204 -245h-76l241 288q35 43 61.5 63t60.5 28q-29 14 -45 41t-27 68l-25 103q-11 42 -27 57t-45 15q-13 0 -23.5 -1t-25.5 -3l6 49q7 1 15 3q7 1 15.5 2
t16.5 1q25 0 44 -4.5t32.5 -15t23 -29.5t16.5 -47l25 -98q16 -62 44.5 -91t84.5 -29h45l66 314h61zM611 788q-64 0 -96 27.5t-32 75.5q0 11 3 28h47q-2 -9 -2 -13v-9q0 -14 4 -26t13.5 -21t25.5 -14t41 -5q42 0 71.5 21t43.5 67h48q-16 -66 -58.5 -98.5t-108.5 -32.5z" />
    <glyph glyph-name="uni04C2" unicode="&#x4c2;" horiz-adv-x="731" 
d="M357 287l49 234h57l-49 -234h23q42 0 71.5 18t57.5 60l47 70q15 22 28.5 38.5t28.5 27t33 15.5t42 5q7 0 14 -1t12 -2q6 -1 11 -2l-16 -47l-10 2t-10.5 1.5t-10.5 0.5q-26 0 -41.5 -14.5t-32.5 -40.5l-48 -73q-19 -29 -39.5 -46t-48.5 -29q18 -8 30.5 -23t23.5 -38
l100 -209h-63l-91 193q-12 26 -32 37.5t-55 11.5h-34l-51 -242h-57l51 242h-31q-31 0 -55.5 -11.5t-47.5 -37.5l-173 -193h-72l188 209q21 24 39.5 38t40.5 22q-20 8 -32.5 26t-20.5 50l-20 80q-6 23 -13.5 36.5t-33.5 13.5q-6 0 -12 -0.5t-11 -1.5q-6 -1 -11 -2l4 45
q6 1 13 2q6 1 12.5 2t14.5 1q23 0 37.5 -5t23.5 -15.5t15 -26.5t11 -38l17 -71q10 -42 35 -60t64 -18h28zM443 595q-64 0 -96 27.5t-32 75.5q0 11 3 28h47q-2 -9 -2 -13v-9q0 -14 4 -26t13.5 -21t25.5 -14t41 -5q42 0 71.5 21t43.5 67h48q-16 -66 -58.5 -98.5t-108.5 -32.5z
" />
    <glyph glyph-name="uni04C3" unicode="&#x4c3;" horiz-adv-x="624" 
d="M242 400q53 0 94 31.5t81 88.5l62 90q21 30 40 50t39.5 32t42 17t46.5 5q8 0 16 -1t15 -2q7 -2 14 -3l-17 -52l-10 2t-10.5 1.5t-13.5 0.5q-16 0 -29 -2.5t-26 -10.5t-27 -23t-32 -41l-65 -94q-22 -32 -44.5 -56.5t-51.5 -41.5q57 -5 96.5 -26t64.5 -52.5t36.5 -70
t11.5 -78.5q0 -68 -21.5 -127t-66 -103.5t-112 -70t-159.5 -25.5h-33l12 55h31q136 0 211.5 69.5t75.5 195.5q0 85 -47 135t-138 50h-152l-73 -343h-61l151 714h61l-67 -314h55z" />
    <glyph glyph-name="uni04C4" unicode="&#x4c4;" horiz-adv-x="493" 
d="M444 99q0 -144 -75 -222.5t-219 -78.5h-36l10 49h29q119 0 174.5 63.5t55.5 184.5q0 63 -33.5 104t-108.5 41h-102l-51 -240h-58l110 521h58l-49 -231h47q20 0 36 4t30 13t26.5 23t26.5 35l52 77q14 21 26.5 36t26.5 24.5t32 14t44 4.5q12 0 23.5 -2t15.5 -4l-16 -47
l-10 2t-10.5 2t-10.5 1q-29 0 -43.5 -14.5t-31.5 -40.5l-49 -73q-14 -22 -29.5 -37.5t-32.5 -26.5q35 -7 61.5 -24.5t44.5 -42.5t27 -54.5t9 -60.5z" />
    <glyph glyph-name="uni04C5" unicode="&#x4c5;" horiz-adv-x="704" 
d="M740 714l-140 -659h57q-8 -45 -23.5 -81t-36.5 -65.5t-45.5 -52t-49.5 -38.5l-34 43q37 25 68.5 63t44.5 76h-53l140 660h-261l-92 -294q-36 -114 -72.5 -186t-75.5 -113t-82 -56.5t-91 -15.5h-13l11 56h13q34 0 66 14t64 53t64 108.5t67 179.5l96 308h378z" />
    <glyph glyph-name="uni04C6" unicode="&#x4c6;" horiz-adv-x="557" 
d="M551 521l-99 -470h52q-8 -39 -20 -69t-28 -52.5t-36.5 -39.5t-44.5 -32l-31 38q68 48 89 104h-50l99 471h-201l-67 -199q-26 -76 -50.5 -129t-52.5 -86t-62 -47.5t-79 -14.5h-10l10 53h8q27 0 51 10.5t46.5 39.5t45.5 79.5t49 130.5l69 213h312z" />
    <glyph glyph-name="uni04C7" unicode="&#x4c7;" horiz-adv-x="689" 
d="M578 341h-403l-72 -341h-61l151 714h61l-67 -316h403l67 316h61l-161 -758q-8 -36 -18.5 -65.5t-27.5 -50.5t-44 -33t-67 -12q-36 0 -56 6t-34 11l19 48q12 -5 27.5 -8.5t40.5 -3.5q41 0 63.5 22t33.5 73z" />
    <glyph glyph-name="uni04C8" unicode="&#x4c8;" horiz-adv-x="566" 
d="M444 248h-304l-52 -248h-58l110 521h58l-47 -222h304l47 222h58l-118 -558q-8 -37 -17.5 -67.5t-26 -53t-42.5 -35t-67 -12.5q-34 0 -53.5 6t-33.5 12l18 48q12 -5 28 -9.5t41 -4.5q41 0 61 24.5t29 66.5z" />
    <glyph glyph-name="uni04C9" unicode="&#x4c9;" horiz-adv-x="687" 
d="M506 0l72 341h-403l-72 -341h-61l151 714h61l-67 -316h403l67 316h61l-140 -659h57q-8 -45 -23.5 -81t-36.5 -65.5t-45.5 -52t-49.5 -38.5l-34 43q37 25 68.5 63t44.5 76h-53z" />
    <glyph glyph-name="uni04CA" unicode="&#x4ca;" horiz-adv-x="566" 
d="M461 51h52q-8 -39 -20 -69t-28 -52.5t-36.5 -39.5t-44.5 -32l-31 38q68 48 89 104h-50l52 248h-304l-52 -248h-58l110 521h58l-47 -222h304l47 222h58z" />
    <glyph glyph-name="uni04CB" unicode="&#x4cb;" horiz-adv-x="617" 
d="M417 0l-37 -173h-58l51 228h62l62 275q-42 -15 -88.5 -24t-90.5 -9q-46 0 -84 10t-65.5 30.5t-43 52.5t-15.5 76q0 14 1.5 31t5.5 34l39 183h61l-34 -161q-5 -22 -8 -41t-3 -36q0 -64 36.5 -95t123.5 -31q45 0 89.5 8.5t88.5 23.5l74 332h62l-161 -714h-68z" />
    <glyph glyph-name="uni04CC" unicode="&#x4cc;" horiz-adv-x="499" 
d="M319 0l-29 -140h-53l41 191h58l36 170q-29 -11 -64.5 -18.5t-67.5 -7.5q-36 0 -67 8.5t-53.5 25.5t-35.5 42.5t-13 60.5q0 11 1.5 22t3.5 23l30 144h58l-26 -124q-8 -35 -8 -59q0 -47 28.5 -70t98.5 -23q31 0 62.5 7t62.5 18l53 251h58l-110 -521h-64z" />
    <glyph glyph-name="uni04CD" unicode="&#x4cd;" horiz-adv-x="836" 
d="M785 55q-8 -45 -23.5 -81t-36.5 -65.5t-45.5 -52t-49.5 -38.5l-34 43q37 25 68.5 63t44.5 76h-50l130 611l-3 -4t-14.5 -22.5t-35 -56.5t-66 -105.5t-106.5 -171t-157 -251.5h-58l-121 608l-129 -608h-57l151 714h76l123 -643l397 643h78l-139 -659h57z" />
    <glyph glyph-name="uni04CE" unicode="&#x4ce;" horiz-adv-x="687" 
d="M30 0l116 521h77l89 -460l285 460h85l-103 -470h52q-8 -39 -20 -69t-28 -52.5t-36.5 -39.5t-44.5 -32l-31 38q68 48 89 104h-49l99 450l-282 -450h-55l-87 445l-99 -445h-57z" />
    <glyph glyph-name="uni04CF" unicode="&#x4cf;" horiz-adv-x="225" 
d="M42 0l151 714h61l-151 -714h-61z" />
    <glyph glyph-name="uni04D0" unicode="&#x4d0;" horiz-adv-x="661" 
d="M446 714h72l131 -714h-63l-40 218h-336l-131 -218h-67zM244 274h292l-68 373zM493 774q-64 0 -96 27.5t-32 75.5q0 11 3 28h47q-2 -9 -2 -13v-9q0 -14 4 -26t13.5 -21t25.5 -14t41 -5q42 0 71.5 21t43.5 67h48q-16 -66 -58.5 -98.5t-108.5 -32.5z" />
    <glyph glyph-name="uni04D1" unicode="&#x4d1;" horiz-adv-x="526" 
d="M25 123q0 55 22 91.5t61.5 59t93.5 33t118 13.5l105 4l2 10q2 13 4 26.5t2 24.5q0 47 -26.5 75t-93.5 28q-37 0 -63 -4.5t-44 -14.5t-30.5 -27t-22.5 -42l-54 9q24 70 76.5 99t142.5 29q89 0 131.5 -40.5t42.5 -111.5q0 -14 -2 -29.5t-5 -30.5l-69 -325h-58l15 73
q-35 -35 -81 -60t-114 -25q-67 0 -110 36.5t-43 98.5zM186 40q33 0 65.5 7.5t57.5 24.5q20 13 34.5 25.5t25 26.5t18 32t12.5 42l17 80l-97 -4q-66 -3 -110.5 -12.5t-71.5 -28t-38.5 -45.5t-11.5 -64q0 -34 22 -59t77 -25zM332 590q-64 0 -96 27.5t-32 75.5q0 11 3 28h47
q-2 -9 -2 -13v-9q0 -14 4 -26t13.5 -21t25.5 -14t41 -5q42 0 71.5 21t43.5 67h48q-16 -66 -58.5 -98.5t-108.5 -32.5z" />
    <glyph glyph-name="uni04D2" unicode="&#x4d2;" horiz-adv-x="661" 
d="M406 714h72l131 -714h-63l-40 218h-336l-131 -218h-67zM204 274h292l-68 373zM332 795l19 87h67l-19 -87h-67zM496 795l19 87h68l-19 -87h-68z" />
    <glyph glyph-name="uni04D3" unicode="&#x4d3;" horiz-adv-x="526" 
d="M25 123q0 55 22 91.5t61.5 59t93.5 33t118 13.5l105 4l2 10q2 13 4 26.5t2 24.5q0 47 -26.5 75t-93.5 28q-37 0 -63 -4.5t-44 -14.5t-30.5 -27t-22.5 -42l-54 9q24 70 76.5 99t142.5 29q89 0 131.5 -40.5t42.5 -111.5q0 -14 -2 -29.5t-5 -30.5l-69 -325h-58l15 73
q-35 -35 -81 -60t-114 -25q-67 0 -110 36.5t-43 98.5zM186 40q33 0 65.5 7.5t57.5 24.5q20 13 34.5 25.5t25 26.5t18 32t12.5 42l17 80l-97 -4q-66 -3 -110.5 -12.5t-71.5 -28t-38.5 -45.5t-11.5 -64q0 -34 22 -59t77 -25zM220 619l18 85h65l-18 -85h-65zM380 619l18 85h66
l-18 -85h-66z" />
    <glyph glyph-name="uni04D4" unicode="&#x4d4;" horiz-adv-x="1012" 
d="M-35 0l573 714h528l-11 -55h-363l-56 -262h343l-12 -57h-343l-61 -284h384l-24 -56h-429l52 249h-312l-199 -249h-70zM279 305h279l76 354h-71z" />
    <glyph glyph-name="uni04D5" unicode="&#x4d5;" horiz-adv-x="890" 
d="M456 205q0 -35 9 -66.5t28 -55t48.5 -37.5t71.5 -14q37 0 63 8t43.5 21.5t28.5 32.5t19 41h57q-12 -33 -28 -61t-41 -48t-60.5 -31t-85.5 -11q-45 0 -78.5 11t-56.5 29t-38.5 41t-24.5 47q-47 -68 -101 -96t-129 -28q-69 0 -112.5 37t-43.5 100q0 54 21.5 90.5t59.5 59
t90 32.5t112 13l108 4q4 19 5 30.5t1 22.5q0 24 -6 44t-19.5 35t-35.5 23.5t-54 8.5q-35 0 -59.5 -4.5t-42.5 -14.5t-30 -27t-22 -42l-54 9q24 70 76 99t137 29q60 0 101 -25t55 -73q35 46 83.5 72t120.5 26q48 0 83.5 -16t59 -43t34.5 -63t11 -77q0 -15 -1 -36.5t-4 -38.5
l-3 -16h-395q-1 -10 -1 -20.5v-21.5zM189 40q40 0 69.5 7.5t48.5 21.5q35 25 54.5 54t29.5 77l16 78l-100 -4q-63 -3 -105 -12.5t-67.5 -27.5t-36.5 -44.5t-11 -63.5q0 -35 22.5 -60.5t79.5 -25.5zM667 490q-79 0 -131 -50t-71 -143h336q2 9 2.5 22t0.5 24q0 64 -32.5 105.5
t-104.5 41.5z" />
    <glyph glyph-name="uni04D6" unicode="&#x4d6;" horiz-adv-x="588" 
d="M424 774q-64 0 -96 27.5t-32 75.5q0 11 3 28h47q-2 -9 -2 -13v-9q0 -14 4 -26t13.5 -21t25.5 -14t41 -5q42 0 71.5 21t43.5 67h48q-16 -66 -58.5 -98.5t-108.5 -32.5zM243 659l-56 -262h368l-12 -57h-368l-61 -284h409l-24 -56h-457l151 714h449l-11 -55h-388z" />
    <glyph glyph-name="uni04D7" unicode="&#x4d7;" horiz-adv-x="560" 
d="M118 209q0 -37 9 -69t28.5 -56t50 -38t72.5 -14q37 0 63.5 8t45 21.5t30.5 32.5t20 41h57q-12 -33 -29 -61t-43 -48t-62 -31t-86 -11q-54 0 -94.5 18t-67.5 49t-40.5 71t-13.5 85q0 80 22 141.5t60 103.5t88.5 63.5t108.5 21.5q48 0 84.5 -15.5t60.5 -42.5t36 -63.5
t12 -78.5q0 -15 -1 -36.5t-4 -38.5l-3 -16h-403q-1 -10 -1 -18v-19zM332 490q-79 0 -132.5 -50t-72.5 -144h344q2 9 2.5 22t0.5 24q0 65 -35 106.5t-107 41.5zM342 590q-64 0 -96 27.5t-32 75.5q0 11 3 28h47q-2 -9 -2 -13v-9q0 -14 4 -26t13.5 -21t25.5 -14t41 -5
q42 0 71.5 21t43.5 67h48q-16 -66 -58.5 -98.5t-108.5 -32.5z" />
    <glyph glyph-name="uni04D8" unicode="&#x4d8;" horiz-adv-x="740" 
d="M357 35q55 0 100.5 20.5t81 58t60 91t38.5 119.5h-480q-2 -15 -3 -33.5t-1 -35.5q0 -99 51 -159.5t153 -60.5zM147 545q34 84 104.5 135.5t177.5 51.5q72 0 125.5 -24.5t88 -66t51.5 -96.5t17 -116q0 -105 -28.5 -187.5t-77.5 -140.5t-115 -88.5t-140 -30.5
q-63 0 -111 20t-81 56t-49.5 85.5t-16.5 107.5q0 20 2 49.5t6 54.5l3 22h543q1 14 1 27v27q0 50 -12.5 95t-39 78.5t-68.5 53.5t-101 20q-45 0 -79.5 -9.5t-60.5 -27.5t-46 -45t-36 -62z" />
    <glyph glyph-name="uni04D9" unicode="&#x4d9;" horiz-adv-x="569" 
d="M481 312q0 36 -9 68t-27.5 56t-47 38t-67.5 14q-37 0 -64.5 -6.5t-48.5 -20t-36.5 -33.5t-27.5 -47l-52 12q27 70 86 107t144 37q51 0 90 -19t65.5 -50t39.5 -71.5t13 -82.5q0 -80 -22 -141.5t-60 -103.5t-88.5 -63.5t-108.5 -21.5q-48 0 -84.5 15.5t-60.5 42.5t-36 63.5
t-12 78.5q0 15 1.5 38.5t6.5 52.5h405q1 10 1 18v19zM265 31q79 0 133.5 50t73.5 144h-346q-2 -9 -2.5 -22t-0.5 -24q0 -65 35 -106.5t107 -41.5z" />
    <glyph glyph-name="uni04DA" unicode="&#x4da;" horiz-adv-x="740" 
d="M377 35q55 0 100.5 20.5t81 58t60 91t38.5 119.5h-480q-2 -15 -3 -33.5t-1 -35.5q0 -99 51 -159.5t153 -60.5zM167 545q34 84 104.5 135.5t177.5 51.5q72 0 125.5 -24.5t88 -66t51.5 -96.5t17 -116q0 -105 -28.5 -187.5t-77.5 -140.5t-115 -88.5t-140 -30.5
q-63 0 -111 20t-81 56t-49.5 85.5t-16.5 107.5q0 20 2 49.5t6 54.5l3 22h543q1 14 1 27v27q0 50 -12.5 95t-39 78.5t-68.5 53.5t-101 20q-45 0 -79.5 -9.5t-60.5 -27.5t-46 -45t-36 -62zM370 795l19 87h67l-19 -87h-67zM534 795l19 87h68l-19 -87h-68z" />
    <glyph glyph-name="uni04DB" unicode="&#x4db;" horiz-adv-x="569" 
d="M481 312q0 36 -9 68t-27.5 56t-47 38t-67.5 14q-37 0 -64.5 -6.5t-48.5 -20t-36.5 -33.5t-27.5 -47l-52 12q27 70 86 107t144 37q51 0 90 -19t65.5 -50t39.5 -71.5t13 -82.5q0 -80 -22 -141.5t-60 -103.5t-88.5 -63.5t-108.5 -21.5q-48 0 -84.5 15.5t-60.5 42.5t-36 63.5
t-12 78.5q0 15 1.5 38.5t6.5 52.5h405q1 10 1 18v19zM265 31q79 0 133.5 50t73.5 144h-346q-2 -9 -2.5 -22t-0.5 -24q0 -65 35 -106.5t107 -41.5zM244 619l18 85h65l-18 -85h-65zM404 619l18 85h66l-18 -85h-66z" />
    <glyph glyph-name="uni04DC" unicode="&#x4dc;" horiz-adv-x="972" 
d="M563 400h36q53 0 97 30t84 90l60 90q40 61 79 82.5t89 21.5q8 0 16 -1t15 -2q7 -2 14 -3l-17 -52l-10 2t-10.5 1.5t-13.5 0.5q-16 0 -29 -2.5t-26.5 -10.5t-27.5 -23t-31 -41l-63 -94q-28 -41 -55.5 -68t-71.5 -44q23 -8 41 -27.5t37 -60.5l130 -289h-68l-106 245
q-12 28 -23.5 47t-26 30t-32.5 16t-44 5h-54l-73 -343h-61l72 343h-62q-25 0 -43.5 -4t-36 -15t-35.5 -30t-43 -49l-204 -245h-76l241 288q35 43 61.5 63t60.5 28q-29 14 -45 41t-27 68l-25 103q-11 42 -27 57t-45 15q-13 0 -23.5 -1t-25.5 -3l6 49q7 1 15 3q7 1 15.5 2
t16.5 1q25 0 44 -4.5t32.5 -15t23 -29.5t16.5 -47l25 -98q16 -62 44.5 -91t84.5 -29h45l66 314h61zM496 795l19 87h67l-19 -87h-67zM660 795l19 87h68l-19 -87h-68z" />
    <glyph glyph-name="uni04DD" unicode="&#x4dd;" horiz-adv-x="731" 
d="M357 287l49 234h57l-49 -234h23q42 0 71.5 18t57.5 60l47 70q15 22 28.5 38.5t28.5 27t33 15.5t42 5q7 0 14 -1t12 -2q6 -1 11 -2l-16 -47l-10 2t-10.5 1.5t-10.5 0.5q-26 0 -41.5 -14.5t-32.5 -40.5l-48 -73q-19 -29 -39.5 -46t-48.5 -29q18 -8 30.5 -23t23.5 -38
l100 -209h-63l-91 193q-12 26 -32 37.5t-55 11.5h-34l-51 -242h-57l51 242h-31q-31 0 -55.5 -11.5t-47.5 -37.5l-173 -193h-72l188 209q21 24 39.5 38t40.5 22q-20 8 -32.5 26t-20.5 50l-20 80q-6 23 -13.5 36.5t-33.5 13.5q-6 0 -12 -0.5t-11 -1.5q-6 -1 -11 -2l4 45
q6 1 13 2q6 1 12.5 2t14.5 1q23 0 37.5 -5t23.5 -15.5t15 -26.5t11 -38l17 -71q10 -42 35 -60t64 -18h28zM337 619l18 85h65l-18 -85h-65zM497 619l18 85h66l-18 -85h-66z" />
    </font>
</defs>
</svg>
