<?xml version="1.0" standalone="no"?>
<!DOCTYPE svg PUBLIC "-//W3C//DTD SVG 1.1//EN" "http://www.w3.org/Graphics/SVG/1.1/DTD/svg11.dtd" >
<svg xmlns="http://www.w3.org/2000/svg" xmlns:xlink="http://www.w3.org/1999/xlink" version="1.1">
<metadata>
Created by FontForge 20160405 at Thu Jul 14 03:22:20 2016
 By www-data
Copyright (c) 2010 Dalton Maag Ltd. All rights reserved. This font may not be altered in any way without prior permission of Dalton Maag Ltd.
</metadata>
<defs>
<font id="AktivGroteskCorp-MediumItalic" horiz-adv-x="592" >
  <font-face 
    font-family="Aktiv Grotesk Corp"
    font-weight="500"
    font-style="italic"
    font-stretch="normal"
    units-per-em="1000"
    panose-1="2 11 6 4 2 2 2 9 2 4"
    ascent="800"
    descent="-200"
    x-height="520"
    cap-height="714"
    bbox="-204 -223 1342 959"
    underline-thickness="80"
    underline-position="-213"
    slope="-12"
    unicode-range="U+0008-FB04"
  />
<missing-glyph horiz-adv-x="500" 
d="M50 0v750h400v-750h-400zM400 50v650h-300v-650h300z" />
    <glyph glyph-name="f_f" unicode="ff" horiz-adv-x="712" 
d="M288 520h125l-19 -90h-126l-91 -430h-113l91 430h-82l19 90h82l9 41q19 86 63 123.5t122 37.5q36 0 64 -7.5t40 -13.5l-32 -81q-11 5 -26.5 8.5t-35.5 3.5q-36 0 -55.5 -18t-27.5 -60zM644 520h125l-19 -90h-126l-91 -430h-113l91 430h-82l19 90h82l9 41q19 86 63 123.5
t122 37.5q36 0 64 -7.5t40 -13.5l-32 -81q-11 5 -26.5 8.5t-35.5 3.5q-36 0 -55.5 -18t-27.5 -60z" />
    <glyph glyph-name="f_i" unicode="fi" horiz-adv-x="602" 
d="M288 520h125l-19 -90h-126l-91 -430h-113l91 430h-82l19 90h82l9 41q19 86 63 123.5t122 37.5q36 0 64 -7.5t40 -13.5l-32 -81q-11 5 -26.5 8.5t-35.5 3.5q-36 0 -55.5 -18t-27.5 -60zM389 0l110 520h114l-110 -520h-114zM511 601l24 113h119l-24 -113h-119z" />
    <glyph glyph-name="f_l" unicode="fl" horiz-adv-x="602" 
d="M288 520h125l-19 -90h-126l-91 -430h-113l91 430h-82l19 90h82l9 41q19 86 63 123.5t122 37.5q36 0 64 -7.5t40 -13.5l-32 -81q-11 5 -26.5 8.5t-35.5 3.5q-36 0 -55.5 -18t-27.5 -60zM389 0l151 714h114l-151 -714h-114z" />
    <glyph glyph-name="f_f_i" unicode="ffi" horiz-adv-x="958" 
d="M745 0l110 520h114l-110 -520h-114zM867 601l24 113h119l-24 -113h-119zM288 520h125l-19 -90h-126l-91 -430h-113l91 430h-82l19 90h82l9 41q19 86 63 123.5t122 37.5q36 0 64 -7.5t40 -13.5l-32 -81q-11 5 -26.5 8.5t-35.5 3.5q-36 0 -55.5 -18t-27.5 -60zM644 520h125
l-19 -90h-126l-91 -430h-113l91 430h-82l19 90h82l9 41q19 86 63 123.5t122 37.5q36 0 64 -7.5t40 -13.5l-32 -81q-11 5 -26.5 8.5t-35.5 3.5q-36 0 -55.5 -18t-27.5 -60z" />
    <glyph glyph-name="f_f_l" unicode="ffl" horiz-adv-x="958" 
d="M745 0l151 714h114l-151 -714h-114zM288 520h125l-19 -90h-126l-91 -430h-113l91 430h-82l19 90h82l9 41q19 86 63 123.5t122 37.5q36 0 64 -7.5t40 -13.5l-32 -81q-11 5 -26.5 8.5t-35.5 3.5q-36 0 -55.5 -18t-27.5 -60zM644 520h125l-19 -90h-126l-91 -430h-113l91 430
h-82l19 90h82l9 41q19 86 63 123.5t122 37.5q36 0 64 -7.5t40 -13.5l-32 -81q-11 5 -26.5 8.5t-35.5 3.5q-36 0 -55.5 -18t-27.5 -60z" />
    <glyph glyph-name=".notdef" horiz-adv-x="500" 
d="M50 0v750h400v-750h-400zM400 50v650h-300v-650h300z" />
    <glyph glyph-name=".null" horiz-adv-x="0" 
 />
    <glyph glyph-name=".null" horiz-adv-x="0" 
 />
    <glyph glyph-name=".null" horiz-adv-x="0" 
 />
    <glyph glyph-name="nonmarkingreturn" unicode="&#x9;" horiz-adv-x="223" 
 />
    <glyph glyph-name="nonmarkingreturn" unicode="&#xd;" horiz-adv-x="223" 
 />
    <glyph glyph-name="space" unicode=" " horiz-adv-x="223" 
 />
    <glyph glyph-name="exclam" unicode="!" horiz-adv-x="252" 
d="M86 215l97 499h122l-114 -499h-105zM37 0l29 137h117l-29 -137h-117z" />
    <glyph glyph-name="quotedbl" unicode="&#x22;" horiz-adv-x="357" 
d="M186 449h-94l49 262h108zM361 449h-94l49 262h108z" />
    <glyph glyph-name="numbersign" unicode="#" 
d="M340 167h-130l-60 -167h-98l59 167h-85l16 84h100l64 176h-97l17 84h110l60 167h99l-61 -167h129l60 167h99l-60 -167h77l-17 -84h-90l-64 -176h85l-16 -84h-99l-60 -167h-99zM240 251h130l63 176h-129z" />
    <glyph glyph-name="dollar" unicode="$" 
d="M555 210q0 -115 -69.5 -171.5t-190.5 -56.5h-8l-21 -98h-66l22 104q-39 7 -73 22.5t-59 41.5t-40 64t-16 90h112q2 -54 24.5 -84.5t70.5 -41.5l49 228l-3 1q-93 22 -132 67.5t-39 114.5q0 51 18.5 91t52 68t81 43t106.5 15l19 87h66l-20 -92q79 -14 122.5 -64t51.5 -128
l-108 -13q-9 48 -27 76.5t-57 39.5l-47 -219l11 -2q91 -24 130.5 -70.5t39.5 -112.5zM353 293l-47 -219q36 0 61 9.5t41 26t23 38.5t7 48q0 13 -3 28t-12 28t-25 24t-42 17h-3zM228 505q0 -39 19.5 -61t64.5 -33l44 208q-69 -4 -98.5 -36.5t-29.5 -77.5z" />
    <glyph glyph-name="percent" unicode="%" horiz-adv-x="944" 
d="M320 0h-113l495 691h113zM311 708q31 0 58.5 -11.5t47.5 -33t31.5 -51.5t11.5 -67q0 -49 -13 -97.5t-40.5 -87t-69.5 -62.5t-100 -24q-33 0 -60 11t-47 32t-31 51t-11 68q0 48 13.5 96.5t41.5 87.5t70 63.5t98 24.5zM299 621q-30 0 -51.5 -18.5t-35 -46t-19.5 -60
t-6 -59.5q0 -77 61 -77q31 0 52.5 18.5t35 46t19.5 59.5t6 60q0 77 -62 77zM785 418q31 0 58.5 -11.5t47.5 -33t31.5 -51.5t11.5 -67q0 -49 -13 -97.5t-40.5 -87t-69.5 -62.5t-100 -24q-33 0 -60 11t-47 32t-31 51t-11 68q0 48 13.5 96.5t41.5 87.5t70 63.5t98 24.5z
M773 331q-30 0 -51.5 -18.5t-35 -46t-19.5 -60t-6 -59.5q0 -77 61 -77q31 0 52.5 18.5t35 46t19.5 59.5t6 60q0 77 -62 77z" />
    <glyph glyph-name="ampersand" unicode="&#x26;" horiz-adv-x="653" 
d="M282 -16q-55 0 -99 11.5t-75.5 34.5t-48.5 57t-17 78q0 42 12.5 74.5t38 59.5t62.5 50.5t87 47.5q-4 5 -6.5 9t-4.5 9q-14 25 -26 58t-12 65q0 39 12.5 72.5t36.5 58t60 38t84 13.5q40 0 70 -11.5t49.5 -30.5t29 -44t9.5 -51q0 -43 -13 -75t-35.5 -57t-53 -44t-64.5 -35
l114 -178q22 38 33 78t14 76h102q-5 -63 -27.5 -123.5t-65.5 -111.5l74 -113h-121l-29 44q-40 -28 -86.5 -44t-103.5 -16zM292 75q45 0 76.5 11.5t55.5 30.5l-138 212q-30 -15 -53.5 -29.5t-40.5 -32t-26 -39t-9 -49.5q0 -20 6 -38.5t21.5 -33t41.5 -23.5t66 -9zM295 545
q0 -28 12 -54t20 -41q2 -3 3.5 -6t3.5 -5q25 12 45.5 24.5t35 27.5t22.5 35t8 47q0 29 -17.5 46.5t-47.5 17.5q-38 0 -61.5 -23t-23.5 -69z" />
    <glyph glyph-name="quotesingle" unicode="'" horiz-adv-x="187" 
d="M192 449h-100l49 262h113z" />
    <glyph glyph-name="parenleft" unicode="(" horiz-adv-x="281" 
d="M395 734q-102 -134 -161.5 -288t-59.5 -327q0 -66 8 -123t30 -120h-107q-10 24 -19 55t-15.5 65.5t-10.5 70t-4 67.5q0 81 16 162t46 158t72.5 148t95.5 132h109z" />
    <glyph glyph-name="parenright" unicode=")" horiz-adv-x="281" 
d="M-52 -124q102 134 161.5 288t59.5 327q0 66 -8 123t-30 120h107q10 -24 18.5 -55t15.5 -65.5t11 -70t4 -67.5q0 -81 -16 -162t-46 -158t-72.5 -148t-95.5 -132h-109z" />
    <glyph glyph-name="asterisk" unicode="*" horiz-adv-x="403" 
d="M370 714l-45 -126l111 56l28 -91l-130 -30l77 -107l-81 -51l-57 111l-92 -109l-71 60l117 97l-112 35l44 89l99 -60l7 126h105z" />
    <glyph glyph-name="plus" unicode="+" 
d="M375 291l-41 -198h-103l42 198h-184l22 99h183l42 198h103l-42 -198h183l-21 -99h-184z" />
    <glyph glyph-name="comma" unicode="," horiz-adv-x="235" 
d="M-12 -95l81 235h115l-107 -235h-89z" />
    <glyph glyph-name="hyphen" unicode="-" horiz-adv-x="390" 
d="M64 239l24 113h296l-24 -113h-296z" />
    <glyph glyph-name="period" unicode="." horiz-adv-x="235" 
d="M24 0l29 139h121l-29 -139h-121z" />
    <glyph glyph-name="slash" unicode="/" horiz-adv-x="357" 
d="M89 0h-117l385 734h117z" />
    <glyph glyph-name="zero" unicode="0" 
d="M392 710q48 0 87 -16.5t67.5 -48t44 -77.5t15.5 -104q0 -49 -7 -103.5t-23 -108t-41.5 -102.5t-62 -86.5t-85 -59.5t-110.5 -22q-48 0 -87 16.5t-67.5 48t-44 77.5t-15.5 105q0 48 7.5 102.5t24 107.5t42.5 102.5t62.5 86.5t84.5 59.5t108 22.5zM385 610q-53 0 -91 -37.5
t-63 -94.5t-37 -124t-12 -127q0 -67 25 -106t77 -39t90.5 37t63.5 94t37 124t12 127q0 69 -25 107.5t-77 38.5z" />
    <glyph glyph-name="one" unicode="1" 
d="M252 0l119 562l-156 -82l-46 86l234 125h111l-146 -691h-116z" />
    <glyph glyph-name="two" unicode="2" 
d="M378 610q-59 0 -95 -25t-58 -91l-108 15q12 43 32 80t51.5 64t77 42t108.5 15q55 0 95 -15t65.5 -41t38 -60.5t12.5 -72.5q0 -51 -18 -92.5t-49.5 -78t-73 -70t-88.5 -68.5q-38 -28 -77.5 -56.5t-74.5 -54.5h307l-34 -101h-466l19 89q21 16 46.5 35.5t53.5 40t55.5 41
t51.5 38.5q46 35 87.5 67t73 63.5t50 65.5t18.5 74q0 48 -27.5 72t-72.5 24z" />
    <glyph glyph-name="three" unicode="3" 
d="M355 409q27 0 50.5 6t41.5 19.5t28 35t10 53.5q0 38 -27 63.5t-78 25.5q-63 0 -99 -23.5t-53 -84.5l-105 15q10 42 29.5 77t50.5 60.5t76 39.5t106 14q50 0 89.5 -12.5t67.5 -35t42.5 -54.5t14.5 -70q0 -66 -32 -112t-99 -69q47 -24 67 -63.5t20 -78.5
q0 -112 -64.5 -172.5t-190.5 -60.5q-56 0 -101 15.5t-77.5 44t-50 70t-17.5 93.5h115q2 -60 36.5 -92.5t97.5 -32.5q61 0 98 30.5t37 97.5q0 48 -27 74t-79 26h-80l22 101h81z" />
    <glyph glyph-name="four" unicode="4" 
d="M322 0l34 163h-319l18 85l409 443h112l-92 -436h92l-32 -92h-80l-34 -163h-108zM177 255h198l60 285z" />
    <glyph glyph-name="five" unicode="5" 
d="M179 189q3 -57 31 -82.5t88 -25.5q61 0 102 41.5t41 122.5q0 48 -25.5 79.5t-79.5 31.5q-44 0 -74.5 -13.5t-59.5 -39.5h-97l108 388h389l-20 -100h-293l-49 -181q32 20 63 29.5t69 9.5q44 0 78 -15.5t57 -42.5t35 -62t12 -74q0 -58 -16.5 -108t-49.5 -86.5t-82 -57.5
t-114 -21q-49 0 -90.5 12.5t-71.5 38t-47 64.5t-17 92h113z" />
    <glyph glyph-name="six" unicode="6" 
d="M508 527q-8 51 -32.5 69.5t-69.5 18.5q-65 0 -116 -56.5t-77 -176.5q35 39 75 53.5t88 14.5q44 0 79 -15t59 -41.5t36.5 -62t12.5 -76.5q0 -132 -70 -202.5t-194 -70.5q-57 0 -98.5 18t-68.5 50.5t-40.5 77.5t-13.5 99q0 45 8 98t25 106.5t43.5 104t64 89t86.5 62
t111 23.5q177 0 197 -165zM343 358q-32 0 -60.5 -10t-49.5 -30.5t-33.5 -51t-12.5 -71.5q0 -25 7.5 -46.5t22 -38t36 -26t50.5 -9.5q69 0 108.5 40t39.5 131q0 48 -27 80t-81 32z" />
    <glyph glyph-name="seven" unicode="7" 
d="M617 600q-106 -140 -199 -290.5t-168 -309.5h-126q47 91 87 164.5t81 141.5t87.5 136t106.5 149h-350l20 100h480z" />
    <glyph glyph-name="eight" unicode="8" 
d="M565 212q0 -59 -22 -102t-60 -71.5t-90.5 -42.5t-112.5 -14q-61 0 -105.5 14t-74 38t-44 56.5t-14.5 68.5q0 45 13.5 77.5t36 56t51 39.5t58.5 27q-33 19 -54 52.5t-21 78.5q0 46 17.5 86.5t51.5 70t84 46.5t116 17q52 0 92.5 -13.5t68 -37t41.5 -54.5t14 -65
q0 -38 -10.5 -67.5t-29 -52.5t-44 -39.5t-55.5 -28.5q38 -17 65.5 -53t27.5 -87zM348 399q31 0 59 6.5t49 21.5t33.5 39t12.5 59q0 18 -6.5 35t-20.5 30.5t-36 22t-52 8.5q-42 0 -71.5 -10.5t-47.5 -28t-26 -40.5t-8 -48q0 -38 28 -66.5t86 -28.5zM286 73q34 0 64 7t53 22.5
t36.5 41t13.5 63.5q0 20 -7 38t-22.5 31.5t-40 21.5t-58.5 8q-91 0 -130.5 -36.5t-39.5 -96.5q0 -41 31.5 -70.5t99.5 -29.5z" />
    <glyph glyph-name="nine" unicode="9" 
d="M160 163q8 -52 37 -68.5t77 -16.5q72 0 119 60.5t66 175.5q-35 -39 -75.5 -55t-88.5 -16q-45 0 -80.5 15.5t-61 42.5t-39 63t-13.5 77q0 61 18 110.5t51.5 84.5t82 54.5t110.5 19.5q103 0 162 -63.5t59 -189.5q0 -45 -5.5 -97.5t-19.5 -105.5t-37 -102t-58.5 -87
t-84 -60.5t-113.5 -22.5q-97 0 -153 43.5t-62 137.5h109zM322 335q31 0 59 9t49 28t33.5 48t12.5 70q0 25 -7.5 48.5t-21.5 40.5t-35.5 27.5t-49.5 10.5q-66 0 -107 -39t-41 -123q0 -23 6 -44.5t18.5 -38.5t33 -27t50.5 -10z" />
    <glyph glyph-name="colon" unicode=":" horiz-adv-x="235" 
d="M105 381l29 139h121l-29 -139h-121zM24 0l29 139h121l-29 -139h-121z" />
    <glyph glyph-name="semicolon" unicode=";" horiz-adv-x="235" 
d="M-12 -95l81 235h115l-107 -235h-89zM105 381l29 139h121l-29 -139h-121z" />
    <glyph glyph-name="less" unicode="&#x3c;" 
d="M104 295l18 88l498 205l-23 -111l-356 -140l296 -145l-23 -102z" />
    <glyph glyph-name="equal" unicode="=" 
d="M84 180l21 100h436l-21 -100h-436zM129 402l21 100h435l-21 -100h-435z" />
    <glyph glyph-name="greater" unicode="&#x3e;" 
d="M565 383l-19 -88l-497 -205l23 114l355 138l-295 146l23 100z" />
    <glyph glyph-name="question" unicode="?" horiz-adv-x="507" 
d="M554 562q0 -36 -9 -64t-24.5 -50.5t-36 -41.5t-43.5 -38q-20 -17 -39.5 -32t-36 -30.5t-28 -33.5t-15.5 -42l-3 -15h-112l3 19q6 30 17 52t27 40.5t36.5 36t46.5 37.5q21 16 39 31t31.5 32.5t21.5 38t8 47.5q-1 37 -25 59t-69 22q-25 0 -46.5 -5t-39.5 -17.5t-32 -34.5
t-24 -56l-101 14q12 44 31.5 80t49.5 61.5t72.5 39.5t100.5 14q45 0 82 -12t63.5 -33.5t40.5 -52t14 -66.5zM163 0l29 137h117l-29 -137h-117z" />
    <glyph glyph-name="at" unicode="@" horiz-adv-x="979" 
d="M717 73q38 0 67 19.5t48.5 54t29.5 82t10 104.5q0 63 -22 113t-62 84.5t-97 53t-127 18.5q-93 0 -168 -31t-128.5 -86.5t-82.5 -133t-29 -170.5q0 -65 19.5 -122.5t59 -100.5t99.5 -68t140 -25q85 0 143.5 19t100.5 64h107q-54 -88 -141 -126.5t-217 -38.5
q-90 0 -164.5 28t-128.5 79t-84 123.5t-30 162.5q0 105 35.5 197.5t101.5 161.5t160 108.5t211 39.5q86 0 158.5 -25t125 -70.5t81.5 -109.5t29 -141q0 -72 -16 -134.5t-48.5 -108.5t-81 -72t-114.5 -26q-51 0 -77.5 17t-34.5 59q-33 -45 -71 -64t-83 -19q-42 0 -72 15
t-49.5 40.5t-28.5 59t-9 71.5q0 62 18 115t50.5 92t76 61t94.5 22q38 0 69.5 -16.5t53.5 -53.5l12 59h102l-70 -331q-1 -3 -1 -15q0 -15 8 -25t27 -10zM461 78q38 0 64 18.5t43 47.5q22 40 30 87l7 45q1 5 1 11v11q0 17 -4.5 32.5t-16.5 27.5q-11 11 -26 17t-36 6
q-26 0 -50.5 -13.5t-44 -38t-31 -60t-11.5 -80.5q0 -111 75 -111z" />
    <glyph glyph-name="A" unicode="A" horiz-adv-x="686" 
d="M521 714l121 -714h-124l-28 182h-278l-105 -182h-130l424 714h120zM266 283h211l-44 294z" />
    <glyph glyph-name="B" unicode="B" horiz-adv-x="640" 
d="M662 552q0 -74 -36.5 -116t-102.5 -65q48 -23 71 -59.5t23 -82.5q0 -52 -18 -94t-55.5 -72t-95.5 -46.5t-137 -16.5h-268l151 714h238q65 0 109 -13.5t71 -36t38.5 -52t11.5 -60.5zM390 421q29 0 56.5 5t48.5 18t33.5 35t12.5 56q0 37 -27 60t-98 23h-126l-41 -197h141z
M179 97h141q95 0 136 33t41 98q0 45 -30 69.5t-97 24.5h-142z" />
    <glyph glyph-name="C" unicode="C" horiz-adv-x="712" 
d="M610 473q-10 76 -44 115.5t-110 39.5q-57 0 -102 -26t-76.5 -70.5t-48.5 -103.5t-17 -125q0 -45 9.5 -84.5t30 -69t53 -46.5t78.5 -17q83 0 126.5 40.5t57.5 111.5h131q-12 -57 -36 -104.5t-62.5 -81t-94 -52t-130.5 -18.5q-72 0 -126 23.5t-90.5 65.5t-54.5 99t-18 125
q0 86 26 165t74.5 139.5t118 96.5t156.5 36q66 0 114.5 -17t81.5 -48.5t50.5 -76.5t22.5 -100z" />
    <glyph glyph-name="D" unicode="D" horiz-adv-x="726" 
d="M43 0l151 714h234q68 0 122.5 -22.5t92.5 -62t58 -92.5t20 -114q0 -95 -27.5 -173t-82.5 -133.5t-137.5 -86t-191.5 -30.5h-239zM297 103q76 0 132.5 23t93.5 65t55 100t18 129q0 39 -11 74t-33.5 61t-56 41t-78.5 15h-126l-107 -508h113z" />
    <glyph glyph-name="E" unicode="E" horiz-adv-x="599" 
d="M292 610l-40 -190h334l-22 -105h-334l-45 -211h375l-36 -104h-481l151 714h474l-21 -104h-355z" />
    <glyph glyph-name="F" unicode="F" horiz-adv-x="574" 
d="M292 610l-43 -202h316l-23 -105h-315l-64 -303h-120l151 714h456l-22 -104h-336z" />
    <glyph glyph-name="G" unicode="G" horiz-adv-x="721" 
d="M609 502q-11 67 -47.5 97t-102.5 30q-60 0 -106.5 -27t-78 -72.5t-48 -104.5t-16.5 -123q0 -44 10 -83.5t31 -69t54 -47t79 -17.5q57 0 96.5 12.5t68.5 32.5l31 147h-158l22 102h271l-66 -303q-42 -38 -110.5 -66t-162.5 -28q-73 0 -127.5 24t-91 66t-54.5 98.5
t-18 122.5q0 86 25.5 165.5t75 140t120.5 97t163 36.5q115 0 180.5 -55t77.5 -158z" />
    <glyph glyph-name="H" unicode="H" horiz-adv-x="715" 
d="M485 0l66 313h-321l-66 -313h-121l151 714h121l-61 -289h321l61 289h121l-151 -714h-121z" />
    <glyph glyph-name="I" unicode="I" horiz-adv-x="272" 
d="M43 0l151 714h121l-151 -714h-121z" />
    <glyph glyph-name="J" unicode="J" horiz-adv-x="617" 
d="M564 229q-14 -65 -38 -112t-59.5 -77t-82.5 -44t-107 -14q-51 0 -94 13t-73.5 38.5t-48 64.5t-17.5 90q0 10 0.5 20.5t2.5 21.5h119q-1 -7 -1 -12.5v-11.5q0 -26 5.5 -47.5t19 -38t37 -25.5t58.5 -9q37 0 64 11.5t45.5 33t31 52t21.5 69.5l98 462h121z" />
    <glyph glyph-name="K" unicode="K" horiz-adv-x="662" 
d="M349 370l-129 -107l-56 -263h-121l151 714h121l-65 -307l359 307h139l-304 -273l179 -441h-131z" />
    <glyph glyph-name="L" unicode="L" horiz-adv-x="573" 
d="M43 0l151 714h121l-129 -609h354l-38 -105h-459z" />
    <glyph glyph-name="M" unicode="M" horiz-adv-x="853" 
d="M194 714h143l85 -568l327 568h146l-151 -714h-111l110 519l-303 -519h-95l-83 518l-110 -518h-109z" />
    <glyph glyph-name="N" unicode="N" horiz-adv-x="710" 
d="M500 0l-230 518l-110 -518h-117l151 714h102l228 -520l110 520h118l-151 -714h-101z" />
    <glyph glyph-name="O" unicode="O" horiz-adv-x="772" 
d="M482 732q66 0 119 -21.5t89.5 -60.5t56.5 -94t20 -122q0 -86 -25 -167.5t-74.5 -144.5t-123 -101.5t-169.5 -38.5q-66 0 -119.5 21.5t-91 60.5t-57.5 94t-20 122q0 85 26 166.5t76.5 145t124 102t168.5 38.5zM473 628q-65 0 -114 -30t-81.5 -79t-49 -110t-16.5 -123
q0 -91 42.5 -145.5t127.5 -54.5q64 0 113 30t81.5 79t49 110t16.5 124q0 45 -10.5 81.5t-32 62.5t-53 40.5t-73.5 14.5z" />
    <glyph glyph-name="P" unicode="P" horiz-adv-x="633" 
d="M667 524q0 -68 -22 -116.5t-63.5 -80t-100 -46.5t-131.5 -15h-132l-56 -266h-119l151 714h239q65 0 109.5 -17.5t72.5 -45t40 -61.5t12 -66zM363 367q40 0 74 7t58.5 24t38 46t13.5 73q0 20 -7 38t-23 31t-41 20.5t-62 7.5h-123l-52 -247h124z" />
    <glyph glyph-name="Q" unicode="Q" horiz-adv-x="772" 
d="M531 14q-34 -15 -72.5 -23.5t-83.5 -8.5q-66 0 -119.5 21.5t-91 60.5t-57.5 94t-20 122q0 85 26 166.5t76.5 145t124 102t168.5 38.5q66 0 119 -21.5t89.5 -60.5t56.5 -94t20 -122q0 -54 -10 -106t-29.5 -99.5t-48 -89t-66.5 -73.5l62 -102l-82 -52zM473 628
q-65 0 -114 -30t-81.5 -79t-49 -110t-16.5 -123q0 -91 42.5 -145.5t127.5 -54.5q49 0 94 20l-69 116l81 52l66 -110q45 51 66.5 121.5t21.5 143.5q0 45 -10.5 81.5t-32 62.5t-53 40.5t-73.5 14.5z" />
    <glyph glyph-name="R" unicode="R" horiz-adv-x="644" 
d="M162 0h-119l151 714h231q68 0 114 -17t74.5 -44t40.5 -62t12 -71q0 -88 -44.5 -140t-119.5 -74l86 -306h-128l-71 283q-10 -1 -20.5 -1h-21.5h-126zM379 384q36 0 66.5 6.5t52.5 22t34 41.5t12 64q0 19 -6.5 36.5t-22 30.5t-41 21t-63.5 8h-120l-48 -230h136z" />
    <glyph glyph-name="S" unicode="S" horiz-adv-x="644" 
d="M607 221q0 -62 -20 -107t-57 -74t-89.5 -43.5t-117.5 -14.5q-53 0 -103.5 11t-90.5 38t-64.5 72.5t-26.5 114.5h122q6 -69 45.5 -101.5t126.5 -32.5q40 0 68.5 9.5t46.5 26t26 39t8 49.5q0 30 -20 56.5t-72 37.5l-86 18q-94 19 -138.5 66t-44.5 119q0 58 20 101t56.5 71
t89 41.5t117.5 13.5q117 0 183 -52.5t75 -154.5l-116 -16q-8 63 -42.5 93t-106.5 30q-44 0 -73.5 -9t-47 -24t-25 -34t-7.5 -38q0 -42 22.5 -65t73.5 -34l86 -19q51 -12 86 -30.5t56.5 -42.5t30.5 -53t9 -62z" />
    <glyph glyph-name="T" unicode="T" horiz-adv-x="610" 
d="M462 609l-129 -609h-121l129 609h-226l22 105h572l-22 -105h-225z" />
    <glyph glyph-name="U" unicode="U" horiz-adv-x="688" 
d="M330 -18q-56 0 -101.5 13.5t-78.5 40.5t-51 68.5t-18 97.5q0 43 10 87l90 425h120l-90 -428q-10 -39 -10 -74q0 -66 34 -96t103 -30q43 0 73.5 12.5t52.5 37.5t36.5 62.5t25.5 87.5l91 428h121l-90 -428q-17 -80 -43.5 -137.5t-65 -94.5t-90.5 -54.5t-119 -17.5z" />
    <glyph glyph-name="V" unicode="V" horiz-adv-x="682" 
d="M366 0h-117l-120 714h129l83 -550l314 550h133z" />
    <glyph glyph-name="W" unicode="W" horiz-adv-x="950" 
d="M709 0h-121l-26 562l-262 -562h-118l-53 714h134l16 -542l249 538h128l26 -537l244 541h130z" />
    <glyph glyph-name="X" unicode="X" horiz-adv-x="661" 
d="M441 370l180 -370h-133l-132 284l-243 -284h-138l330 379l-162 335h132l113 -251l219 251h136z" />
    <glyph glyph-name="Y" unicode="Y" horiz-adv-x="635" 
d="M129 714h130l108 -310l240 310h134l-332 -417l-62 -297h-121l63 297z" />
    <glyph glyph-name="Z" unicode="Z" horiz-adv-x="586" 
d="M523 0h-528l18 90l486 520h-370l22 104h520l-19 -91l-484 -518h391z" />
    <glyph glyph-name="bracketleft" unicode="[" horiz-adv-x="308" 
d="M13 -124l183 858h225l-21 -97h-110l-141 -664h110l-21 -97h-225z" />
    <glyph glyph-name="backslash" unicode="\" horiz-adv-x="357" 
d="M314 0h-109l-73 734h109z" />
    <glyph glyph-name="bracketright" unicode="]" horiz-adv-x="308" 
d="M358 734l-183 -858h-225l21 97h110l141 664h-110l21 97h225z" />
    <glyph glyph-name="asciicircum" unicode="^" 
d="M460 299l-72 279l-191 -279h-121l290 413h94l115 -413h-115z" />
    <glyph glyph-name="underscore" unicode="_" horiz-adv-x="500" 
d="M-70 -175l11 52h499l-11 -52h-499z" />
    <glyph glyph-name="grave" unicode="`" horiz-adv-x="403" 
d="M303 593l-113 148h126l88 -148h-101z" />
    <glyph glyph-name="a" unicode="a" horiz-adv-x="549" 
d="M182 -13q-69 0 -110 36.5t-41 105.5q0 56 24 92t64 57t92 30t108 11l95 4l3 16q3 18 3 34q0 36 -21 56t-69 20q-54 0 -82 -14.5t-43 -56.5l-103 11q25 80 84 113.5t156 33.5q91 0 139 -41.5t49 -116.5q0 -14 -2 -29t-5 -31l-68 -318h-108l14 68q-36 -36 -76 -58.5
t-103 -22.5zM397 247l-77 -4q-50 -3 -84 -10.5t-54 -20.5t-28.5 -31.5t-8.5 -42.5q0 -26 18 -44.5t55 -18.5q31 0 59 9.5t50.5 26t38 40t21.5 52.5z" />
    <glyph glyph-name="b" unicode="b" horiz-adv-x="610" 
d="M329 -16q-57 0 -99.5 21.5t-71.5 72.5l-16 -78h-111l151 714h114l-55 -262q31 38 72.5 61t95.5 23q48 0 82.5 -18t57 -49t33 -71t10.5 -85q0 -67 -19.5 -126.5t-54 -104.5t-83 -71.5t-106.5 -26.5zM195 253q-4 -16 -5 -29.5t-1 -27.5q0 -54 30 -86.5t90 -32.5
q39 0 69.5 19.5t51.5 52.5t32 75.5t11 88.5q0 63 -28 96t-73 33q-31 0 -58.5 -11.5t-50 -32t-38 -48t-22.5 -59.5z" />
    <glyph glyph-name="c" unicode="c" horiz-adv-x="564" 
d="M444 337q-4 46 -25 76.5t-75 30.5q-35 0 -64.5 -16t-51 -46.5t-34 -75t-12.5 -101.5t26.5 -93t86.5 -36q54 0 84.5 27.5t42.5 76.5h115q-20 -94 -81 -145t-173 -51q-52 0 -92.5 16.5t-68.5 46t-43 69.5t-15 88q0 80 23 142t62.5 104t93 64t114.5 22q50 0 86.5 -14
t61 -38.5t37.5 -58t16 -72.5z" />
    <glyph glyph-name="d" unicode="d" horiz-adv-x="609" 
d="M325 536q54 0 95.5 -22t69.5 -70l58 270h114l-152 -714h-111l14 68q-33 -42 -73.5 -63t-91.5 -21q-48 0 -83.5 17.5t-59 47.5t-35 70.5t-11.5 86.5q0 67 20 127t55.5 105t84 71.5t106.5 26.5zM456 271q6 27 6 54q0 44 -27 77q-15 19 -38 30t-56 11q-39 0 -69 -19
t-51 -51.5t-32 -75.5t-11 -91q0 -57 26.5 -93t80.5 -36q52 0 96 36q25 21 41.5 48t25.5 69z" />
    <glyph glyph-name="e" unicode="e" horiz-adv-x="580" 
d="M344 449q-54 0 -95.5 -31.5t-59.5 -106.5h257q3 15 3 31q0 49 -27 78t-78 29zM179 232q-1 -4 -1.5 -12.5t-0.5 -14.5q0 -27 7 -51t21.5 -42t37.5 -28.5t55 -10.5q54 0 81 19.5t40 61.5h111q-11 -41 -30 -73t-48 -53.5t-69.5 -32.5t-95.5 -11q-53 0 -94.5 16.5t-70 46
t-43.5 70t-15 88.5q0 79 22 141t60.5 104t91.5 64t116 22q49 0 87 -15t64 -41.5t39.5 -63t13.5 -79.5q0 -17 -2.5 -40.5t-6.5 -46.5l-3 -18h-367z" />
    <glyph glyph-name="f" unicode="f" horiz-adv-x="356" 
d="M288 520h125l-19 -90h-126l-91 -430h-113l91 430h-82l19 90h82l9 41q19 86 63 123.5t122 37.5q36 0 64 -7.5t40 -13.5l-32 -81q-11 5 -26.5 8.5t-35.5 3.5q-36 0 -55.5 -18t-27.5 -60z" />
    <glyph glyph-name="g" unicode="g" horiz-adv-x="609" 
d="M458 274q5 20 5 37q0 61 -27 96.5t-93 35.5q-39 0 -69 -19.5t-50.5 -50.5t-31 -70.5t-10.5 -79.5q0 -58 27.5 -88.5t75.5 -30.5q62 0 107.5 39t59.5 105zM527 78q-14 -65 -32.5 -117.5t-49 -89.5t-78.5 -56.5t-122 -19.5q-114 0 -166 43t-55 122h114q7 -42 32 -58.5
t84 -16.5q39 0 65.5 13t44 36t28 54.5t18.5 69.5l7 32q-33 -42 -74 -59.5t-93 -17.5q-47 0 -82.5 16t-58.5 44t-34.5 66.5t-11.5 83.5q0 56 18 111.5t52 100t82.5 72t109.5 27.5t100.5 -21t69.5 -69l16 76h111z" />
    <glyph glyph-name="h" unicode="h" horiz-adv-x="581" 
d="M373 440q-50 0 -100 -38q-22 -17 -40 -40.5t-23 -51.5l-65 -310h-114l151 714h114l-57 -265q42 48 86 67.5t89 19.5q73 0 111.5 -39.5t38.5 -109.5q0 -32 -7 -61l-69 -326h-114l67 314q2 13 3.5 24t1.5 22q0 38 -18 59t-55 21z" />
    <glyph glyph-name="i" unicode="i" horiz-adv-x="246" 
d="M33 0l110 520h114l-110 -520h-114zM155 601l24 113h119l-24 -113h-119z" />
    <glyph glyph-name="j" unicode="j" horiz-adv-x="246" 
d="M155 601l24 113h119l-24 -113h-119zM143 520h114l-116 -541q-9 -42 -22.5 -73t-33.5 -51.5t-49 -30.5t-69 -10q-33 0 -59.5 6t-48.5 15l34 86q12 -5 27.5 -9t35.5 -4q31 0 47.5 17.5t25.5 59.5z" />
    <glyph glyph-name="k" unicode="k" horiz-adv-x="550" 
d="M31 0l151 714h113l-83 -392l256 198h139l-226 -181l132 -339h-118l-103 279l-107 -80l-41 -199h-113z" />
    <glyph glyph-name="l" unicode="l" horiz-adv-x="246" 
d="M33 0l151 714h114l-151 -714h-114z" />
    <glyph glyph-name="m" unicode="m" horiz-adv-x="868" 
d="M345 0l67 312q3 17 5 32t2 26q0 37 -17 53.5t-47 16.5q-24 0 -47.5 -11.5t-43.5 -30t-34.5 -42t-19.5 -48.5l-65 -308h-114l110 520h111l-15 -74q42 48 82.5 69t78.5 21q107 0 129 -94q48 54 92 74t92 20q66 0 103 -37.5t37 -101.5q0 -33 -9 -75l-68 -322h-114l67 311
q3 16 5 32t2 28q0 36 -17 52.5t-46 16.5q-26 0 -48 -9t-44 -26q-20 -17 -33.5 -38t-18.5 -48l-68 -319h-114z" />
    <glyph glyph-name="n" unicode="n" horiz-adv-x="581" 
d="M374 0l67 314q2 13 3.5 24t1.5 22q0 38 -18 59t-55 21q-50 0 -100 -38q-22 -17 -40 -40.5t-23 -51.5l-65 -310h-114l110 520h111l-16 -75q42 49 87 70t91 21q73 0 111.5 -39.5t38.5 -109.5q0 -32 -7 -61l-69 -326h-114z" />
    <glyph glyph-name="o" unicode="o" horiz-adv-x="609" 
d="M368 536q51 0 91.5 -17t69.5 -46t44.5 -69.5t15.5 -86.5q0 -79 -22.5 -141t-63 -104.5t-96 -65t-121.5 -22.5q-50 0 -91 17t-70 46t-45 69t-16 87q0 78 23.5 139.5t64.5 104.5t96.5 66t119.5 23zM360 444q-38 0 -70.5 -16.5t-56.5 -47.5t-37.5 -75.5t-13.5 -99.5
q0 -60 29 -94.5t83 -34.5q38 0 70.5 16.5t56 47t37 74.5t13.5 100q0 60 -28.5 95t-82.5 35z" />
    <glyph glyph-name="p" unicode="p" horiz-adv-x="610" 
d="M238 451q31 39 74 62t97 23q48 0 82.5 -17.5t57 -48t33 -71.5t10.5 -87q0 -67 -19.5 -126.5t-54.5 -104.5t-83 -71t-106 -26q-57 0 -98 21t-70 69l-57 -268h-114l151 714h111zM195 253q-4 -15 -5 -29t-1 -27q0 -54 30 -87t90 -33q39 0 69.5 19.5t51.5 52.5t32 75.5
t11 88.5q0 63 -28 96t-73 33q-31 0 -58.5 -11.5t-50 -32t-38 -48t-22.5 -59.5z" />
    <glyph glyph-name="q" unicode="q" horiz-adv-x="610" 
d="M511 520h110l-152 -714h-114l54 257q-32 -38 -70.5 -58.5t-89.5 -20.5q-49 0 -84.5 17.5t-59 48t-34.5 71.5t-11 88q1 67 21 126.5t55 104t83.5 70.5t105.5 26q55 0 98.5 -22t70.5 -73zM457 271q6 27 6 53q0 43 -27 78q-15 19 -38.5 30t-56.5 11q-39 0 -69 -19
t-50.5 -51.5t-31.5 -75.5t-11 -91q0 -57 26 -93t80 -36q53 0 97 36q25 21 41.5 48t25.5 69z" />
    <glyph glyph-name="r" unicode="r" horiz-adv-x="393" 
d="M412 420q-10 2 -21 3.5t-28 1.5q-20 0 -44 -6.5t-47 -23.5q-24 -20 -40.5 -42t-22.5 -51l-64 -302h-114l110 520h111l-16 -77q39 46 76 65.5t82 19.5q17 0 28.5 -1.5t19.5 -3.5z" />
    <glyph glyph-name="s" unicode="s" horiz-adv-x="530" 
d="M482 154q0 -48 -19 -80.5t-50.5 -52.5t-74 -28.5t-88.5 -8.5q-41 0 -80 8.5t-69 29t-49 53.5t-20 82h109q3 -49 35 -66.5t83 -17.5q57 0 82.5 19.5t25.5 54.5q0 26 -14.5 41.5t-53.5 23.5l-57 12q-82 18 -115 54t-33 90q0 43 17 74.5t47 52.5t70.5 31t87.5 10q42 0 78 -9
t63 -27.5t43.5 -48t20.5 -70.5l-104 -14q-6 38 -28.5 60t-76.5 22q-33 0 -54 -6.5t-33 -16.5t-16.5 -22.5t-4.5 -24.5q0 -26 17 -40.5t60 -23.5l57 -12q80 -17 112 -54.5t32 -94.5z" />
    <glyph glyph-name="t" unicode="t" horiz-adv-x="363" 
d="M211 166l-3.5 -17.5t-1.5 -15.5q0 -29 14.5 -40t39.5 -11q18 0 33.5 2.5t28.5 6.5l17 -85q-48 -16 -105 -16q-69 0 -106 31t-37 94q0 28 7 55l55 260h-81l19 90h81l30 140h114l-30 -140h128l-19 -90h-128z" />
    <glyph glyph-name="u" unicode="u" horiz-adv-x="574" 
d="M250 520l-68 -319q-5 -28 -5 -45q0 -35 17 -55.5t54 -20.5q28 0 49 9t44 28q21 16 40 41t25 55l65 307h114l-109 -520h-112l16 75q-42 -49 -84.5 -70t-88.5 -21q-75 0 -111 40t-36 107q0 31 7 63l69 326h114z" />
    <glyph glyph-name="v" unicode="v" horiz-adv-x="544" 
d="M178 0l-96 520h127l53 -392l220 392h129l-316 -520h-117z" />
    <glyph glyph-name="w" unicode="w" horiz-adv-x="753" 
d="M123 0l-42 520h124l6 -380l188 376h105l27 -376l170 380h120l-262 -520h-114l-24 378l-186 -378h-112z" />
    <glyph glyph-name="x" unicode="x" horiz-adv-x="525" 
d="M354 269l129 -269h-125l-88 191l-162 -191h-132l247 276l-121 244h127l75 -169l146 169h127z" />
    <glyph glyph-name="y" unicode="y" horiz-adv-x="545" 
d="M82 520h126l66 -375l208 375h130l-335 -552q-24 -40 -44.5 -70.5t-43 -50.5t-49.5 -30.5t-64 -10.5q-25 0 -45.5 4.5t-40.5 12.5l30 86q11 -4 25 -7.5t30 -3.5q30 0 48.5 16.5t41.5 55.5l30 51z" />
    <glyph glyph-name="z" unicode="z" horiz-adv-x="484" 
d="M424 0h-424l17 80l345 350h-267l19 90h414l-16 -80l-345 -350h287z" />
    <glyph glyph-name="braceleft" unicode="{" horiz-adv-x="310" 
d="M66 353h7q34 0 53 18.5t27 53.5l37 173q16 76 56.5 106t103.5 30h78l-20 -95h-49q-29 0 -43.5 -12t-19.5 -37l-41 -191q-7 -31 -25.5 -57t-55.5 -37q25 -8 34.5 -25.5t9.5 -39.5q0 -14 -3 -29l-40 -191q-3 -11 -3 -18q0 -15 8.5 -23t30.5 -8h55l-21 -95h-74
q-54 0 -82 24.5t-28 72.5q0 22 4 39l37 173q2 7 2 13v12q0 23 -12 35t-40 12h-6z" />
    <glyph glyph-name="bar" unicode="|" horiz-adv-x="252" 
d="M12 -124l183 858h108l-183 -858h-108z" />
    <glyph glyph-name="braceright" unicode="}" horiz-adv-x="310" 
d="M307 257h-7q-34 0 -53 -18.5t-27 -53.5l-37 -173q-16 -76 -57 -106t-103 -30h-78l20 95h49q29 0 43.5 12t19.5 37l41 191q7 31 25.5 57t55.5 37q-25 8 -34.5 25.5t-9.5 39.5q0 14 3 29l40 191q3 10 3 18q0 15 -8.5 23t-30.5 8h-55l21 95h74q54 0 82 -24.5t28 -72.5
q0 -22 -4 -39l-37 -173q-2 -7 -2 -13v-12q0 -23 12 -35t40 -12h6z" />
    <glyph glyph-name="asciitilde" unicode="~" 
d="M603 424q-6 -59 -21 -96t-37.5 -59t-51 -30t-60.5 -8q-34 0 -60 14t-48.5 31.5t-43 31.5t-43.5 14q-32 0 -49.5 -17t-25.5 -67h-101q6 59 21 96.5t37 59t50.5 29.5t60.5 8q34 0 60 -14t48.5 -30.5t43 -30.5t43.5 -14q32 0 49.5 17t26.5 65h101z" />
    <glyph glyph-name="uni00A0" unicode="&#xa0;" horiz-adv-x="223" 
 />
    <glyph glyph-name="exclamdown" unicode="&#xa1;" horiz-adv-x="252" 
d="M259 520l-29 -138h-116l28 138h117zM209 304l-96 -498h-122l113 498h105z" />
    <glyph glyph-name="cent" unicode="&#xa2;" 
d="M473 429q-3 35 -15.5 60t-42.5 36l-75 -353q48 5 74 32t37 72h115q-20 -93 -78.5 -143.5t-166.5 -52.5l-19 -90h-66l20 95q-78 17 -120.5 73.5t-42.5 134.5q0 77 21 137t58.5 102t88.5 65.5t110 26.5l19 89h65l-20 -93q75 -13 110.5 -60t41.5 -116zM210 297
q0 -42 15.5 -73t50.5 -44l75 350q-64 -9 -102.5 -69.5t-38.5 -163.5z" />
    <glyph glyph-name="sterling" unicode="&#xa3;" 
d="M287 302q-2 -60 -24.5 -109t-73.5 -94h356l-34 -99h-463l18 85q48 40 75.5 81.5t34.5 92.5q2 10 3 21t1 22h-87l20 90h61q-2 15 -4 36t-2 41q0 118 58.5 179.5t175.5 61.5q87 0 137 -41t62 -132l-99 -15q-9 51 -34 72.5t-70 21.5q-38 0 -62 -11.5t-38 -31t-19 -46
t-5 -56.5q0 -20 2 -39.5t4 -39.5h221l-19 -90h-195z" />
    <glyph glyph-name="currency" unicode="&#xa4;" 
d="M369 586q33 0 61.5 -10t51.5 -27l67 61l58 -70l-68 -58q9 -19 14.5 -40t5.5 -44q0 -63 -17 -113t-46 -87l52 -63l-74 -62l-50 63q-55 -31 -127 -31q-34 0 -62.5 9.5t-51.5 26.5l-68 -61l-60 71l70 60q-17 36 -17 82q0 63 17.5 114t49.5 88l-50 63l73 61l50 -63
q27 14 57.5 22t63.5 8zM361 504q-32 0 -60.5 -13.5t-50 -39.5t-34 -64.5t-12.5 -88.5q0 -51 25.5 -81t73.5 -30q33 0 62 13.5t50.5 39.5t34 64.5t12.5 88.5q0 49 -25 80t-76 31z" />
    <glyph glyph-name="yen" unicode="&#xa5;" 
d="M345 146l-30 -146h-112l30 146h-173l18 82h173l14 68l-3 14h-170l18 83h119l-105 298h117l97 -305l225 305h119l-230 -298h119l-17 -83h-168l-9 -14l-14 -68h176l-17 -82h-177z" />
    <glyph glyph-name="brokenbar" unicode="&#xa6;" horiz-adv-x="252" 
d="M122 390l73 344h108l-73 -344h-108zM195 225l-75 -349h-108l75 349h108z" />
    <glyph glyph-name="section" unicode="&#xa7;" horiz-adv-x="543" 
d="M249 -121q-111 0 -169 49t-61 142h112q1 -21 7.5 -39.5t20 -32t36.5 -21t57 -7.5t56 6.5t35 18t17.5 27t4.5 34.5q0 21 -13.5 40.5t-53.5 30.5l-79 21q-73 19 -107 57t-34 89q0 54 24 92t87 57q-31 17 -44.5 46.5t-13.5 64.5q0 90 64.5 134t173.5 44q58 0 97 -14.5
t63.5 -37.5t37 -50.5t17.5 -54.5l-104 -23q-8 38 -35 63t-85 25q-34 0 -56.5 -6t-36 -16.5t-19 -25.5t-5.5 -32q0 -20 12.5 -38.5t50.5 -29.5l91 -25q73 -20 102 -56.5t29 -85.5q0 -54 -23.5 -92t-87.5 -58q32 -17 45 -48t13 -64q0 -98 -60 -141t-166 -43zM316 399
q-20 5 -43 5q-19 0 -36 -6t-30.5 -18t-21.5 -31t-8 -45q0 -22 14.5 -42.5t55.5 -31.5l35 -10q10 -3 23.5 -4.5t25.5 -1.5q19 0 36.5 5.5t31 17.5t22 30.5t8.5 44.5q0 22 -14.5 42.5t-55.5 32.5z" />
    <glyph glyph-name="dieresis" unicode="&#xa8;" horiz-adv-x="403" 
d="M135 612l23 112h109l-23 -112h-109zM323 612l24 112h109l-23 -112h-110z" />
    <glyph glyph-name="copyright" unicode="&#xa9;" horiz-adv-x="775" 
d="M424 714q76 0 138.5 -25.5t107.5 -72t70 -112.5t25 -147t-26.5 -147t-72.5 -112.5t-108.5 -72t-133.5 -25.5q-76 0 -139 25.5t-108.5 72t-70.5 112.5t-25 147t27 147t73.5 112.5t109 72t133.5 25.5zM424 648q-59 0 -108.5 -20.5t-85.5 -58.5t-56 -92t-20 -120t20 -120
t56 -92.5t85.5 -59t108.5 -20.5q58 0 107 20.5t85 59t56 92.5t20 120t-20 120t-56 92t-85 58.5t-107 20.5zM506 413q-6 34 -24 55.5t-55 21.5q-27 0 -46 -11t-30.5 -29t-16.5 -42t-5 -51t5 -51t16 -42.5t30 -29t46 -10.5q72 0 83 79h91q-8 -70 -51 -110.5t-124 -40.5
q-94 0 -140.5 56t-46.5 148q0 45 13 83t38 65t60.5 42t80.5 15q75 0 115 -36.5t49 -96.5z" />
    <glyph glyph-name="ordfeminine" unicode="&#xaa;" horiz-adv-x="425" 
d="M100 435q0 44 18.5 71t49 42.5t70.5 21.5t83 8l57 2l2 16t1 15q0 25 -14 39t-46 14q-42 0 -61 -11.5t-28 -39.5l-79 9q20 63 62 86.5t114 23.5q66 0 101.5 -30t35.5 -87q0 -17 -5 -45l-49 -230h-84l10 47q-25 -25 -52.5 -41t-73.5 -16q-51 0 -81.5 30t-30.5 75zM365 520
l-52 -3q-38 -2 -62.5 -7t-38.5 -14t-19 -22t-5 -31q0 -17 11 -30.5t40 -13.5q45 0 78 24.5t42 67.5z" />
    <glyph glyph-name="guillemotleft" unicode="&#xab;" horiz-adv-x="518" 
d="M240 481h114l-174 -229l73 -221h-110l-82 227zM450 481h114l-174 -229l73 -221h-110l-82 227z" />
    <glyph glyph-name="logicalnot" unicode="&#xac;" 
d="M512 168h-102l37 170h-340l21 98h441z" />
    <glyph glyph-name="uni00AD" unicode="&#xad;" horiz-adv-x="390" 
d="M64 239l24 113h296l-24 -113h-296z" />
    <glyph glyph-name="registered" unicode="&#xae;" horiz-adv-x="486" 
d="M283 489v-75h-49v208h79q29 0 47 -5.5t28 -14t13.5 -20t3.5 -23.5q0 -23 -7.5 -36t-27.5 -23l45 -86h-55l-37 75h-40zM354 558q0 11 -8 18t-34 7h-29v-54h35q23 0 29.5 8.5t6.5 20.5zM317 732q48 0 86.5 -15t66.5 -43.5t43 -68.5t15 -91t-16.5 -91t-45 -68.5t-67 -43.5
t-82.5 -15q-47 0 -86 15t-67 43.5t-43 68.5t-15 91t16.5 91t45 68.5t67 43.5t82.5 15zM317 686q-72 0 -114.5 -44t-42.5 -128t42.5 -128t114.5 -44t115 44t43 128t-43 128t-115 44z" />
    <glyph glyph-name="macron" unicode="&#xaf;" horiz-adv-x="403" 
d="M165 706h276l-18 -89h-277z" />
    <glyph glyph-name="degree" unicode="&#xb0;" horiz-adv-x="340" 
d="M85 570q0 30 11 56.5t30.5 45.5t46 30t58.5 11q31 0 57.5 -11t45.5 -30t30 -45.5t11 -56.5q0 -31 -11 -57.5t-30 -46t-45.5 -30.5t-57.5 -11q-32 0 -58.5 11t-46 30.5t-30.5 46t-11 57.5zM231 498q30 0 48.5 19.5t18.5 52.5q0 32 -18.5 51.5t-48.5 19.5
q-32 0 -50.5 -19.5t-18.5 -51.5q0 -33 18.5 -52.5t50.5 -19.5z" />
    <glyph glyph-name="plusminus" unicode="&#xb1;" 
d="M375 291l-40 -192h187l-21 -99h-451l22 99h160l41 192h-184l22 99h183l42 198h103l-42 -198h183l-21 -99h-184z" />
    <glyph glyph-name="twosuperior" unicode="&#xb2;" horiz-adv-x="412" 
d="M292 633q-29 0 -49.5 -13t-33.5 -56l-83 13q9 31 23 55.5t35 41.5t50 25.5t69 8.5q29 0 53 -8.5t41 -24t26.5 -36t9.5 -44.5q0 -29 -7.5 -52t-22.5 -43t-36.5 -38.5t-48.5 -37.5q-20 -14 -38.5 -28t-38.5 -28h157l-27 -78h-286l13 65q23 17 52 37.5t77 55.5
q27 19 48.5 35t36.5 31.5t22.5 32.5t7.5 39q0 18 -12.5 32.5t-37.5 14.5z" />
    <glyph glyph-name="threesuperior" unicode="&#xb3;" horiz-adv-x="412" 
d="M273 532q70 0 70 61q0 19 -14 31.5t-43 12.5q-33 0 -53 -11.5t-31 -50.5l-78 12q15 58 53 89.5t115 31.5q63 0 97.5 -31.5t34.5 -76.5q0 -37 -17 -62t-56 -42q26 -14 39 -37.5t13 -51.5q0 -61 -39.5 -97t-120.5 -36q-70 0 -111.5 36.5t-41.5 105.5h78q3 -71 77 -71
q32 0 52.5 14.5t20.5 49.5q0 27 -15.5 39t-41.5 12h-48l14 72h46z" />
    <glyph glyph-name="acute" unicode="&#xb4;" horiz-adv-x="403" 
d="M157 593l146 148h138l-171 -148h-113z" />
    <glyph glyph-name="mu" unicode="&#xb5;" horiz-adv-x="574" 
d="M380 75q-32 -42 -67.5 -65t-84.5 -23q-30 0 -49.5 8.5t-33.5 26.5l-47 -216h-113l151 714h114l-68 -319q-5 -25 -5 -42q0 -36 16.5 -57.5t54.5 -21.5q28 0 49 9t44 28q21 16 40 41t25 55l65 307h114l-109 -520h-112z" />
    <glyph glyph-name="paragraph" unicode="&#xb6;" horiz-adv-x="632" 
d="M391 -139l161 759h-102l-161 -759h-110l89 418q-51 3 -86.5 19.5t-57 42t-31.5 56t-10 62.5q0 54 17.5 100.5t57.5 81t104.5 54t158.5 19.5h261l-181 -853h-110z" />
    <glyph glyph-name="periodcentered" unicode="&#xb7;" horiz-adv-x="231" 
d="M86 303l29 139h121l-29 -139h-121z" />
    <glyph glyph-name="cedilla" unicode="&#xb8;" horiz-adv-x="403" 
d="M206 6h66l-28 -56q47 -6 65 -27.5t18 -43.5q0 -29 -11 -47t-30 -28t-45.5 -14t-57.5 -4t-66 7l10 65q20 -4 34 -5t27 -1q28 0 41 6t13 23q0 14 -13.5 20.5t-45.5 6.5h-27z" />
    <glyph glyph-name="onesuperior" unicode="&#xb9;" horiz-adv-x="412" 
d="M205 290l66 313l-96 -47l-29 64l141 72h97l-85 -402h-94z" />
    <glyph glyph-name="ordmasculine" unicode="&#xba;" horiz-adv-x="425" 
d="M317 732q37 0 67.5 -12.5t52 -34.5t33.5 -51.5t12 -63.5q0 -59 -16.5 -104.5t-46 -77t-70.5 -47.5t-89 -16q-38 0 -68 12.5t-52 34.5t-33.5 51.5t-11.5 64.5q0 57 17 102t47 76.5t70.5 48.5t87.5 17zM310 656q-54 0 -88 -42t-34 -121q0 -42 20 -67t58 -25q55 0 89 41.5
t34 122.5q0 42 -20.5 66.5t-58.5 24.5z" />
    <glyph glyph-name="guillemotright" unicode="&#xbb;" horiz-adv-x="518" 
d="M114 31h-116l175 229l-73 221h109l84 -227zM324 31h-116l175 229l-73 221h109l84 -227z" />
    <glyph glyph-name="onequarter" unicode="&#xbc;" horiz-adv-x="924" 
d="M284 0h-113l495 691h113zM159 290l66 313l-96 -47l-29 64l141 72h97l-85 -402h-94zM721 1l19 86h-197l11 59l250 257h82l-52 -244h51l-24 -72h-42l-18 -86h-80zM647 159h107l30 142z" />
    <glyph glyph-name="onehalf" unicode="&#xbd;" horiz-adv-x="924" 
d="M254 0h-113l495 691h113zM159 290l66 313l-96 -47l-29 64l141 72h97l-85 -402h-94zM757 344q-29 0 -49.5 -13t-33.5 -56l-83 13q9 31 23 55.5t35 41.5t50 25.5t69 8.5q29 0 53 -8.5t41 -24t26.5 -36t9.5 -44.5q0 -29 -7.5 -52t-22.5 -43t-36.5 -38.5t-48.5 -37.5
q-20 -14 -38.5 -28t-38.5 -28h157l-27 -78h-286l13 65q23 17 52 37.5t77 55.5q27 19 48.5 35t36.5 31.5t22.5 32.5t7.5 39q0 18 -12.5 32.5t-37.5 14.5z" />
    <glyph glyph-name="threequarters" unicode="&#xbe;" horiz-adv-x="924" 
d="M340 0h-113l495 691h113zM721 1l19 86h-197l11 59l250 257h82l-52 -244h51l-24 -72h-42l-18 -86h-80zM647 159h107l30 142zM277 532q70 0 70 61q0 19 -14 31.5t-43 12.5q-33 0 -53 -11.5t-31 -50.5l-78 12q15 58 53 89.5t115 31.5q63 0 97.5 -31.5t34.5 -76.5
q0 -37 -17 -62t-56 -42q26 -14 39 -37.5t13 -51.5q0 -61 -39.5 -97t-120.5 -36q-70 0 -111.5 36.5t-41.5 105.5h78q3 -71 77 -71q32 0 52.5 14.5t20.5 49.5q0 27 -15.5 39t-41.5 12h-48l14 72h46z" />
    <glyph glyph-name="questiondown" unicode="&#xbf;" horiz-adv-x="497" 
d="M0 -41q0 36 9 63.5t24.5 50t35.5 41.5t43 38q20 17 39.5 32t36 30.5t28 33.5t16.5 42l2 14h113l-4 -18q-6 -30 -17 -52t-27 -41t-36.5 -36t-45.5 -37q-21 -17 -39 -32t-31.5 -31.5t-21.5 -37t-8 -47.5q0 -38 24 -59.5t69 -21.5q25 0 46.5 5t39.5 17.5t32 34.5t24 56
l102 -14q-12 -44 -31.5 -80t-49.5 -61.5t-72.5 -39.5t-100.5 -14q-46 0 -83 12t-63 33.5t-40 52t-14 66.5zM390 520l-28 -137h-118l29 137h117z" />
    <glyph glyph-name="Agrave" unicode="&#xc0;" horiz-adv-x="686" 
d="M521 714l121 -714h-124l-28 182h-278l-105 -182h-130l424 714h120zM266 283h211l-44 294zM442 773l-120 139h130l95 -139h-105z" />
    <glyph glyph-name="Aacute" unicode="&#xc1;" horiz-adv-x="686" 
d="M521 714l121 -714h-124l-28 182h-278l-105 -182h-130l424 714h120zM266 283h211l-44 294zM390 773l150 139h140l-177 -139h-113z" />
    <glyph glyph-name="Acircumflex" unicode="&#xc2;" horiz-adv-x="686" 
d="M521 714l121 -714h-124l-28 182h-278l-105 -182h-130l424 714h120zM266 283h211l-44 294zM297 773l146 139h114l91 -139h-101l-56 75l-92 -75h-102z" />
    <glyph glyph-name="Atilde" unicode="&#xc3;" horiz-adv-x="686" 
d="M521 714l121 -714h-124l-28 182h-278l-105 -182h-130l424 714h120zM266 283h211l-44 294zM531 858q23 0 34 9.5t15 35.5h83q-7 -69 -36 -99t-83 -30q-21 0 -39 7.5t-33 17t-29 17t-27 7.5q-23 0 -35 -10.5t-16 -36.5h-83q7 69 36.5 99.5t83.5 30.5q21 0 38.5 -7.5
t33 -16.5t29.5 -16.5t28 -7.5z" />
    <glyph glyph-name="Adieresis" unicode="&#xc4;" horiz-adv-x="686" 
d="M521 714l121 -714h-124l-28 182h-278l-105 -182h-130l424 714h120zM266 283h211l-44 294zM316 786l24 116h113l-25 -116h-112zM510 786l24 116h113l-25 -116h-112z" />
    <glyph glyph-name="Aring" unicode="&#xc5;" horiz-adv-x="686" 
d="M350 787q0 28 9 48.5t24.5 34.5t35.5 21t43 7q22 0 42.5 -7t36.5 -21t25 -34.5t9 -48.5q0 -35 -14 -58t-37 -36l118 -693h-124l-28 182h-278l-105 -182h-130l414 698q-19 14 -30 35.5t-11 53.5zM266 283h211l-44 294zM415 787q0 -26 12.5 -38t34.5 -12q48 0 48 50
q0 27 -12.5 39t-35.5 12q-22 0 -34.5 -12t-12.5 -39z" />
    <glyph glyph-name="AE" unicode="&#xc6;" horiz-adv-x="1039" 
d="M555 225h-278l-175 -225h-138l560 714h585l-22 -104h-334l-40 -190h313l-22 -105h-313l-45 -211h354l-36 -104h-456zM352 327h225l60 283h-67z" />
    <glyph glyph-name="Ccedilla" unicode="&#xc7;" horiz-adv-x="712" 
d="M336 -16q-62 6 -109 32t-78.5 67t-47 95t-15.5 117q0 86 26 165t74.5 139.5t118 96.5t156.5 36q66 0 114.5 -17t81.5 -48.5t50.5 -76.5t22.5 -100l-120 -17q-10 76 -44 115.5t-110 39.5q-57 0 -102 -26t-76.5 -70.5t-48.5 -103.5t-17 -125q0 -45 9.5 -84.5t30 -69
t53 -46.5t78.5 -17q83 0 126.5 40.5t57.5 111.5h131q-12 -55 -34.5 -100.5t-57.5 -79t-85 -53t-117 -22.5l-18 -36q48 -8 66 -28.5t18 -45.5q0 -54 -38 -75t-110 -21q-14 0 -30.5 2t-36.5 6l10 64q21 -3 35 -4.5t28 -1.5q29 0 42.5 7.5t13.5 25.5q0 13 -13.5 20t-47.5 7h-28
z" />
    <glyph glyph-name="Egrave" unicode="&#xc8;" horiz-adv-x="599" 
d="M292 610l-40 -190h334l-22 -105h-334l-45 -211h375l-36 -104h-481l151 714h474l-21 -104h-355zM429 773l-120 139h130l95 -139h-105z" />
    <glyph glyph-name="Eacute" unicode="&#xc9;" horiz-adv-x="599" 
d="M292 610l-40 -190h334l-22 -105h-334l-45 -211h375l-36 -104h-481l151 714h474l-21 -104h-355zM345 773l150 139h140l-177 -139h-113z" />
    <glyph glyph-name="Ecircumflex" unicode="&#xca;" horiz-adv-x="599" 
d="M292 610l-40 -190h334l-22 -105h-334l-45 -211h375l-36 -104h-481l151 714h474l-21 -104h-355zM268 773l146 139h114l91 -139h-101l-56 75l-92 -75h-102z" />
    <glyph glyph-name="Edieresis" unicode="&#xcb;" horiz-adv-x="599" 
d="M292 610l-40 -190h334l-22 -105h-334l-45 -211h375l-36 -104h-481l151 714h474l-21 -104h-355zM289 786l24 116h113l-25 -116h-112zM483 786l24 116h113l-25 -116h-112z" />
    <glyph glyph-name="Igrave" unicode="&#xcc;" horiz-adv-x="272" 
d="M43 0l151 714h121l-151 -714h-121zM237 773l-120 139h130l95 -139h-105z" />
    <glyph glyph-name="Iacute" unicode="&#xcd;" horiz-adv-x="272" 
d="M43 0l151 714h121l-151 -714h-121zM183 773l150 139h140l-177 -139h-113z" />
    <glyph glyph-name="Icircumflex" unicode="&#xce;" horiz-adv-x="272" 
d="M43 0l151 714h121l-151 -714h-121zM89 773l146 139h114l91 -139h-101l-56 75l-92 -75h-102z" />
    <glyph glyph-name="Idieresis" unicode="&#xcf;" horiz-adv-x="272" 
d="M43 0l151 714h121l-151 -714h-121zM109 786l24 116h113l-25 -116h-112zM303 786l24 116h113l-25 -116h-112z" />
    <glyph glyph-name="Eth" unicode="&#xd0;" horiz-adv-x="741" 
d="M58 0l67 318h-78l21 101h79l62 295h234q68 0 122.5 -22.5t92.5 -62t58 -92.5t20 -114q0 -95 -27.5 -173t-82.5 -133.5t-137.5 -86t-191.5 -30.5h-239zM312 103q76 0 132.5 23t93.5 65t55 100t18 129q0 39 -11 74t-33.5 61t-56 41t-78.5 15h-126l-41 -192h170l-22 -101
h-169l-45 -215h113z" />
    <glyph glyph-name="Ntilde" unicode="&#xd1;" horiz-adv-x="710" 
d="M500 0l-230 518l-110 -518h-117l151 714h102l228 -520l110 520h118l-151 -714h-101zM550 858q23 0 34 9.5t15 35.5h83q-7 -69 -36 -99t-83 -30q-21 0 -39 7.5t-33 17t-29 17t-27 7.5q-23 0 -35 -10.5t-16 -36.5h-83q7 69 36.5 99.5t83.5 30.5q21 0 38.5 -7.5t33 -16.5
t29.5 -16.5t28 -7.5z" />
    <glyph glyph-name="Ograve" unicode="&#xd2;" horiz-adv-x="772" 
d="M482 732q66 0 119 -21.5t89.5 -60.5t56.5 -94t20 -122q0 -86 -25 -167.5t-74.5 -144.5t-123 -101.5t-169.5 -38.5q-66 0 -119.5 21.5t-91 60.5t-57.5 94t-20 122q0 85 26 166.5t76.5 145t124 102t168.5 38.5zM473 628q-65 0 -114 -30t-81.5 -79t-49 -110t-16.5 -123
q0 -91 42.5 -145.5t127.5 -54.5q64 0 113 30t81.5 79t49 110t16.5 124q0 45 -10.5 81.5t-32 62.5t-53 40.5t-73.5 14.5zM488 773l-120 139h130l95 -139h-105z" />
    <glyph glyph-name="Oacute" unicode="&#xd3;" horiz-adv-x="772" 
d="M482 732q66 0 119 -21.5t89.5 -60.5t56.5 -94t20 -122q0 -86 -25 -167.5t-74.5 -144.5t-123 -101.5t-169.5 -38.5q-66 0 -119.5 21.5t-91 60.5t-57.5 94t-20 122q0 85 26 166.5t76.5 145t124 102t168.5 38.5zM473 628q-65 0 -114 -30t-81.5 -79t-49 -110t-16.5 -123
q0 -91 42.5 -145.5t127.5 -54.5q64 0 113 30t81.5 79t49 110t16.5 124q0 45 -10.5 81.5t-32 62.5t-53 40.5t-73.5 14.5zM403 773l150 139h140l-177 -139h-113z" />
    <glyph glyph-name="Ocircumflex" unicode="&#xd4;" horiz-adv-x="772" 
d="M482 732q66 0 119 -21.5t89.5 -60.5t56.5 -94t20 -122q0 -86 -25 -167.5t-74.5 -144.5t-123 -101.5t-169.5 -38.5q-66 0 -119.5 21.5t-91 60.5t-57.5 94t-20 122q0 85 26 166.5t76.5 145t124 102t168.5 38.5zM473 628q-65 0 -114 -30t-81.5 -79t-49 -110t-16.5 -123
q0 -91 42.5 -145.5t127.5 -54.5q64 0 113 30t81.5 79t49 110t16.5 124q0 45 -10.5 81.5t-32 62.5t-53 40.5t-73.5 14.5zM324 773l146 139h114l91 -139h-101l-56 75l-92 -75h-102z" />
    <glyph glyph-name="Otilde" unicode="&#xd5;" horiz-adv-x="772" 
d="M482 732q66 0 119 -21.5t89.5 -60.5t56.5 -94t20 -122q0 -86 -25 -167.5t-74.5 -144.5t-123 -101.5t-169.5 -38.5q-66 0 -119.5 21.5t-91 60.5t-57.5 94t-20 122q0 85 26 166.5t76.5 145t124 102t168.5 38.5zM473 628q-65 0 -114 -30t-81.5 -79t-49 -110t-16.5 -123
q0 -91 42.5 -145.5t127.5 -54.5q64 0 113 30t81.5 79t49 110t16.5 124q0 45 -10.5 81.5t-32 62.5t-53 40.5t-73.5 14.5zM564 858q23 0 34 9.5t15 35.5h83q-7 -69 -36 -99t-83 -30q-21 0 -39 7.5t-33 17t-29 17t-27 7.5q-23 0 -35 -10.5t-16 -36.5h-83q7 69 36.5 99.5
t83.5 30.5q21 0 38.5 -7.5t33 -16.5t29.5 -16.5t28 -7.5z" />
    <glyph glyph-name="Odieresis" unicode="&#xd6;" horiz-adv-x="772" 
d="M482 732q66 0 119 -21.5t89.5 -60.5t56.5 -94t20 -122q0 -86 -25 -167.5t-74.5 -144.5t-123 -101.5t-169.5 -38.5q-66 0 -119.5 21.5t-91 60.5t-57.5 94t-20 122q0 85 26 166.5t76.5 145t124 102t168.5 38.5zM473 628q-65 0 -114 -30t-81.5 -79t-49 -110t-16.5 -123
q0 -91 42.5 -145.5t127.5 -54.5q64 0 113 30t81.5 79t49 110t16.5 124q0 45 -10.5 81.5t-32 62.5t-53 40.5t-73.5 14.5zM342 786l24 116h113l-25 -116h-112zM536 786l24 116h113l-25 -116h-112z" />
    <glyph glyph-name="multiply" unicode="&#xd7;" 
d="M527 186l-81 -64l-119 149l-176 -148l-59 70l177 149l-123 153l80 64l122 -150l177 149l60 -70l-179 -151z" />
    <glyph glyph-name="Oslash" unicode="&#xd8;" horiz-adv-x="772" 
d="M482 732q104 0 175 -53l66 76l54 -45l-70 -81q60 -77 60 -195q0 -86 -25 -167.5t-74.5 -144.5t-123 -101.5t-169.5 -38.5q-55 0 -100.5 14.5t-81.5 41.5l-67 -78l-54 45l72 83q-57 76 -57 192q0 85 26 166.5t76.5 145t124 102t168.5 38.5zM642 429q0 62 -19 104
l-354 -408q43 -39 113 -39q64 0 113 30t81.5 79t49 110t16.5 124zM473 628q-65 0 -114 -30t-81.5 -79t-49 -110t-16.5 -123q0 -60 17 -100l352 406q-42 36 -108 36z" />
    <glyph glyph-name="Ugrave" unicode="&#xd9;" horiz-adv-x="688" 
d="M330 -18q-56 0 -101.5 13.5t-78.5 40.5t-51 68.5t-18 97.5q0 43 10 87l90 425h120l-90 -428q-10 -39 -10 -74q0 -66 34 -96t103 -30q43 0 73.5 12.5t52.5 37.5t36.5 62.5t25.5 87.5l91 428h121l-90 -428q-17 -80 -43.5 -137.5t-65 -94.5t-90.5 -54.5t-119 -17.5zM442 773
l-120 139h130l95 -139h-105z" />
    <glyph glyph-name="Uacute" unicode="&#xda;" horiz-adv-x="688" 
d="M330 -18q-56 0 -101.5 13.5t-78.5 40.5t-51 68.5t-18 97.5q0 43 10 87l90 425h120l-90 -428q-10 -39 -10 -74q0 -66 34 -96t103 -30q43 0 73.5 12.5t52.5 37.5t36.5 62.5t25.5 87.5l91 428h121l-90 -428q-17 -80 -43.5 -137.5t-65 -94.5t-90.5 -54.5t-119 -17.5zM383 773
l150 139h140l-177 -139h-113z" />
    <glyph glyph-name="Ucircumflex" unicode="&#xdb;" horiz-adv-x="688" 
d="M330 -18q-56 0 -101.5 13.5t-78.5 40.5t-51 68.5t-18 97.5q0 43 10 87l90 425h120l-90 -428q-10 -39 -10 -74q0 -66 34 -96t103 -30q43 0 73.5 12.5t52.5 37.5t36.5 62.5t25.5 87.5l91 428h121l-90 -428q-17 -80 -43.5 -137.5t-65 -94.5t-90.5 -54.5t-119 -17.5zM293 773
l146 139h114l91 -139h-101l-56 75l-92 -75h-102z" />
    <glyph glyph-name="Udieresis" unicode="&#xdc;" horiz-adv-x="688" 
d="M330 -18q-56 0 -101.5 13.5t-78.5 40.5t-51 68.5t-18 97.5q0 43 10 87l90 425h120l-90 -428q-10 -39 -10 -74q0 -66 34 -96t103 -30q43 0 73.5 12.5t52.5 37.5t36.5 62.5t25.5 87.5l91 428h121l-90 -428q-17 -80 -43.5 -137.5t-65 -94.5t-90.5 -54.5t-119 -17.5zM315 786
l24 116h113l-25 -116h-112zM509 786l24 116h113l-25 -116h-112z" />
    <glyph glyph-name="Yacute" unicode="&#xdd;" horiz-adv-x="635" 
d="M129 714h130l108 -310l240 310h134l-332 -417l-62 -297h-121l63 297zM356 773l150 139h140l-177 -139h-113z" />
    <glyph glyph-name="Thorn" unicode="&#xde;" horiz-adv-x="633" 
d="M640 396q0 -68 -22 -116.5t-63 -80t-99.5 -46.5t-131.5 -15h-133l-29 -138h-119l151 714h119l-27 -128h120q65 0 110 -17.5t72.5 -45t39.5 -61.5t12 -66zM335 239q40 0 74 7t59 24t38.5 46t13.5 73q0 20 -7 38t-23 31t-41.5 20.5t-61.5 7.5h-123l-52 -247h123z" />
    <glyph glyph-name="germandbls" unicode="&#xdf;" horiz-adv-x="590" 
d="M326 -10q-68 0 -119 22l30 84q17 -7 39 -11.5t51 -4.5q66 0 97 37.5t31 106.5q0 51 -32 80t-98 29h-41l18 89h38q25 0 48.5 6.5t41.5 21t29 38.5t11 60q0 38 -22.5 62.5t-67.5 24.5q-57 0 -87.5 -30.5t-45.5 -100.5l-106 -504h-109l109 517q21 102 80 153.5t162 51.5
q50 0 87 -12.5t61.5 -34.5t36.5 -52t12 -65q0 -66 -32 -109t-92 -62q54 -20 82.5 -63.5t28.5 -97.5q0 -50 -13 -93t-41.5 -74.5t-74.5 -50t-112 -18.5z" />
    <glyph glyph-name="agrave" unicode="&#xe0;" horiz-adv-x="549" 
d="M182 -13q-69 0 -110 36.5t-41 105.5q0 56 24 92t64 57t92 30t108 11l95 4l3 16q3 18 3 34q0 36 -21 56t-69 20q-54 0 -82 -14.5t-43 -56.5l-103 11q25 80 84 113.5t156 33.5q91 0 139 -41.5t49 -116.5q0 -14 -2 -29t-5 -31l-68 -318h-108l14 68q-36 -36 -76 -58.5
t-103 -22.5zM397 247l-77 -4q-50 -3 -84 -10.5t-54 -20.5t-28.5 -31.5t-8.5 -42.5q0 -26 18 -44.5t55 -18.5q31 0 59 9.5t50.5 26t38 40t21.5 52.5zM347 593l-113 148h126l88 -148h-101z" />
    <glyph glyph-name="aacute" unicode="&#xe1;" horiz-adv-x="549" 
d="M182 -13q-69 0 -110 36.5t-41 105.5q0 56 24 92t64 57t92 30t108 11l95 4l3 16q3 18 3 34q0 36 -21 56t-69 20q-54 0 -82 -14.5t-43 -56.5l-103 11q25 80 84 113.5t156 33.5q91 0 139 -41.5t49 -116.5q0 -14 -2 -29t-5 -31l-68 -318h-108l14 68q-36 -36 -76 -58.5
t-103 -22.5zM397 247l-77 -4q-50 -3 -84 -10.5t-54 -20.5t-28.5 -31.5t-8.5 -42.5q0 -26 18 -44.5t55 -18.5q31 0 59 9.5t50.5 26t38 40t21.5 52.5zM270 593l146 148h138l-171 -148h-113z" />
    <glyph glyph-name="acircumflex" unicode="&#xe2;" horiz-adv-x="549" 
d="M182 -13q-69 0 -110 36.5t-41 105.5q0 56 24 92t64 57t92 30t108 11l95 4l3 16q3 18 3 34q0 36 -21 56t-69 20q-54 0 -82 -14.5t-43 -56.5l-103 11q25 80 84 113.5t156 33.5q91 0 139 -41.5t49 -116.5q0 -14 -2 -29t-5 -31l-68 -318h-108l14 68q-36 -36 -76 -58.5
t-103 -22.5zM397 247l-77 -4q-50 -3 -84 -10.5t-54 -20.5t-28.5 -31.5t-8.5 -42.5q0 -26 18 -44.5t55 -18.5q31 0 59 9.5t50.5 26t38 40t21.5 52.5zM179 593l147 148h114l88 -148h-99l-55 85l-94 -85h-101z" />
    <glyph glyph-name="atilde" unicode="&#xe3;" horiz-adv-x="549" 
d="M182 -13q-69 0 -110 36.5t-41 105.5q0 56 24 92t64 57t92 30t108 11l95 4l3 16q3 18 3 34q0 36 -21 56t-69 20q-54 0 -82 -14.5t-43 -56.5l-103 11q25 80 84 113.5t156 33.5q91 0 139 -41.5t49 -116.5q0 -14 -2 -29t-5 -31l-68 -318h-108l14 68q-36 -36 -76 -58.5
t-103 -22.5zM397 247l-77 -4q-50 -3 -84 -10.5t-54 -20.5t-28.5 -31.5t-8.5 -42.5q0 -26 18 -44.5t55 -18.5q31 0 59 9.5t50.5 26t38 40t21.5 52.5zM417 685q23 0 34.5 9.5t15.5 35.5h79q-7 -69 -36 -99t-81 -30q-21 0 -38.5 7.5t-32.5 16.5t-28.5 16.5t-26.5 7.5
q-23 0 -35 -10t-16 -36h-79q7 69 36 99.5t81 30.5q21 0 38.5 -7.5t32.5 -16.5t28.5 -16.5t27.5 -7.5z" />
    <glyph glyph-name="adieresis" unicode="&#xe4;" horiz-adv-x="549" 
d="M182 -13q-69 0 -110 36.5t-41 105.5q0 56 24 92t64 57t92 30t108 11l95 4l3 16q3 18 3 34q0 36 -21 56t-69 20q-54 0 -82 -14.5t-43 -56.5l-103 11q25 80 84 113.5t156 33.5q91 0 139 -41.5t49 -116.5q0 -14 -2 -29t-5 -31l-68 -318h-108l14 68q-36 -36 -76 -58.5
t-103 -22.5zM397 247l-77 -4q-50 -3 -84 -10.5t-54 -20.5t-28.5 -31.5t-8.5 -42.5q0 -26 18 -44.5t55 -18.5q31 0 59 9.5t50.5 26t38 40t21.5 52.5zM208 612l23 112h109l-23 -112h-109zM396 612l24 112h109l-23 -112h-110z" />
    <glyph glyph-name="aring" unicode="&#xe5;" horiz-adv-x="549" 
d="M182 -13q-69 0 -110 36.5t-41 105.5q0 56 24 92t64 57t92 30t108 11l95 4l3 16q3 18 3 34q0 36 -21 56t-69 20q-54 0 -82 -14.5t-43 -56.5l-103 11q25 80 84 113.5t156 33.5q91 0 139 -41.5t49 -116.5q0 -14 -2 -29t-5 -31l-68 -318h-108l14 68q-36 -36 -76 -58.5
t-103 -22.5zM397 247l-77 -4q-50 -3 -84 -10.5t-54 -20.5t-28.5 -31.5t-8.5 -42.5q0 -26 18 -44.5t55 -18.5q31 0 59 9.5t50.5 26t38 40t21.5 52.5zM250 695q0 27 9 47t24 33.5t34.5 20t41.5 6.5q21 0 41 -6.5t35 -20t24 -33.5t9 -47t-9 -47t-24 -33t-35 -19.5t-41 -6.5
q-22 0 -41.5 6.5t-34.5 19.5t-24 33t-9 47zM313 695q0 -25 12.5 -37t33.5 -12t33.5 12t12.5 37q0 26 -12.5 37.5t-33.5 11.5t-33.5 -11.5t-12.5 -37.5z" />
    <glyph glyph-name="ae" unicode="&#xe6;" horiz-adv-x="895" 
d="M845 154q-22 -85 -79 -127.5t-160 -42.5q-75 0 -118.5 31.5t-67.5 81.5q-20 -25 -41 -45.5t-47 -34.5t-59 -22t-76 -8q-79 0 -122.5 36.5t-43.5 105.5q0 56 23.5 92t63 57t90.5 30t105 11l94 4l3 16q3 15 3 29q0 40 -23 60.5t-65 20.5q-51 0 -78.5 -14.5t-42.5 -56.5
l-102 11q24 80 81.5 113.5t146.5 33.5q63 0 100.5 -22t55.5 -65q35 43 79.5 65t107.5 22q48 0 85.5 -15t63 -41.5t38.5 -63t13 -79.5q0 -17 -2 -37.5t-6 -43.5l-4 -24h-363v-24q0 -60 30 -97.5t87 -37.5q51 0 79 19.5t40 61.5h111zM390 247l-76 -4q-49 -3 -81.5 -10.5
t-52 -20.5t-27.5 -31.5t-8 -42.5q0 -26 18.5 -44.5t57.5 -18.5q38 0 65.5 10.5t46.5 28t30.5 40.5t17.5 49zM662 449q-52 0 -93.5 -31.5t-60.5 -106.5h253q3 15 3 31q0 46 -25 76.5t-77 30.5z" />
    <glyph glyph-name="ccedilla" unicode="&#xe7;" horiz-adv-x="564" 
d="M239 -13q-42 6 -74.5 25t-55 47.5t-34 65.5t-11.5 79q0 80 23 142t62.5 104t93 64t114.5 22q50 0 86.5 -14t61 -38.5t37.5 -58t16 -72.5l-114 -16q-4 46 -25 76.5t-75 30.5q-35 0 -64.5 -16t-51 -46.5t-34 -75t-12.5 -101.5t26.5 -93t86.5 -36q54 0 84.5 27.5t42.5 76.5
h115q-19 -89 -75 -139.5t-158 -55.5l-17 -35q47 -6 65 -27.5t18 -43.5q0 -29 -11 -47t-30 -28t-45.5 -14t-57.5 -4t-66 7l10 65q20 -4 34 -5t27 -1q28 0 41 6t13 23q0 14 -13.5 20.5t-45.5 6.5h-27z" />
    <glyph glyph-name="egrave" unicode="&#xe8;" horiz-adv-x="580" 
d="M344 449q-54 0 -95.5 -31.5t-59.5 -106.5h257q3 15 3 31q0 49 -27 78t-78 29zM179 232q-1 -4 -1.5 -12.5t-0.5 -14.5q0 -27 7 -51t21.5 -42t37.5 -28.5t55 -10.5q54 0 81 19.5t40 61.5h111q-11 -41 -30 -73t-48 -53.5t-69.5 -32.5t-95.5 -11q-53 0 -94.5 16.5t-70 46
t-43.5 70t-15 88.5q0 79 22 141t60.5 104t91.5 64t116 22q49 0 87 -15t64 -41.5t39.5 -63t13.5 -79.5q0 -17 -2.5 -40.5t-6.5 -46.5l-3 -18h-367zM358 593l-113 148h126l88 -148h-101z" />
    <glyph glyph-name="eacute" unicode="&#xe9;" horiz-adv-x="580" 
d="M344 449q-54 0 -95.5 -31.5t-59.5 -106.5h257q3 15 3 31q0 49 -27 78t-78 29zM179 232q-1 -4 -1.5 -12.5t-0.5 -14.5q0 -27 7 -51t21.5 -42t37.5 -28.5t55 -10.5q54 0 81 19.5t40 61.5h111q-11 -41 -30 -73t-48 -53.5t-69.5 -32.5t-95.5 -11q-53 0 -94.5 16.5t-70 46
t-43.5 70t-15 88.5q0 79 22 141t60.5 104t91.5 64t116 22q49 0 87 -15t64 -41.5t39.5 -63t13.5 -79.5q0 -17 -2.5 -40.5t-6.5 -46.5l-3 -18h-367zM277 593l146 148h138l-171 -148h-113z" />
    <glyph glyph-name="ecircumflex" unicode="&#xea;" horiz-adv-x="580" 
d="M344 449q-54 0 -95.5 -31.5t-59.5 -106.5h257q3 15 3 31q0 49 -27 78t-78 29zM179 232q-1 -4 -1.5 -12.5t-0.5 -14.5q0 -27 7 -51t21.5 -42t37.5 -28.5t55 -10.5q54 0 81 19.5t40 61.5h111q-11 -41 -30 -73t-48 -53.5t-69.5 -32.5t-95.5 -11q-53 0 -94.5 16.5t-70 46
t-43.5 70t-15 88.5q0 79 22 141t60.5 104t91.5 64t116 22q49 0 87 -15t64 -41.5t39.5 -63t13.5 -79.5q0 -17 -2.5 -40.5t-6.5 -46.5l-3 -18h-367zM191 593l147 148h114l88 -148h-99l-55 85l-94 -85h-101z" />
    <glyph glyph-name="edieresis" unicode="&#xeb;" horiz-adv-x="580" 
d="M344 449q-54 0 -95.5 -31.5t-59.5 -106.5h257q3 15 3 31q0 49 -27 78t-78 29zM179 232q-1 -4 -1.5 -12.5t-0.5 -14.5q0 -27 7 -51t21.5 -42t37.5 -28.5t55 -10.5q54 0 81 19.5t40 61.5h111q-11 -41 -30 -73t-48 -53.5t-69.5 -32.5t-95.5 -11q-53 0 -94.5 16.5t-70 46
t-43.5 70t-15 88.5q0 79 22 141t60.5 104t91.5 64t116 22q49 0 87 -15t64 -41.5t39.5 -63t13.5 -79.5q0 -17 -2.5 -40.5t-6.5 -46.5l-3 -18h-367zM218 612l23 112h109l-23 -112h-109zM406 612l24 112h109l-23 -112h-110z" />
    <glyph glyph-name="igrave" unicode="&#xec;" horiz-adv-x="246" 
d="M33 0l110 520h114l-110 -520h-114zM175 593l-113 148h126l88 -148h-101z" />
    <glyph glyph-name="iacute" unicode="&#xed;" horiz-adv-x="246" 
d="M33 0l110 520h114l-110 -520h-114zM135 593l146 148h138l-171 -148h-113z" />
    <glyph glyph-name="icircumflex" unicode="&#xee;" horiz-adv-x="246" 
d="M33 0l110 520h114l-110 -520h-114zM36 593l147 148h114l88 -148h-99l-55 85l-94 -85h-101z" />
    <glyph glyph-name="idieresis" unicode="&#xef;" horiz-adv-x="246" 
d="M33 0l110 520h114l-110 -520h-114zM59 612l23 112h109l-23 -112h-109zM247 612l24 112h109l-23 -112h-110z" />
    <glyph glyph-name="eth" unicode="&#xf0;" horiz-adv-x="609" 
d="M280 579l55 47q-23 8 -48 14t-51 8l29 85q42 -5 76.5 -15.5t66.5 -25.5l76 65l45 -50l-62 -53q63 -51 93.5 -125.5t30.5 -168.5q0 -186 -81 -281t-223 -95q-56 0 -98.5 17.5t-71.5 47t-43.5 68t-14.5 80.5q0 70 22 125t59 92.5t85 57.5t101 20q54 0 92.5 -18.5
t61.5 -50.5q-2 61 -24.5 102.5t-57.5 67.5l-73 -63zM297 76q40 0 71 15.5t52.5 42.5t32.5 64t11 80q0 26 -8 49.5t-28 40.5q-35 32 -93 32q-38 0 -67.5 -15.5t-49.5 -41.5t-30.5 -61t-10.5 -75q0 -55 29 -93t91 -38z" />
    <glyph glyph-name="ntilde" unicode="&#xf1;" horiz-adv-x="581" 
d="M374 0l67 314q2 13 3.5 24t1.5 22q0 38 -18 59t-55 21q-50 0 -100 -38q-22 -17 -40 -40.5t-23 -51.5l-65 -310h-114l110 520h111l-16 -75q42 49 87 70t91 21q73 0 111.5 -39.5t38.5 -109.5q0 -32 -7 -61l-69 -326h-114zM446 685q23 0 34.5 9.5t15.5 35.5h79
q-7 -69 -36 -99t-81 -30q-21 0 -38.5 7.5t-32.5 16.5t-28.5 16.5t-26.5 7.5q-23 0 -35 -10t-16 -36h-79q7 69 36 99.5t81 30.5q21 0 38.5 -7.5t32.5 -16.5t28.5 -16.5t27.5 -7.5z" />
    <glyph glyph-name="ograve" unicode="&#xf2;" horiz-adv-x="609" 
d="M368 536q51 0 91.5 -17t69.5 -46t44.5 -69.5t15.5 -86.5q0 -79 -22.5 -141t-63 -104.5t-96 -65t-121.5 -22.5q-50 0 -91 17t-70 46t-45 69t-16 87q0 78 23.5 139.5t64.5 104.5t96.5 66t119.5 23zM360 444q-38 0 -70.5 -16.5t-56.5 -47.5t-37.5 -75.5t-13.5 -99.5
q0 -60 29 -94.5t83 -34.5q38 0 70.5 16.5t56 47t37 74.5t13.5 100q0 60 -28.5 95t-82.5 35zM371 593l-113 148h126l88 -148h-101z" />
    <glyph glyph-name="oacute" unicode="&#xf3;" horiz-adv-x="609" 
d="M368 536q51 0 91.5 -17t69.5 -46t44.5 -69.5t15.5 -86.5q0 -79 -22.5 -141t-63 -104.5t-96 -65t-121.5 -22.5q-50 0 -91 17t-70 46t-45 69t-16 87q0 78 23.5 139.5t64.5 104.5t96.5 66t119.5 23zM360 444q-38 0 -70.5 -16.5t-56.5 -47.5t-37.5 -75.5t-13.5 -99.5
q0 -60 29 -94.5t83 -34.5q38 0 70.5 16.5t56 47t37 74.5t13.5 100q0 60 -28.5 95t-82.5 35zM288 593l146 148h138l-171 -148h-113z" />
    <glyph glyph-name="ocircumflex" unicode="&#xf4;" horiz-adv-x="609" 
d="M368 536q51 0 91.5 -17t69.5 -46t44.5 -69.5t15.5 -86.5q0 -79 -22.5 -141t-63 -104.5t-96 -65t-121.5 -22.5q-50 0 -91 17t-70 46t-45 69t-16 87q0 78 23.5 139.5t64.5 104.5t96.5 66t119.5 23zM360 444q-38 0 -70.5 -16.5t-56.5 -47.5t-37.5 -75.5t-13.5 -99.5
q0 -60 29 -94.5t83 -34.5q38 0 70.5 16.5t56 47t37 74.5t13.5 100q0 60 -28.5 95t-82.5 35zM205 593l147 148h114l88 -148h-99l-55 85l-94 -85h-101z" />
    <glyph glyph-name="otilde" unicode="&#xf5;" horiz-adv-x="609" 
d="M368 536q51 0 91.5 -17t69.5 -46t44.5 -69.5t15.5 -86.5q0 -79 -22.5 -141t-63 -104.5t-96 -65t-121.5 -22.5q-50 0 -91 17t-70 46t-45 69t-16 87q0 78 23.5 139.5t64.5 104.5t96.5 66t119.5 23zM360 444q-38 0 -70.5 -16.5t-56.5 -47.5t-37.5 -75.5t-13.5 -99.5
q0 -60 29 -94.5t83 -34.5q38 0 70.5 16.5t56 47t37 74.5t13.5 100q0 60 -28.5 95t-82.5 35zM442 685q23 0 34.5 9.5t15.5 35.5h79q-7 -69 -36 -99t-81 -30q-21 0 -38.5 7.5t-32.5 16.5t-28.5 16.5t-26.5 7.5q-23 0 -35 -10t-16 -36h-79q7 69 36 99.5t81 30.5q21 0 38.5 -7.5
t32.5 -16.5t28.5 -16.5t27.5 -7.5z" />
    <glyph glyph-name="odieresis" unicode="&#xf6;" horiz-adv-x="609" 
d="M368 536q51 0 91.5 -17t69.5 -46t44.5 -69.5t15.5 -86.5q0 -79 -22.5 -141t-63 -104.5t-96 -65t-121.5 -22.5q-50 0 -91 17t-70 46t-45 69t-16 87q0 78 23.5 139.5t64.5 104.5t96.5 66t119.5 23zM360 444q-38 0 -70.5 -16.5t-56.5 -47.5t-37.5 -75.5t-13.5 -99.5
q0 -60 29 -94.5t83 -34.5q38 0 70.5 16.5t56 47t37 74.5t13.5 100q0 60 -28.5 95t-82.5 35zM231 612l23 112h109l-23 -112h-109zM419 612l24 112h109l-23 -112h-110z" />
    <glyph glyph-name="divide" unicode="&#xf7;" 
d="M327 595h117l-28 -132h-117zM246 218h117l-28 -132h-117zM104 291l22 99h435l-21 -99h-436z" />
    <glyph glyph-name="oslash" unicode="&#xf8;" horiz-adv-x="609" 
d="M543 456q22 -28 34 -63.5t12 -75.5q0 -79 -22.5 -141t-63 -104.5t-96 -65t-121.5 -22.5q-38 0 -70 9.5t-58 26.5l-62 -70l-50 44l63 71q-45 57 -45 138q0 78 23.5 139.5t64.5 104.5t96.5 66t119.5 23q73 0 126 -35l55 62l50 -43zM471 314q0 14 -2 27.5t-5 24.5l-238 -269
q27 -21 68 -21q38 0 70.5 16.5t56 47t37 74.5t13.5 100zM360 444q-38 0 -70.5 -16.5t-56.5 -47.5t-37.5 -75.5t-13.5 -99.5q0 -28 6 -50l238 269q-29 20 -66 20z" />
    <glyph glyph-name="ugrave" unicode="&#xf9;" horiz-adv-x="574" 
d="M250 520l-68 -319q-5 -28 -5 -45q0 -35 17 -55.5t54 -20.5q28 0 49 9t44 28q21 16 40 41t25 55l65 307h114l-109 -520h-112l16 75q-42 -49 -84.5 -70t-88.5 -21q-75 0 -111 40t-36 107q0 31 7 63l69 326h114zM349 593l-113 148h126l88 -148h-101z" />
    <glyph glyph-name="uacute" unicode="&#xfa;" horiz-adv-x="574" 
d="M250 520l-68 -319q-5 -28 -5 -45q0 -35 17 -55.5t54 -20.5q28 0 49 9t44 28q21 16 40 41t25 55l65 307h114l-109 -520h-112l16 75q-42 -49 -84.5 -70t-88.5 -21q-75 0 -111 40t-36 107q0 31 7 63l69 326h114zM281 593l146 148h138l-171 -148h-113z" />
    <glyph glyph-name="ucircumflex" unicode="&#xfb;" horiz-adv-x="574" 
d="M250 520l-68 -319q-5 -28 -5 -45q0 -35 17 -55.5t54 -20.5q28 0 49 9t44 28q21 16 40 41t25 55l65 307h114l-109 -520h-112l16 75q-42 -49 -84.5 -70t-88.5 -21q-75 0 -111 40t-36 107q0 31 7 63l69 326h114zM198 593l147 148h114l88 -148h-99l-55 85l-94 -85h-101z" />
    <glyph glyph-name="udieresis" unicode="&#xfc;" horiz-adv-x="574" 
d="M250 520l-68 -319q-5 -28 -5 -45q0 -35 17 -55.5t54 -20.5q28 0 49 9t44 28q21 16 40 41t25 55l65 307h114l-109 -520h-112l16 75q-42 -49 -84.5 -70t-88.5 -21q-75 0 -111 40t-36 107q0 31 7 63l69 326h114zM221 612l23 112h109l-23 -112h-109zM409 612l24 112h109
l-23 -112h-110z" />
    <glyph glyph-name="yacute" unicode="&#xfd;" horiz-adv-x="545" 
d="M82 520h126l66 -375l208 375h130l-335 -552q-24 -40 -44.5 -70.5t-43 -50.5t-49.5 -30.5t-64 -10.5q-25 0 -45.5 4.5t-40.5 12.5l30 86q11 -4 25 -7.5t30 -3.5q30 0 48.5 16.5t41.5 55.5l30 51zM263 593l146 148h138l-171 -148h-113z" />
    <glyph glyph-name="thorn" unicode="&#xfe;" horiz-adv-x="610" 
d="M240 451q31 39 73 62t96 23q48 0 82.5 -18t57 -49t33 -71t10.5 -85q0 -68 -19.5 -127.5t-54 -104.5t-83 -71t-106.5 -26q-57 0 -98 21t-70 69l-57 -268h-114l192 908h114zM195 253q-4 -16 -5 -30t-1 -28q0 -52 30 -85t90 -33q39 0 69.5 19.5t51.5 52.5t32 75.5t11 88.5
q0 63 -28 96t-73 33q-31 0 -58.5 -11.5t-50 -32t-38 -48t-22.5 -59.5z" />
    <glyph glyph-name="ydieresis" unicode="&#xff;" horiz-adv-x="545" 
d="M82 520h126l66 -375l208 375h130l-335 -552q-24 -40 -44.5 -70.5t-43 -50.5t-49.5 -30.5t-64 -10.5q-25 0 -45.5 4.5t-40.5 12.5l30 86q11 -4 25 -7.5t30 -3.5q30 0 48.5 16.5t41.5 55.5l30 51zM203 612l23 112h109l-23 -112h-109zM391 612l24 112h109l-23 -112h-110z
" />
    <glyph glyph-name="Amacron" unicode="&#x100;" horiz-adv-x="686" 
d="M521 714l121 -714h-124l-28 182h-278l-105 -182h-130l424 714h120zM266 283h211l-44 294zM339 885h301l-19 -92h-301z" />
    <glyph glyph-name="amacron" unicode="&#x101;" horiz-adv-x="549" 
d="M182 -13q-69 0 -110 36.5t-41 105.5q0 56 24 92t64 57t92 30t108 11l95 4l3 16q3 18 3 34q0 36 -21 56t-69 20q-54 0 -82 -14.5t-43 -56.5l-103 11q25 80 84 113.5t156 33.5q91 0 139 -41.5t49 -116.5q0 -14 -2 -29t-5 -31l-68 -318h-108l14 68q-36 -36 -76 -58.5
t-103 -22.5zM397 247l-77 -4q-50 -3 -84 -10.5t-54 -20.5t-28.5 -31.5t-8.5 -42.5q0 -26 18 -44.5t55 -18.5q31 0 59 9.5t50.5 26t38 40t21.5 52.5zM231 706h276l-18 -89h-277z" />
    <glyph glyph-name="Abreve" unicode="&#x102;" horiz-adv-x="686" 
d="M521 714l121 -714h-124l-28 182h-278l-105 -182h-130l424 714h120zM266 283h211l-44 294zM466 773q-57 0 -93.5 29t-36.5 80q0 17 3 37h85q-1 -5 -1.5 -11.5t-0.5 -11.5q0 -24 13 -37.5t39 -13.5q30 0 49.5 16t26.5 58h85q-12 -75 -51.5 -110.5t-117.5 -35.5z" />
    <glyph glyph-name="abreve" unicode="&#x103;" horiz-adv-x="549" 
d="M182 -13q-69 0 -110 36.5t-41 105.5q0 56 24 92t64 57t92 30t108 11l95 4l3 16q3 18 3 34q0 36 -21 56t-69 20q-54 0 -82 -14.5t-43 -56.5l-103 11q25 80 84 113.5t156 33.5q91 0 139 -41.5t49 -116.5q0 -14 -2 -29t-5 -31l-68 -318h-108l14 68q-36 -36 -76 -58.5
t-103 -22.5zM397 247l-77 -4q-50 -3 -84 -10.5t-54 -20.5t-28.5 -31.5t-8.5 -42.5q0 -26 18 -44.5t55 -18.5q31 0 59 9.5t50.5 26t38 40t21.5 52.5zM359 590q-57 0 -93 29.5t-36 80.5q0 9 0.5 18t2.5 20h82q-2 -7 -2 -13v-11q0 -26 14.5 -38.5t38.5 -12.5q29 0 49 16t27 59
h83q-12 -78 -53 -113t-113 -35z" />
    <glyph glyph-name="Aogonek" unicode="&#x104;" horiz-adv-x="686" 
d="M604 -191q-10 -1 -20.5 -1.5t-23.5 -0.5q-20 0 -39 4t-34 13t-24.5 23.5t-9.5 34.5q0 36 22 64t68 54h-25l-28 182h-278l-105 -182h-130l424 714h120l121 -714q-38 -22 -64 -44.5t-26 -45.5q0 -16 11 -22.5t28 -6.5q8 0 14 0.5t14 1.5zM266 283h211l-44 294z" />
    <glyph glyph-name="aogonek" unicode="&#x105;" horiz-adv-x="549" 
d="M418 -185q-18 -3 -42 -3q-19 0 -37.5 3.5t-32.5 12t-23 22.5t-9 34q0 68 88 116h-15l14 68q-36 -36 -76 -58.5t-103 -22.5q-69 0 -110 36.5t-41 105.5q0 56 24 92t64 57t92 30t108 11l95 4l3 16q3 18 3 34q0 36 -21 56t-69 20q-54 0 -82 -14.5t-43 -56.5l-103 11
q25 80 84 113.5t156 33.5q91 0 139 -41.5t49 -116.5q0 -14 -2 -29t-5 -31l-68 -318q-38 -22 -62.5 -43t-24.5 -44q0 -16 11 -22t28 -6h12.5t13.5 1zM397 247l-77 -4q-50 -3 -84 -10.5t-54 -20.5t-28.5 -31.5t-8.5 -42.5q0 -26 18 -44.5t55 -18.5q31 0 59 9.5t50.5 26t38 40
t21.5 52.5z" />
    <glyph glyph-name="Cacute" unicode="&#x106;" horiz-adv-x="712" 
d="M610 473q-10 76 -44 115.5t-110 39.5q-57 0 -102 -26t-76.5 -70.5t-48.5 -103.5t-17 -125q0 -45 9.5 -84.5t30 -69t53 -46.5t78.5 -17q83 0 126.5 40.5t57.5 111.5h131q-12 -57 -36 -104.5t-62.5 -81t-94 -52t-130.5 -18.5q-72 0 -126 23.5t-90.5 65.5t-54.5 99t-18 125
q0 86 26 165t74.5 139.5t118 96.5t156.5 36q66 0 114.5 -17t81.5 -48.5t50.5 -76.5t22.5 -100zM391 773l150 139h140l-177 -139h-113z" />
    <glyph glyph-name="cacute" unicode="&#x107;" horiz-adv-x="564" 
d="M444 337q-4 46 -25 76.5t-75 30.5q-35 0 -64.5 -16t-51 -46.5t-34 -75t-12.5 -101.5t26.5 -93t86.5 -36q54 0 84.5 27.5t42.5 76.5h115q-20 -94 -81 -145t-173 -51q-52 0 -92.5 16.5t-68.5 46t-43 69.5t-15 88q0 80 23 142t62.5 104t93 64t114.5 22q50 0 86.5 -14
t61 -38.5t37.5 -58t16 -72.5zM277 593l146 148h138l-171 -148h-113z" />
    <glyph glyph-name="Ccircumflex" unicode="&#x108;" horiz-adv-x="712" 
d="M610 473q-10 76 -44 115.5t-110 39.5q-57 0 -102 -26t-76.5 -70.5t-48.5 -103.5t-17 -125q0 -45 9.5 -84.5t30 -69t53 -46.5t78.5 -17q83 0 126.5 40.5t57.5 111.5h131q-12 -57 -36 -104.5t-62.5 -81t-94 -52t-130.5 -18.5q-72 0 -126 23.5t-90.5 65.5t-54.5 99t-18 125
q0 86 26 165t74.5 139.5t118 96.5t156.5 36q66 0 114.5 -17t81.5 -48.5t50.5 -76.5t22.5 -100zM304 773l146 139h114l91 -139h-101l-56 75l-92 -75h-102z" />
    <glyph glyph-name="ccircumflex" unicode="&#x109;" horiz-adv-x="564" 
d="M444 337q-4 46 -25 76.5t-75 30.5q-35 0 -64.5 -16t-51 -46.5t-34 -75t-12.5 -101.5t26.5 -93t86.5 -36q54 0 84.5 27.5t42.5 76.5h115q-20 -94 -81 -145t-173 -51q-52 0 -92.5 16.5t-68.5 46t-43 69.5t-15 88q0 80 23 142t62.5 104t93 64t114.5 22q50 0 86.5 -14
t61 -38.5t37.5 -58t16 -72.5zM195 593l147 148h114l88 -148h-99l-55 85l-94 -85h-101z" />
    <glyph glyph-name="Cdotaccent" unicode="&#x10a;" horiz-adv-x="712" 
d="M610 473q-10 76 -44 115.5t-110 39.5q-57 0 -102 -26t-76.5 -70.5t-48.5 -103.5t-17 -125q0 -45 9.5 -84.5t30 -69t53 -46.5t78.5 -17q83 0 126.5 40.5t57.5 111.5h131q-12 -57 -36 -104.5t-62.5 -81t-94 -52t-130.5 -18.5q-72 0 -126 23.5t-90.5 65.5t-54.5 99t-18 125
q0 86 26 165t74.5 139.5t118 96.5t156.5 36q66 0 114.5 -17t81.5 -48.5t50.5 -76.5t22.5 -100zM416 784l26 120h117l-26 -120h-117z" />
    <glyph glyph-name="cdotaccent" unicode="&#x10b;" horiz-adv-x="564" 
d="M444 337q-4 46 -25 76.5t-75 30.5q-35 0 -64.5 -16t-51 -46.5t-34 -75t-12.5 -101.5t26.5 -93t86.5 -36q54 0 84.5 27.5t42.5 76.5h115q-20 -94 -81 -145t-173 -51q-52 0 -92.5 16.5t-68.5 46t-43 69.5t-15 88q0 80 23 142t62.5 104t93 64t114.5 22q50 0 86.5 -14
t61 -38.5t37.5 -58t16 -72.5zM310 611l24 114h111l-24 -114h-111z" />
    <glyph glyph-name="Ccaron" unicode="&#x10c;" horiz-adv-x="712" 
d="M610 473q-10 76 -44 115.5t-110 39.5q-57 0 -102 -26t-76.5 -70.5t-48.5 -103.5t-17 -125q0 -45 9.5 -84.5t30 -69t53 -46.5t78.5 -17q83 0 126.5 40.5t57.5 111.5h131q-12 -57 -36 -104.5t-62.5 -81t-94 -52t-130.5 -18.5q-72 0 -126 23.5t-90.5 65.5t-54.5 99t-18 125
q0 86 26 165t74.5 139.5t118 96.5t156.5 36q66 0 114.5 -17t81.5 -48.5t50.5 -76.5t22.5 -100zM683 916l-146 -140h-114l-90 140h101l55 -75l93 75h101z" />
    <glyph glyph-name="ccaron" unicode="&#x10d;" horiz-adv-x="564" 
d="M444 337q-4 46 -25 76.5t-75 30.5q-35 0 -64.5 -16t-51 -46.5t-34 -75t-12.5 -101.5t26.5 -93t86.5 -36q54 0 84.5 27.5t42.5 76.5h115q-20 -94 -81 -145t-173 -51q-52 0 -92.5 16.5t-68.5 46t-43 69.5t-15 88q0 80 23 142t62.5 104t93 64t114.5 22q50 0 86.5 -14
t61 -38.5t37.5 -58t16 -72.5zM569 741l-147 -148h-114l-88 148h99l55 -85l94 85h101z" />
    <glyph glyph-name="Dcaron" unicode="&#x10e;" horiz-adv-x="726" 
d="M43 0l151 714h234q68 0 122.5 -22.5t92.5 -62t58 -92.5t20 -114q0 -95 -27.5 -173t-82.5 -133.5t-137.5 -86t-191.5 -30.5h-239zM297 103q76 0 132.5 23t93.5 65t55 100t18 129q0 39 -11 74t-33.5 61t-56 41t-78.5 15h-126l-107 -508h113zM621 916l-146 -140h-114
l-90 140h101l55 -75l93 75h101z" />
    <glyph glyph-name="dcaron" unicode="&#x10f;" horiz-adv-x="609" 
d="M325 536q54 0 95.5 -22t69.5 -70l58 270h114l-152 -714h-111l14 68q-33 -42 -73.5 -63t-91.5 -21q-48 0 -83.5 17.5t-59 47.5t-35 70.5t-11.5 86.5q0 67 20 127t55.5 105t84 71.5t106.5 26.5zM456 271q6 27 6 54q0 44 -27 77q-15 19 -38 30t-56 11q-39 0 -69 -19
t-51 -51.5t-32 -75.5t-11 -91q0 -57 26.5 -93t80.5 -36q52 0 96 36q25 21 41.5 48t25.5 69zM684 490l74 224h109l-97 -224h-86z" />
    <glyph glyph-name="Dcroat" unicode="&#x110;" horiz-adv-x="741" 
d="M58 0l67 318h-78l21 101h79l62 295h234q68 0 122.5 -22.5t92.5 -62t58 -92.5t20 -114q0 -95 -27.5 -173t-82.5 -133.5t-137.5 -86t-191.5 -30.5h-239zM312 103q76 0 132.5 23t93.5 65t55 100t18 129q0 39 -11 74t-33.5 61t-56 41t-78.5 15h-126l-41 -192h170l-22 -101
h-169l-45 -215h113z" />
    <glyph glyph-name="dcroat" unicode="&#x111;" horiz-adv-x="616" 
d="M325 509q54 0 93 -20.5t67 -68.5l32 149h-162l15 74h162l16 71h114l-16 -71h68l-15 -74h-68l-121 -569h-111l14 68q-33 -40 -73.5 -62t-91.5 -22q-47 0 -82 17t-59 46t-36 67.5t-12 80.5q0 65 20 122.5t55.5 100t84 67t106.5 24.5zM455 257q3 14 4 26t1 23q0 41 -25 69
q-15 19 -38 30t-56 11q-39 0 -69 -17.5t-51 -47.5t-32 -70t-11 -85q0 -23 6.5 -44.5t20 -38t33.5 -26.5t47 -10q53 0 96 37q24 21 41 44t25 62z" />
    <glyph glyph-name="Emacron" unicode="&#x112;" horiz-adv-x="599" 
d="M292 610l-40 -190h334l-22 -105h-334l-45 -211h375l-36 -104h-481l151 714h474l-21 -104h-355zM309 885h301l-19 -92h-301z" />
    <glyph glyph-name="emacron" unicode="&#x113;" horiz-adv-x="580" 
d="M344 449q-54 0 -95.5 -31.5t-59.5 -106.5h257q3 15 3 31q0 49 -27 78t-78 29zM179 232q-1 -4 -1.5 -12.5t-0.5 -14.5q0 -27 7 -51t21.5 -42t37.5 -28.5t55 -10.5q54 0 81 19.5t40 61.5h111q-11 -41 -30 -73t-48 -53.5t-69.5 -32.5t-95.5 -11q-53 0 -94.5 16.5t-70 46
t-43.5 70t-15 88.5q0 79 22 141t60.5 104t91.5 64t116 22q49 0 87 -15t64 -41.5t39.5 -63t13.5 -79.5q0 -17 -2.5 -40.5t-6.5 -46.5l-3 -18h-367zM244 706h276l-18 -89h-277z" />
    <glyph glyph-name="Ebreve" unicode="&#x114;" horiz-adv-x="599" 
d="M292 610l-40 -190h334l-22 -105h-334l-45 -211h375l-36 -104h-481l151 714h474l-21 -104h-355zM436 773q-57 0 -93.5 29t-36.5 80q0 17 3 37h85q-1 -5 -1.5 -11.5t-0.5 -11.5q0 -24 13 -37.5t39 -13.5q30 0 49.5 16t26.5 58h85q-12 -75 -51.5 -110.5t-117.5 -35.5z" />
    <glyph glyph-name="ebreve" unicode="&#x115;" horiz-adv-x="580" 
d="M344 449q-54 0 -95.5 -31.5t-59.5 -106.5h257q3 15 3 31q0 49 -27 78t-78 29zM179 232q-1 -4 -1.5 -12.5t-0.5 -14.5q0 -27 7 -51t21.5 -42t37.5 -28.5t55 -10.5q54 0 81 19.5t40 61.5h111q-11 -41 -30 -73t-48 -53.5t-69.5 -32.5t-95.5 -11q-53 0 -94.5 16.5t-70 46
t-43.5 70t-15 88.5q0 79 22 141t60.5 104t91.5 64t116 22q49 0 87 -15t64 -41.5t39.5 -63t13.5 -79.5q0 -17 -2.5 -40.5t-6.5 -46.5l-3 -18h-367zM367 590q-57 0 -93 29.5t-36 80.5q0 9 0.5 18t2.5 20h82q-2 -7 -2 -13v-11q0 -26 14.5 -38.5t38.5 -12.5q29 0 49 16t27 59h83
q-12 -78 -53 -113t-113 -35z" />
    <glyph glyph-name="Edotaccent" unicode="&#x116;" horiz-adv-x="599" 
d="M292 610l-40 -190h334l-22 -105h-334l-45 -211h375l-36 -104h-481l151 714h474l-21 -104h-355zM380 784l26 120h117l-26 -120h-117z" />
    <glyph glyph-name="edotaccent" unicode="&#x117;" horiz-adv-x="580" 
d="M344 449q-54 0 -95.5 -31.5t-59.5 -106.5h257q3 15 3 31q0 49 -27 78t-78 29zM179 232q-1 -4 -1.5 -12.5t-0.5 -14.5q0 -27 7 -51t21.5 -42t37.5 -28.5t55 -10.5q54 0 81 19.5t40 61.5h111q-11 -41 -30 -73t-48 -53.5t-69.5 -32.5t-95.5 -11q-53 0 -94.5 16.5t-70 46
t-43.5 70t-15 88.5q0 79 22 141t60.5 104t91.5 64t116 22q49 0 87 -15t64 -41.5t39.5 -63t13.5 -79.5q0 -17 -2.5 -40.5t-6.5 -46.5l-3 -18h-367zM306 611l24 114h111l-24 -114h-111z" />
    <glyph glyph-name="Eogonek" unicode="&#x118;" horiz-adv-x="599" 
d="M486 -191q-10 -1 -20.5 -1.5t-23.5 -0.5q-20 0 -39 4t-34 13t-24.5 23.5t-9.5 34.5q0 36 22 64t68 54h-382l151 714h474l-21 -104h-355l-40 -190h334l-22 -105h-334l-45 -211h375l-36 -104q-38 -22 -64 -44.5t-26 -45.5q0 -16 11 -22.5t28 -6.5q8 0 14 0.5t14 1.5z" />
    <glyph glyph-name="eogonek" unicode="&#x119;" horiz-adv-x="580" 
d="M359 -185q-18 -3 -42 -3q-19 0 -37.5 3.5t-32.5 12t-23 22.5t-9 34q0 59 62 100q-51 2 -90.5 19.5t-66.5 46.5t-41.5 68.5t-14.5 86.5q0 79 22 141t60.5 104t91.5 64t116 22q49 0 87 -15t64 -41.5t39.5 -63t13.5 -79.5q0 -17 -2.5 -40.5t-6.5 -46.5l-3 -18h-367
q-1 -4 -1.5 -12.5t-0.5 -14.5q0 -27 7 -51t21.5 -42t37.5 -28.5t55 -10.5q54 0 81 19.5t40 61.5h111q-17 -60 -49 -99.5t-89 -56.5q-37 -21 -60 -41.5t-23 -43.5q0 -16 11 -22t28 -6h12.5t13.5 1zM344 449q-54 0 -95.5 -31.5t-59.5 -106.5h257q2 12 2.5 24t-0.5 23
q-4 42 -30 66.5t-74 24.5z" />
    <glyph glyph-name="Ecaron" unicode="&#x11a;" horiz-adv-x="599" 
d="M292 610l-40 -190h334l-22 -105h-334l-45 -211h375l-36 -104h-481l151 714h474l-21 -104h-355zM643 916l-146 -140h-114l-90 140h101l55 -75l93 75h101z" />
    <glyph glyph-name="ecaron" unicode="&#x11b;" horiz-adv-x="580" 
d="M344 449q-54 0 -95.5 -31.5t-59.5 -106.5h257q3 15 3 31q0 49 -27 78t-78 29zM179 232q-1 -4 -1.5 -12.5t-0.5 -14.5q0 -27 7 -51t21.5 -42t37.5 -28.5t55 -10.5q54 0 81 19.5t40 61.5h111q-11 -41 -30 -73t-48 -53.5t-69.5 -32.5t-95.5 -11q-53 0 -94.5 16.5t-70 46
t-43.5 70t-15 88.5q0 79 22 141t60.5 104t91.5 64t116 22q49 0 87 -15t64 -41.5t39.5 -63t13.5 -79.5q0 -17 -2.5 -40.5t-6.5 -46.5l-3 -18h-367zM567 741l-147 -148h-114l-88 148h99l55 -85l94 85h101z" />
    <glyph glyph-name="Gcircumflex" unicode="&#x11c;" horiz-adv-x="721" 
d="M609 502q-11 67 -47.5 97t-102.5 30q-60 0 -106.5 -27t-78 -72.5t-48 -104.5t-16.5 -123q0 -44 10 -83.5t31 -69t54 -47t79 -17.5q57 0 96.5 12.5t68.5 32.5l31 147h-158l22 102h271l-66 -303q-42 -38 -110.5 -66t-162.5 -28q-73 0 -127.5 24t-91 66t-54.5 98.5
t-18 122.5q0 86 25.5 165.5t75 140t120.5 97t163 36.5q115 0 180.5 -55t77.5 -158zM305 773l146 139h114l91 -139h-101l-56 75l-92 -75h-102z" />
    <glyph glyph-name="gcircumflex" unicode="&#x11d;" horiz-adv-x="609" 
d="M458 274q5 20 5 37q0 61 -27 96.5t-93 35.5q-39 0 -69 -19.5t-50.5 -50.5t-31 -70.5t-10.5 -79.5q0 -58 27.5 -88.5t75.5 -30.5q62 0 107.5 39t59.5 105zM527 78q-14 -65 -32.5 -117.5t-49 -89.5t-78.5 -56.5t-122 -19.5q-114 0 -166 43t-55 122h114q7 -42 32 -58.5
t84 -16.5q39 0 65.5 13t44 36t28 54.5t18.5 69.5l7 32q-33 -42 -74 -59.5t-93 -17.5q-47 0 -82.5 16t-58.5 44t-34.5 66.5t-11.5 83.5q0 56 18 111.5t52 100t82.5 72t109.5 27.5t100.5 -21t69.5 -69l16 76h111zM223 593l147 148h114l88 -148h-99l-55 85l-94 -85h-101z" />
    <glyph glyph-name="Gbreve" unicode="&#x11e;" horiz-adv-x="721" 
d="M609 502q-11 67 -47.5 97t-102.5 30q-60 0 -106.5 -27t-78 -72.5t-48 -104.5t-16.5 -123q0 -44 10 -83.5t31 -69t54 -47t79 -17.5q57 0 96.5 12.5t68.5 32.5l31 147h-158l22 102h271l-66 -303q-42 -38 -110.5 -66t-162.5 -28q-73 0 -127.5 24t-91 66t-54.5 98.5
t-18 122.5q0 86 25.5 165.5t75 140t120.5 97t163 36.5q115 0 180.5 -55t77.5 -158zM475 773q-57 0 -93.5 29t-36.5 80q0 17 3 37h85q-1 -5 -1.5 -11.5t-0.5 -11.5q0 -24 13 -37.5t39 -13.5q30 0 49.5 16t26.5 58h85q-12 -75 -51.5 -110.5t-117.5 -35.5z" />
    <glyph glyph-name="gbreve" unicode="&#x11f;" horiz-adv-x="609" 
d="M458 274q5 20 5 37q0 61 -27 96.5t-93 35.5q-39 0 -69 -19.5t-50.5 -50.5t-31 -70.5t-10.5 -79.5q0 -58 27.5 -88.5t75.5 -30.5q62 0 107.5 39t59.5 105zM527 78q-14 -65 -32.5 -117.5t-49 -89.5t-78.5 -56.5t-122 -19.5q-114 0 -166 43t-55 122h114q7 -42 32 -58.5
t84 -16.5q39 0 65.5 13t44 36t28 54.5t18.5 69.5l7 32q-33 -42 -74 -59.5t-93 -17.5q-47 0 -82.5 16t-58.5 44t-34.5 66.5t-11.5 83.5q0 56 18 111.5t52 100t82.5 72t109.5 27.5t100.5 -21t69.5 -69l16 76h111zM390 590q-57 0 -93 29.5t-36 80.5q0 9 0.5 18t2.5 20h82
q-2 -7 -2 -13v-11q0 -26 14.5 -38.5t38.5 -12.5q29 0 49 16t27 59h83q-12 -78 -53 -113t-113 -35z" />
    <glyph glyph-name="Gdotaccent" unicode="&#x120;" horiz-adv-x="721" 
d="M609 502q-11 67 -47.5 97t-102.5 30q-60 0 -106.5 -27t-78 -72.5t-48 -104.5t-16.5 -123q0 -44 10 -83.5t31 -69t54 -47t79 -17.5q57 0 96.5 12.5t68.5 32.5l31 147h-158l22 102h271l-66 -303q-42 -38 -110.5 -66t-162.5 -28q-73 0 -127.5 24t-91 66t-54.5 98.5
t-18 122.5q0 86 25.5 165.5t75 140t120.5 97t163 36.5q115 0 180.5 -55t77.5 -158zM414 784l26 120h117l-26 -120h-117z" />
    <glyph glyph-name="gdotaccent" unicode="&#x121;" horiz-adv-x="609" 
d="M458 274q5 20 5 37q0 61 -27 96.5t-93 35.5q-39 0 -69 -19.5t-50.5 -50.5t-31 -70.5t-10.5 -79.5q0 -58 27.5 -88.5t75.5 -30.5q62 0 107.5 39t59.5 105zM527 78q-14 -65 -32.5 -117.5t-49 -89.5t-78.5 -56.5t-122 -19.5q-114 0 -166 43t-55 122h114q7 -42 32 -58.5
t84 -16.5q39 0 65.5 13t44 36t28 54.5t18.5 69.5l7 32q-33 -42 -74 -59.5t-93 -17.5q-47 0 -82.5 16t-58.5 44t-34.5 66.5t-11.5 83.5q0 56 18 111.5t52 100t82.5 72t109.5 27.5t100.5 -21t69.5 -69l16 76h111zM322 611l24 114h111l-24 -114h-111z" />
    <glyph glyph-name="Gcommaaccent" unicode="&#x122;" horiz-adv-x="721" 
d="M609 502q-11 67 -47.5 97t-102.5 30q-60 0 -106.5 -27t-78 -72.5t-48 -104.5t-16.5 -123q0 -44 10 -83.5t31 -69t54 -47t79 -17.5q57 0 96.5 12.5t68.5 32.5l31 147h-158l22 102h271l-66 -303q-42 -38 -110.5 -66t-162.5 -28q-73 0 -127.5 24t-91 66t-54.5 98.5
t-18 122.5q0 86 25.5 165.5t75 140t120.5 97t163 36.5q115 0 180.5 -55t77.5 -158zM187 -222l111 155h131l-136 -155h-106z" />
    <glyph glyph-name="gcommaaccent" unicode="&#x123;" horiz-adv-x="609" 
d="M458 274q5 20 5 37q0 61 -27 96.5t-93 35.5q-39 0 -69 -19.5t-50.5 -50.5t-31 -70.5t-10.5 -79.5q0 -58 27.5 -88.5t75.5 -30.5q62 0 107.5 39t59.5 105zM527 78q-14 -65 -32.5 -117.5t-49 -89.5t-78.5 -56.5t-122 -19.5q-114 0 -166 43t-55 122h114q7 -42 32 -58.5
t84 -16.5q39 0 65.5 13t44 36t28 54.5t18.5 69.5l7 32q-33 -42 -74 -59.5t-93 -17.5q-47 0 -82.5 16t-58.5 44t-34.5 66.5t-11.5 83.5q0 56 18 111.5t52 100t82.5 72t109.5 27.5t100.5 -21t69.5 -69l16 76h111zM549 741l-105 -150h-125l131 150h99z" />
    <glyph glyph-name="Hcircumflex" unicode="&#x124;" horiz-adv-x="715" 
d="M485 0l66 313h-321l-66 -313h-121l151 714h121l-61 -289h321l61 289h121l-151 -714h-121zM310 773l146 139h114l91 -139h-101l-56 75l-92 -75h-102z" />
    <glyph glyph-name="hcircumflex" unicode="&#x125;" horiz-adv-x="581" 
d="M373 440q-50 0 -100 -38q-22 -17 -40 -40.5t-23 -51.5l-65 -310h-114l151 714h114l-57 -265q42 48 86 67.5t89 19.5q73 0 111.5 -39.5t38.5 -109.5q0 -32 -7 -61l-69 -326h-114l67 314q2 13 3.5 24t1.5 22q0 38 -18 59t-55 21zM200 773l146 139h114l91 -139h-101l-56 75
l-92 -75h-102z" />
    <glyph glyph-name="Hbar" unicode="&#x126;" horiz-adv-x="746" 
d="M500 0l64 303h-321l-64 -303h-121l110 519h-79l20 94h79l21 101h121l-21 -101h321l21 101h121l-21 -101h79l-20 -94h-79l-110 -519h-121zM588 415l22 104h-321l-22 -104h321z" />
    <glyph glyph-name="hbar" unicode="&#x127;" horiz-adv-x="587" 
d="M374 413q-50 0 -100 -38q-22 -17 -40 -40.5t-23 -51.5l-60 -283h-114l120 569h-66l15 74h67l15 71h114l-15 -71h164l-15 -74h-165l-31 -147q42 48 86 67.5t89 19.5q72 0 111 -39.5t39 -109.5q0 -32 -7 -61l-63 -299h-114l61 287q2 12 3.5 23t1.5 22q0 38 -18 59.5
t-55 21.5z" />
    <glyph glyph-name="Itilde" unicode="&#x128;" horiz-adv-x="272" 
d="M43 0l151 714h121l-151 -714h-121zM328 858q23 0 34 9.5t15 35.5h83q-7 -69 -36 -99t-83 -30q-21 0 -39 7.5t-33 17t-29 17t-27 7.5q-23 0 -35 -10.5t-16 -36.5h-83q7 69 36.5 99.5t83.5 30.5q21 0 38.5 -7.5t33 -16.5t29.5 -16.5t28 -7.5z" />
    <glyph glyph-name="itilde" unicode="&#x129;" horiz-adv-x="246" 
d="M33 0l110 520h114l-110 -520h-114zM271 685q23 0 34.5 9.5t15.5 35.5h79q-7 -69 -36 -99t-81 -30q-21 0 -38.5 7.5t-32.5 16.5t-28.5 16.5t-26.5 7.5q-23 0 -35 -10t-16 -36h-79q7 69 36 99.5t81 30.5q21 0 38.5 -7.5t32.5 -16.5t28.5 -16.5t27.5 -7.5z" />
    <glyph glyph-name="Imacron" unicode="&#x12a;" horiz-adv-x="272" 
d="M43 0l151 714h121l-151 -714h-121zM132 885h301l-19 -92h-301z" />
    <glyph glyph-name="imacron" unicode="&#x12b;" horiz-adv-x="246" 
d="M33 0l110 520h114l-110 -520h-114zM89 706h276l-18 -89h-277z" />
    <glyph glyph-name="Ibreve" unicode="&#x12c;" horiz-adv-x="272" 
d="M43 0l151 714h121l-151 -714h-121zM261 773q-57 0 -93.5 29t-36.5 80q0 17 3 37h85q-1 -5 -1.5 -11.5t-0.5 -11.5q0 -24 13 -37.5t39 -13.5q30 0 49.5 16t26.5 58h85q-12 -75 -51.5 -110.5t-117.5 -35.5z" />
    <glyph glyph-name="ibreve" unicode="&#x12d;" horiz-adv-x="246" 
d="M33 0l110 520h114l-110 -520h-114zM211 590q-57 0 -93 29.5t-36 80.5q0 9 0.5 18t2.5 20h82q-2 -7 -2 -13v-11q0 -26 14.5 -38.5t38.5 -12.5q29 0 49 16t27 59h83q-12 -78 -53 -113t-113 -35z" />
    <glyph glyph-name="Iogonek" unicode="&#x12e;" horiz-adv-x="272" 
d="M126 -191q-10 -1 -20.5 -1.5t-23.5 -0.5q-20 0 -39 4t-34 13t-24.5 23.5t-9.5 34.5q0 36 22 64t68 54h-22l151 714h121l-151 -714q-38 -22 -64 -44.5t-26 -45.5q0 -16 11 -22.5t28 -6.5q8 0 14 0.5t14 1.5z" />
    <glyph glyph-name="iogonek" unicode="&#x12f;" horiz-adv-x="246" 
d="M110 -185q-18 -3 -42 -3q-19 0 -37.5 3.5t-32.5 12t-23 22.5t-9 34q0 68 88 116h-21l110 520h114l-110 -520q-38 -22 -62.5 -43t-24.5 -44q0 -16 11 -22t28 -6h12.5t13.5 1zM155 601l24 113h119l-24 -113h-119z" />
    <glyph glyph-name="Idotaccent" unicode="&#x130;" horiz-adv-x="272" 
d="M43 0l151 714h121l-151 -714h-121zM208 784l26 120h117l-26 -120h-117z" />
    <glyph glyph-name="dotlessi" unicode="&#x131;" horiz-adv-x="246" 
d="M33 0l110 520h114l-110 -520h-114z" />
    <glyph glyph-name="IJ" unicode="&#x132;" horiz-adv-x="891" 
d="M43 0l151 714h121l-151 -714h-121zM838 229q-14 -65 -38 -112t-59.5 -77t-82.5 -44t-107 -14q-51 0 -94 13t-73.5 38.5t-48 64.5t-17.5 90q0 10 0.5 20.5t2.5 21.5h119q-1 -7 -1 -12.5v-11.5q0 -26 5.5 -47.5t19 -38t37 -25.5t58.5 -9q37 0 64 11.5t45.5 33t31 52
t21.5 69.5l98 462h121z" />
    <glyph glyph-name="ij" unicode="&#x133;" horiz-adv-x="492" 
d="M33 0l110 520h114l-110 -520h-114zM155 601l24 113h119l-24 -113h-119zM401 601l24 113h119l-24 -113h-119zM389 520h114l-116 -541q-9 -42 -22.5 -73t-33.5 -51.5t-49 -30.5t-69 -10q-33 0 -59.5 6t-48.5 15l34 86q12 -5 27.5 -9t35.5 -4q31 0 47.5 17.5t25.5 59.5z" />
    <glyph glyph-name="Jcircumflex" unicode="&#x134;" horiz-adv-x="617" 
d="M564 229q-14 -65 -38 -112t-59.5 -77t-82.5 -44t-107 -14q-51 0 -94 13t-73.5 38.5t-48 64.5t-17.5 90q0 10 0.5 20.5t2.5 21.5h119q-1 -7 -1 -12.5v-11.5q0 -26 5.5 -47.5t19 -38t37 -25.5t58.5 -9q37 0 64 11.5t45.5 33t31 52t21.5 69.5l98 462h121zM436 773l146 139
h114l91 -139h-101l-56 75l-92 -75h-102z" />
    <glyph glyph-name="jcircumflex" unicode="&#x135;" horiz-adv-x="246" 
d="M143 520h114l-116 -541q-9 -42 -22.5 -73t-33.5 -51.5t-49 -30.5t-69 -10q-33 0 -59.5 6t-48.5 15l34 86q12 -5 27.5 -9t35.5 -4q31 0 47.5 17.5t25.5 59.5zM34 593l147 148h114l88 -148h-99l-55 85l-94 -85h-101z" />
    <glyph glyph-name="Kcommaaccent" unicode="&#x136;" horiz-adv-x="662" 
d="M349 370l-129 -107l-56 -263h-121l151 714h121l-65 -307l359 307h139l-304 -273l179 -441h-131zM142 -222l111 155h131l-136 -155h-106z" />
    <glyph glyph-name="kcommaaccent" unicode="&#x137;" horiz-adv-x="550" 
d="M31 0l151 714h113l-83 -392l256 198h139l-226 -181l132 -339h-118l-103 279l-107 -80l-41 -199h-113zM81 -217l106 150h124l-130 -150h-100z" />
    <glyph glyph-name="kgreenlandic" unicode="&#x138;" horiz-adv-x="550" 
d="M31 0l110 520h113l-47 -221l265 221h135l-229 -198l136 -322h-121l-103 261l-109 -87l-37 -174h-113z" />
    <glyph glyph-name="Lacute" unicode="&#x139;" horiz-adv-x="573" 
d="M43 0l151 714h121l-129 -609h354l-38 -105h-459zM191 773l150 139h140l-177 -139h-113z" />
    <glyph glyph-name="lacute" unicode="&#x13a;" horiz-adv-x="246" 
d="M33 0l151 714h114l-151 -714h-114zM179 773l150 139h140l-177 -139h-113z" />
    <glyph glyph-name="Lcommaaccent" unicode="&#x13b;" horiz-adv-x="573" 
d="M43 0l151 714h121l-129 -609h354l-38 -105h-459zM92 -222l111 155h131l-136 -155h-106z" />
    <glyph glyph-name="lcommaaccent" unicode="&#x13c;" horiz-adv-x="246" 
d="M33 0l151 714h114l-151 -714h-114zM-92 -217l106 150h124l-130 -150h-100z" />
    <glyph glyph-name="Lcaron" unicode="&#x13d;" horiz-adv-x="573" 
d="M43 0l151 714h121l-129 -609h354l-38 -105h-459zM405.255 487.896l75.1924 227.609h110.756l-98.5625 -227.609h-87.3857z" />
    <glyph glyph-name="lcaron" unicode="&#x13e;" horiz-adv-x="246" 
d="M33 0l151 714h114l-151 -714h-114zM316 490l74 224h109l-97 -224h-86z" />
    <glyph glyph-name="Ldot" unicode="&#x13f;" horiz-adv-x="573" 
d="M43 0l151 714h121l-129 -609h354l-38 -105h-459zM387 330l29 139h121l-29 -139h-121z" />
    <glyph glyph-name="ldot" unicode="&#x140;" horiz-adv-x="389" 
d="M33 0l151 714h114l-151 -714h-114zM289 303l29 139h121l-29 -139h-121z" />
    <glyph glyph-name="Lslash" unicode="&#x141;" horiz-adv-x="588" 
d="M37 292l94 55l78 367h121l-62 -291l207 124l-23 -112l-207 -124l-44 -206h354l-37 -105h-460l50 234l-94 -56z" />
    <glyph glyph-name="lslash" unicode="&#x142;" horiz-adv-x="298" 
d="M41 348l105 59l64 307h114l-52 -243l103 59l-20 -100l-103 -59l-79 -371h-114l66 308l-104 -60z" />
    <glyph glyph-name="Nacute" unicode="&#x143;" horiz-adv-x="710" 
d="M500 0l-230 518l-110 -518h-117l151 714h102l228 -520l110 520h118l-151 -714h-101zM387 773l150 139h140l-177 -139h-113z" />
    <glyph glyph-name="nacute" unicode="&#x144;" horiz-adv-x="581" 
d="M374 0l67 314q2 13 3.5 24t1.5 22q0 38 -18 59t-55 21q-50 0 -100 -38q-22 -17 -40 -40.5t-23 -51.5l-65 -310h-114l110 520h111l-16 -75q42 49 87 70t91 21q73 0 111.5 -39.5t38.5 -109.5q0 -32 -7 -61l-69 -326h-114zM287 593l146 148h138l-171 -148h-113z" />
    <glyph glyph-name="Ncommaaccent" unicode="&#x145;" horiz-adv-x="710" 
d="M500 0l-230 518l-110 -518h-117l151 714h102l228 -520l110 520h118l-151 -714h-101zM149 -222l111 155h131l-136 -155h-106z" />
    <glyph glyph-name="ncommaaccent" unicode="&#x146;" horiz-adv-x="581" 
d="M374 0l67 314q2 13 3.5 24t1.5 22q0 38 -18 59t-55 21q-50 0 -100 -38q-22 -17 -40 -40.5t-23 -51.5l-65 -310h-114l110 520h111l-16 -75q42 49 87 70t91 21q73 0 111.5 -39.5t38.5 -109.5q0 -32 -7 -61l-69 -326h-114zM90 -217l106 150h124l-130 -150h-100z" />
    <glyph glyph-name="Ncaron" unicode="&#x147;" horiz-adv-x="710" 
d="M500 0l-230 518l-110 -518h-117l151 714h102l228 -520l110 520h118l-151 -714h-101zM673 916l-146 -140h-114l-90 140h101l55 -75l93 75h101z" />
    <glyph glyph-name="ncaron" unicode="&#x148;" horiz-adv-x="581" 
d="M374 0l67 314q2 13 3.5 24t1.5 22q0 38 -18 59t-55 21q-50 0 -100 -38q-22 -17 -40 -40.5t-23 -51.5l-65 -310h-114l110 520h111l-16 -75q42 49 87 70t91 21q73 0 111.5 -39.5t38.5 -109.5q0 -32 -7 -61l-69 -326h-114zM582 741l-147 -148h-114l-88 148h99l55 -85l94 85
h101z" />
    <glyph glyph-name="napostrophe" unicode="&#x149;" horiz-adv-x="671" 
d="M464 0l67 314q2 13 3.5 24t1.5 22q0 38 -18 59t-55 21q-50 0 -100 -38q-22 -17 -40 -40.5t-23 -51.5l-65 -310h-114l110 520h111l-16 -75q42 49 87 70t91 21q73 0 111.5 -39.5t38.5 -109.5q0 -32 -7 -61l-69 -326h-114zM66 482l80 232h116l-107 -232h-89z" />
    <glyph glyph-name="Eng" unicode="&#x14a;" horiz-adv-x="710" 
d="M237 -79q23 -9 47 -15.5t62 -6.5q62 0 94.5 28t47.5 98l-218 493l-110 -518h-117l151 714h102l228 -520l110 520h118l-148 -696q-14 -64 -36 -106.5t-54 -68.5t-74.5 -37t-96.5 -11q-42 0 -79 8t-66 22z" />
    <glyph glyph-name="eng" unicode="&#x14b;" horiz-adv-x="581" 
d="M145 0h-114l110 520h111l-16 -76q42 49 87 70.5t91 21.5q73 0 111.5 -39.5t38.5 -109.5q0 -32 -7 -61l-74 -347q-9 -42 -22.5 -73t-33.5 -51.5t-49 -30.5t-69 -10q-33 0 -59.5 6t-48.5 15l34 86q12 -5 27.5 -9t35.5 -4q31 0 48 17.5t25 59.5l70 329q2 13 3.5 24t1.5 22
q0 38 -18 59t-55 21q-50 0 -100 -38q-22 -17 -40 -40.5t-23 -51.5z" />
    <glyph glyph-name="Omacron" unicode="&#x14c;" horiz-adv-x="772" 
d="M482 732q66 0 119 -21.5t89.5 -60.5t56.5 -94t20 -122q0 -86 -25 -167.5t-74.5 -144.5t-123 -101.5t-169.5 -38.5q-66 0 -119.5 21.5t-91 60.5t-57.5 94t-20 122q0 85 26 166.5t76.5 145t124 102t168.5 38.5zM473 628q-65 0 -114 -30t-81.5 -79t-49 -110t-16.5 -123
q0 -91 42.5 -145.5t127.5 -54.5q64 0 113 30t81.5 79t49 110t16.5 124q0 45 -10.5 81.5t-32 62.5t-53 40.5t-73.5 14.5zM378 885h301l-19 -92h-301z" />
    <glyph glyph-name="omacron" unicode="&#x14d;" horiz-adv-x="609" 
d="M368 536q51 0 91.5 -17t69.5 -46t44.5 -69.5t15.5 -86.5q0 -79 -22.5 -141t-63 -104.5t-96 -65t-121.5 -22.5q-50 0 -91 17t-70 46t-45 69t-16 87q0 78 23.5 139.5t64.5 104.5t96.5 66t119.5 23zM360 444q-38 0 -70.5 -16.5t-56.5 -47.5t-37.5 -75.5t-13.5 -99.5
q0 -60 29 -94.5t83 -34.5q38 0 70.5 16.5t56 47t37 74.5t13.5 100q0 60 -28.5 95t-82.5 35zM260 706h276l-18 -89h-277z" />
    <glyph glyph-name="Obreve" unicode="&#x14e;" horiz-adv-x="772" 
d="M482 732q66 0 119 -21.5t89.5 -60.5t56.5 -94t20 -122q0 -86 -25 -167.5t-74.5 -144.5t-123 -101.5t-169.5 -38.5q-66 0 -119.5 21.5t-91 60.5t-57.5 94t-20 122q0 85 26 166.5t76.5 145t124 102t168.5 38.5zM473 628q-65 0 -114 -30t-81.5 -79t-49 -110t-16.5 -123
q0 -91 42.5 -145.5t127.5 -54.5q64 0 113 30t81.5 79t49 110t16.5 124q0 45 -10.5 81.5t-32 62.5t-53 40.5t-73.5 14.5zM491 773q-57 0 -93.5 29t-36.5 80q0 17 3 37h85q-1 -5 -1.5 -11.5t-0.5 -11.5q0 -24 13 -37.5t39 -13.5q30 0 49.5 16t26.5 58h85q-12 -75 -51.5 -110.5
t-117.5 -35.5z" />
    <glyph glyph-name="obreve" unicode="&#x14f;" horiz-adv-x="609" 
d="M368 536q51 0 91.5 -17t69.5 -46t44.5 -69.5t15.5 -86.5q0 -79 -22.5 -141t-63 -104.5t-96 -65t-121.5 -22.5q-50 0 -91 17t-70 46t-45 69t-16 87q0 78 23.5 139.5t64.5 104.5t96.5 66t119.5 23zM360 444q-38 0 -70.5 -16.5t-56.5 -47.5t-37.5 -75.5t-13.5 -99.5
q0 -60 29 -94.5t83 -34.5q38 0 70.5 16.5t56 47t37 74.5t13.5 100q0 60 -28.5 95t-82.5 35zM383 590q-57 0 -93 29.5t-36 80.5q0 9 0.5 18t2.5 20h82q-2 -7 -2 -13v-11q0 -26 14.5 -38.5t38.5 -12.5q29 0 49 16t27 59h83q-12 -78 -53 -113t-113 -35z" />
    <glyph glyph-name="Ohungarumlaut" unicode="&#x150;" horiz-adv-x="772" 
d="M482 732q66 0 119 -21.5t89.5 -60.5t56.5 -94t20 -122q0 -86 -25 -167.5t-74.5 -144.5t-123 -101.5t-169.5 -38.5q-66 0 -119.5 21.5t-91 60.5t-57.5 94t-20 122q0 85 26 166.5t76.5 145t124 102t168.5 38.5zM473 628q-65 0 -114 -30t-81.5 -79t-49 -110t-16.5 -123
q0 -91 42.5 -145.5t127.5 -54.5q64 0 113 30t81.5 79t49 110t16.5 124q0 45 -10.5 81.5t-32 62.5t-53 40.5t-73.5 14.5zM586 773l141 139h132l-167 -139h-106zM388 773l141 139h131l-167 -139h-105z" />
    <glyph glyph-name="ohungarumlaut" unicode="&#x151;" horiz-adv-x="609" 
d="M368 536q51 0 91.5 -17t69.5 -46t44.5 -69.5t15.5 -86.5q0 -79 -22.5 -141t-63 -104.5t-96 -65t-121.5 -22.5q-50 0 -91 17t-70 46t-45 69t-16 87q0 78 23.5 139.5t64.5 104.5t96.5 66t119.5 23zM360 444q-38 0 -70.5 -16.5t-56.5 -47.5t-37.5 -75.5t-13.5 -99.5
q0 -60 29 -94.5t83 -34.5q38 0 70.5 16.5t56 47t37 74.5t13.5 100q0 60 -28.5 95t-82.5 35zM232 593l141 148h124l-166 -148h-99zM419 593l141 148h123l-166 -148h-98z" />
    <glyph glyph-name="OE" unicode="&#x152;" horiz-adv-x="1069" 
d="M784 610l-40 -190h312l-22 -105h-312l-45 -211h353l-36 -104h-456l16 75q-35 -42 -83.5 -67.5t-117.5 -25.5q-57 0 -105.5 21.5t-84.5 60.5t-56 94t-20 122q0 85 26.5 166.5t75 145t118 102t155.5 38.5q83 0 131.5 -36t72.5 -90l23 108h449l-21 -104h-333zM462 628
q-61 0 -107.5 -30t-78 -79t-48 -110t-16.5 -123q0 -91 41.5 -145.5t116.5 -54.5q63 0 109.5 30t77 79t45.5 110.5t15 123.5q0 91 -39.5 145t-115.5 54z" />
    <glyph glyph-name="oe" unicode="&#x153;" horiz-adv-x="964" 
d="M356 536q72 0 114 -31t64 -80q37 54 86.5 82.5t121.5 28.5q48 0 85 -15t62.5 -41.5t39 -63t13.5 -79.5q0 -17 -2 -37.5t-6 -43.5l-4 -24h-362v-24q0 -60 29.5 -97.5t86.5 -37.5q51 0 78.5 19.5t40.5 61.5h111q-22 -85 -78 -127.5t-155 -42.5q-42 0 -72.5 9.5t-52.5 25.5
t-37 35.5t-27 40.5q-39 -55 -90 -83t-123 -28q-49 0 -88.5 17t-67.5 46t-43.5 69t-15.5 87q0 78 23.5 139.5t63 104.5t92.5 66t113 23zM357 444q-37 0 -69 -16.5t-55.5 -47.5t-37 -75.5t-13.5 -99.5q0 -60 28.5 -94.5t80.5 -34.5q38 0 70 16.5t55.5 47t36.5 74.5t13 100
q0 60 -27.5 95t-81.5 35zM730 449q-51 0 -92 -31.5t-60 -106.5h252q3 15 3 31q0 45 -25.5 76t-77.5 31z" />
    <glyph glyph-name="Racute" unicode="&#x154;" horiz-adv-x="644" 
d="M162 0h-119l151 714h231q68 0 114 -17t74.5 -44t40.5 -62t12 -71q0 -88 -44.5 -140t-119.5 -74l86 -306h-128l-71 283q-10 -1 -20.5 -1h-21.5h-126zM379 384q36 0 66.5 6.5t52.5 22t34 41.5t12 64q0 19 -6.5 36.5t-22 30.5t-41 21t-63.5 8h-120l-48 -230h136zM333 773
l150 139h140l-177 -139h-113z" />
    <glyph glyph-name="racute" unicode="&#x155;" horiz-adv-x="393" 
d="M412 420q-10 2 -21 3.5t-28 1.5q-20 0 -44 -6.5t-47 -23.5q-24 -20 -40.5 -42t-22.5 -51l-64 -302h-114l110 520h111l-16 -77q39 46 76 65.5t82 19.5q17 0 28.5 -1.5t19.5 -3.5zM224 593l146 148h138l-171 -148h-113z" />
    <glyph glyph-name="Rcommaaccent" unicode="&#x156;" horiz-adv-x="644" 
d="M162 0h-119l151 714h231q68 0 114 -17t74.5 -44t40.5 -62t12 -71q0 -88 -44.5 -140t-119.5 -74l86 -306h-128l-71 283q-10 -1 -20.5 -1h-21.5h-126zM379 384q36 0 66.5 6.5t52.5 22t34 41.5t12 64q0 19 -6.5 36.5t-22 30.5t-41 21t-63.5 8h-120l-48 -230h136zM124 -222
l111 155h131l-136 -155h-106z" />
    <glyph glyph-name="rcommaaccent" unicode="&#x157;" horiz-adv-x="393" 
d="M412 420q-10 2 -21 3.5t-28 1.5q-20 0 -44 -6.5t-47 -23.5q-24 -20 -40.5 -42t-22.5 -51l-64 -302h-114l110 520h111l-16 -77q39 46 76 65.5t82 19.5q17 0 28.5 -1.5t19.5 -3.5zM-88 -217l106 150h124l-130 -150h-100z" />
    <glyph glyph-name="Rcaron" unicode="&#x158;" horiz-adv-x="644" 
d="M162 0h-119l151 714h231q68 0 114 -17t74.5 -44t40.5 -62t12 -71q0 -88 -44.5 -140t-119.5 -74l86 -306h-128l-71 283q-10 -1 -20.5 -1h-21.5h-126zM379 384q36 0 66.5 6.5t52.5 22t34 41.5t12 64q0 19 -6.5 36.5t-22 30.5t-41 21t-63.5 8h-120l-48 -230h136zM612 916
l-146 -140h-114l-90 140h101l55 -75l93 75h101z" />
    <glyph glyph-name="rcaron" unicode="&#x159;" horiz-adv-x="393" 
d="M412 420q-10 2 -21 3.5t-28 1.5q-20 0 -44 -6.5t-47 -23.5q-24 -20 -40.5 -42t-22.5 -51l-64 -302h-114l110 520h111l-16 -77q39 46 76 65.5t82 19.5q17 0 28.5 -1.5t19.5 -3.5zM487 741l-147 -148h-114l-88 148h99l55 -85l94 85h101z" />
    <glyph glyph-name="Sacute" unicode="&#x15a;" horiz-adv-x="644" 
d="M607 221q0 -62 -20 -107t-57 -74t-89.5 -43.5t-117.5 -14.5q-53 0 -103.5 11t-90.5 38t-64.5 72.5t-26.5 114.5h122q6 -69 45.5 -101.5t126.5 -32.5q40 0 68.5 9.5t46.5 26t26 39t8 49.5q0 30 -20 56.5t-72 37.5l-86 18q-94 19 -138.5 66t-44.5 119q0 58 20 101t56.5 71
t89 41.5t117.5 13.5q117 0 183 -52.5t75 -154.5l-116 -16q-8 63 -42.5 93t-106.5 30q-44 0 -73.5 -9t-47 -24t-25 -34t-7.5 -38q0 -42 22.5 -65t73.5 -34l86 -19q51 -12 86 -30.5t56.5 -42.5t30.5 -53t9 -62zM334 773l150 139h140l-177 -139h-113z" />
    <glyph glyph-name="sacute" unicode="&#x15b;" horiz-adv-x="530" 
d="M482 154q0 -48 -19 -80.5t-50.5 -52.5t-74 -28.5t-88.5 -8.5q-41 0 -80 8.5t-69 29t-49 53.5t-20 82h109q3 -49 35 -66.5t83 -17.5q57 0 82.5 19.5t25.5 54.5q0 26 -14.5 41.5t-53.5 23.5l-57 12q-82 18 -115 54t-33 90q0 43 17 74.5t47 52.5t70.5 31t87.5 10q42 0 78 -9
t63 -27.5t43.5 -48t20.5 -70.5l-104 -14q-6 38 -28.5 60t-76.5 22q-33 0 -54 -6.5t-33 -16.5t-16.5 -22.5t-4.5 -24.5q0 -26 17 -40.5t60 -23.5l57 -12q80 -17 112 -54.5t32 -94.5zM255 593l146 148h138l-171 -148h-113z" />
    <glyph glyph-name="Scircumflex" unicode="&#x15c;" horiz-adv-x="644" 
d="M607 221q0 -62 -20 -107t-57 -74t-89.5 -43.5t-117.5 -14.5q-53 0 -103.5 11t-90.5 38t-64.5 72.5t-26.5 114.5h122q6 -69 45.5 -101.5t126.5 -32.5q40 0 68.5 9.5t46.5 26t26 39t8 49.5q0 30 -20 56.5t-72 37.5l-86 18q-94 19 -138.5 66t-44.5 119q0 58 20 101t56.5 71
t89 41.5t117.5 13.5q117 0 183 -52.5t75 -154.5l-116 -16q-8 63 -42.5 93t-106.5 30q-44 0 -73.5 -9t-47 -24t-25 -34t-7.5 -38q0 -42 22.5 -65t73.5 -34l86 -19q51 -12 86 -30.5t56.5 -42.5t30.5 -53t9 -62zM247 773l146 139h114l91 -139h-101l-56 75l-92 -75h-102z" />
    <glyph glyph-name="scircumflex" unicode="&#x15d;" horiz-adv-x="530" 
d="M482 154q0 -48 -19 -80.5t-50.5 -52.5t-74 -28.5t-88.5 -8.5q-41 0 -80 8.5t-69 29t-49 53.5t-20 82h109q3 -49 35 -66.5t83 -17.5q57 0 82.5 19.5t25.5 54.5q0 26 -14.5 41.5t-53.5 23.5l-57 12q-82 18 -115 54t-33 90q0 43 17 74.5t47 52.5t70.5 31t87.5 10q42 0 78 -9
t63 -27.5t43.5 -48t20.5 -70.5l-104 -14q-6 38 -28.5 60t-76.5 22q-33 0 -54 -6.5t-33 -16.5t-16.5 -22.5t-4.5 -24.5q0 -26 17 -40.5t60 -23.5l57 -12q80 -17 112 -54.5t32 -94.5zM154 593l147 148h114l88 -148h-99l-55 85l-94 -85h-101z" />
    <glyph glyph-name="Scedilla" unicode="&#x15e;" horiz-adv-x="644" 
d="M267 -15q-45 5 -86 19.5t-72.5 42t-50.5 69.5t-20 102h122q6 -69 45.5 -101.5t126.5 -32.5q40 0 68.5 9.5t46.5 26t26 39t8 49.5q0 30 -20 56.5t-72 37.5l-86 18q-94 19 -138.5 66t-44.5 119q0 58 20 101t56.5 71t89 41.5t117.5 13.5q117 0 183 -52.5t75 -154.5l-116 -16
q-8 63 -42.5 93t-106.5 30q-44 0 -73.5 -9t-47 -24t-25 -34t-7.5 -38q0 -42 22.5 -65t73.5 -34l86 -19q51 -12 86 -30.5t56.5 -42.5t30.5 -53t9 -62q0 -120 -73.5 -178.5t-199.5 -60.5l-17 -35q48 -8 66 -28.5t18 -45.5q0 -54 -38 -75t-110 -21q-14 0 -30.5 2t-36.5 6l10 64
q21 -3 35 -4.5t28 -1.5q29 0 42.5 7.5t13.5 25.5q0 13 -13.5 20t-47.5 7h-28z" />
    <glyph glyph-name="scedilla" unicode="&#x15f;" horiz-adv-x="530" 
d="M205 -13q-35 4 -66 15t-55 31.5t-38 51t-14 72.5h109q3 -49 35 -66.5t83 -17.5q57 0 82.5 19.5t25.5 54.5q0 26 -14.5 41.5t-53.5 23.5l-57 12q-82 18 -115 54t-33 90q0 43 17 74.5t47 52.5t70.5 31t87.5 10q42 0 78 -9t63 -27.5t43.5 -48t20.5 -70.5l-104 -14
q-6 38 -28.5 60t-76.5 22q-33 0 -54 -6.5t-33 -16.5t-16.5 -22.5t-4.5 -24.5q0 -26 17 -40.5t60 -23.5l57 -12q80 -17 112 -54.5t32 -94.5q0 -45 -17 -76.5t-46 -51.5t-67.5 -30t-81.5 -11l-17 -35q47 -6 65 -27.5t18 -43.5q0 -29 -11 -47t-30 -28t-45.5 -14t-57.5 -4t-66 7
l10 65q20 -4 34 -5t27 -1q28 0 41 6t13 23q0 14 -13.5 20.5t-45.5 6.5h-27z" />
    <glyph glyph-name="Scaron" unicode="&#x160;" horiz-adv-x="644" 
d="M607 221q0 -62 -20 -107t-57 -74t-89.5 -43.5t-117.5 -14.5q-53 0 -103.5 11t-90.5 38t-64.5 72.5t-26.5 114.5h122q6 -69 45.5 -101.5t126.5 -32.5q40 0 68.5 9.5t46.5 26t26 39t8 49.5q0 30 -20 56.5t-72 37.5l-86 18q-94 19 -138.5 66t-44.5 119q0 58 20 101t56.5 71
t89 41.5t117.5 13.5q117 0 183 -52.5t75 -154.5l-116 -16q-8 63 -42.5 93t-106.5 30q-44 0 -73.5 -9t-47 -24t-25 -34t-7.5 -38q0 -42 22.5 -65t73.5 -34l86 -19q51 -12 86 -30.5t56.5 -42.5t30.5 -53t9 -62zM621 916l-146 -140h-114l-90 140h101l55 -75l93 75h101z" />
    <glyph glyph-name="scaron" unicode="&#x161;" horiz-adv-x="530" 
d="M482 154q0 -48 -19 -80.5t-50.5 -52.5t-74 -28.5t-88.5 -8.5q-41 0 -80 8.5t-69 29t-49 53.5t-20 82h109q3 -49 35 -66.5t83 -17.5q57 0 82.5 19.5t25.5 54.5q0 26 -14.5 41.5t-53.5 23.5l-57 12q-82 18 -115 54t-33 90q0 43 17 74.5t47 52.5t70.5 31t87.5 10q42 0 78 -9
t63 -27.5t43.5 -48t20.5 -70.5l-104 -14q-6 38 -28.5 60t-76.5 22q-33 0 -54 -6.5t-33 -16.5t-16.5 -22.5t-4.5 -24.5q0 -26 17 -40.5t60 -23.5l57 -12q80 -17 112 -54.5t32 -94.5zM536 741l-147 -148h-114l-88 148h99l55 -85l94 85h101z" />
    <glyph glyph-name="uni0162" unicode="&#x162;" horiz-adv-x="610" 
d="M462 609l-129 -609h-24l-25 -50q47 -6 65 -27.5t18 -43.5q0 -29 -11 -47t-30 -28t-45.5 -14t-57.5 -4t-66 7l10 65q20 -4 34 -5t27 -1q28 0 41 6t13 23q0 14 -13.5 20.5t-45.5 6.5h-27l47 92h-31l129 609h-226l22 105h572l-22 -105h-225z" />
    <glyph glyph-name="uni0163" unicode="&#x163;" horiz-adv-x="363" 
d="M211 166l-4 -18q-1 -5 -1 -15q0 -29 14.5 -40t39.5 -11q18 0 33.5 2.5t28.5 6.5l17 -85q-23 -7 -46.5 -11t-48.5 -5l-20 -40q47 -6 65 -27.5t18 -43.5q0 -29 -11 -47t-30 -28t-45.5 -14t-57.5 -4t-66 7l10 65q20 -4 34 -5t27 -1q28 0 41 6t13 23q0 14 -13.5 20.5
t-45.5 6.5h-27l44 88q-32 8 -52 25q-37 31 -37 94q0 28 7 55l55 260h-81l19 90h81l30 140h114l-30 -140h128l-19 -90h-128z" />
    <glyph glyph-name="Tcaron" unicode="&#x164;" horiz-adv-x="610" 
d="M462 609l-129 -609h-121l129 609h-226l22 105h572l-22 -105h-225zM627 916l-146 -140h-114l-90 140h101l55 -75l93 75h101z" />
    <glyph glyph-name="tcaron" unicode="&#x165;" horiz-adv-x="363" 
d="M351 577l61 165h100l-84 -165h-77zM211 166l-3.5 -17.5t-1.5 -15.5q0 -29 14.5 -40t39.5 -11q18 0 33.5 2.5t28.5 6.5l17 -85q-48 -16 -105 -16q-69 0 -106 31t-37 94q0 28 7 55l55 260h-81l19 90h81l30 140h114l-30 -140h128l-19 -90h-128z" />
    <glyph glyph-name="Tbar" unicode="&#x166;" horiz-adv-x="610" 
d="M150 392h145l46 217h-226l22 105h572l-22 -105h-225l-46 -217h144l-22 -101h-143l-62 -291h-121l62 291h-146z" />
    <glyph glyph-name="tbar" unicode="&#x167;" horiz-adv-x="363" 
d="M243 317h128l-19 -90h-128l-13 -61l-3.5 -17.5t-1.5 -15.5q0 -29 14.5 -40t39.5 -11q18 0 33.5 2.5t28.5 6.5l17 -85q-48 -16 -105 -16q-69 0 -106 31t-37 94q0 28 7 55l12 57h-81l19 90h81l24 113h-81l19 90h81l30 140h114l-30 -140h128l-19 -90h-128z" />
    <glyph glyph-name="Utilde" unicode="&#x168;" horiz-adv-x="688" 
d="M330 -18q-56 0 -101.5 13.5t-78.5 40.5t-51 68.5t-18 97.5q0 43 10 87l90 425h120l-90 -428q-10 -39 -10 -74q0 -66 34 -96t103 -30q43 0 73.5 12.5t52.5 37.5t36.5 62.5t25.5 87.5l91 428h121l-90 -428q-17 -80 -43.5 -137.5t-65 -94.5t-90.5 -54.5t-119 -17.5zM540 858
q23 0 34 9.5t15 35.5h83q-7 -69 -36 -99t-83 -30q-21 0 -39 7.5t-33 17t-29 17t-27 7.5q-23 0 -35 -10.5t-16 -36.5h-83q7 69 36.5 99.5t83.5 30.5q21 0 38.5 -7.5t33 -16.5t29.5 -16.5t28 -7.5z" />
    <glyph glyph-name="utilde" unicode="&#x169;" horiz-adv-x="574" 
d="M250 520l-68 -319q-5 -28 -5 -45q0 -35 17 -55.5t54 -20.5q28 0 49 9t44 28q21 16 40 41t25 55l65 307h114l-109 -520h-112l16 75q-42 -49 -84.5 -70t-88.5 -21q-75 0 -111 40t-36 107q0 31 7 63l69 326h114zM436 685q23 0 34.5 9.5t15.5 35.5h79q-7 -69 -36 -99t-81 -30
q-21 0 -38.5 7.5t-32.5 16.5t-28.5 16.5t-26.5 7.5q-23 0 -35 -10t-16 -36h-79q7 69 36 99.5t81 30.5q21 0 38.5 -7.5t32.5 -16.5t28.5 -16.5t27.5 -7.5z" />
    <glyph glyph-name="Umacron" unicode="&#x16a;" horiz-adv-x="688" 
d="M330 -18q-56 0 -101.5 13.5t-78.5 40.5t-51 68.5t-18 97.5q0 43 10 87l90 425h120l-90 -428q-10 -39 -10 -74q0 -66 34 -96t103 -30q43 0 73.5 12.5t52.5 37.5t36.5 62.5t25.5 87.5l91 428h121l-90 -428q-17 -80 -43.5 -137.5t-65 -94.5t-90.5 -54.5t-119 -17.5zM338 885
h301l-19 -92h-301z" />
    <glyph glyph-name="umacron" unicode="&#x16b;" horiz-adv-x="574" 
d="M250 520l-68 -319q-5 -28 -5 -45q0 -35 17 -55.5t54 -20.5q28 0 49 9t44 28q21 16 40 41t25 55l65 307h114l-109 -520h-112l16 75q-42 -49 -84.5 -70t-88.5 -21q-75 0 -111 40t-36 107q0 31 7 63l69 326h114zM251 706h276l-18 -89h-277z" />
    <glyph glyph-name="Ubreve" unicode="&#x16c;" horiz-adv-x="688" 
d="M330 -18q-56 0 -101.5 13.5t-78.5 40.5t-51 68.5t-18 97.5q0 43 10 87l90 425h120l-90 -428q-10 -39 -10 -74q0 -66 34 -96t103 -30q43 0 73.5 12.5t52.5 37.5t36.5 62.5t25.5 87.5l91 428h121l-90 -428q-17 -80 -43.5 -137.5t-65 -94.5t-90.5 -54.5t-119 -17.5zM468 773
q-57 0 -93.5 29t-36.5 80q0 17 3 37h85q-1 -5 -1.5 -11.5t-0.5 -11.5q0 -24 13 -37.5t39 -13.5q30 0 49.5 16t26.5 58h85q-12 -75 -51.5 -110.5t-117.5 -35.5z" />
    <glyph glyph-name="ubreve" unicode="&#x16d;" horiz-adv-x="574" 
d="M250 520l-68 -319q-5 -28 -5 -45q0 -35 17 -55.5t54 -20.5q28 0 49 9t44 28q21 16 40 41t25 55l65 307h114l-109 -520h-112l16 75q-42 -49 -84.5 -70t-88.5 -21q-75 0 -111 40t-36 107q0 31 7 63l69 326h114zM371 590q-57 0 -93 29.5t-36 80.5q0 9 0.5 18t2.5 20h82
q-2 -7 -2 -13v-11q0 -26 14.5 -38.5t38.5 -12.5q29 0 49 16t27 59h83q-12 -78 -53 -113t-113 -35z" />
    <glyph glyph-name="Uring" unicode="&#x16e;" horiz-adv-x="688" 
d="M330 -18q-56 0 -101.5 13.5t-78.5 40.5t-51 68.5t-18 97.5q0 43 10 87l90 425h120l-90 -428q-10 -39 -10 -74q0 -66 34 -96t103 -30q43 0 73.5 12.5t52.5 37.5t36.5 62.5t25.5 87.5l91 428h121l-90 -428q-17 -80 -43.5 -137.5t-65 -94.5t-90.5 -54.5t-119 -17.5zM352 848
q0 28 9 48.5t24.5 34.5t35.5 21t43 7q22 0 42.5 -7t36.5 -21t25 -34.5t9 -48.5t-9 -48.5t-25 -34t-36.5 -20.5t-42.5 -7q-23 0 -43 7t-35.5 20.5t-24.5 34t-9 48.5zM417 848q0 -26 12.5 -38t34.5 -12q48 0 48 50q0 27 -12.5 39t-35.5 12q-22 0 -34.5 -12t-12.5 -39z" />
    <glyph glyph-name="uring" unicode="&#x16f;" horiz-adv-x="574" 
d="M250 520l-68 -319q-5 -28 -5 -45q0 -35 17 -55.5t54 -20.5q28 0 49 9t44 28q21 16 40 41t25 55l65 307h114l-109 -520h-112l16 75q-42 -49 -84.5 -70t-88.5 -21q-75 0 -111 40t-36 107q0 31 7 63l69 326h114zM265 695q0 27 9 47t24 33.5t34.5 20t41.5 6.5q21 0 41 -6.5
t35 -20t24 -33.5t9 -47t-9 -47t-24 -33t-35 -19.5t-41 -6.5q-22 0 -41.5 6.5t-34.5 19.5t-24 33t-9 47zM328 695q0 -25 12.5 -37t33.5 -12t33.5 12t12.5 37q0 26 -12.5 37.5t-33.5 11.5t-33.5 -11.5t-12.5 -37.5z" />
    <glyph glyph-name="Uhungarumlaut" unicode="&#x170;" horiz-adv-x="688" 
d="M330 -18q-56 0 -101.5 13.5t-78.5 40.5t-51 68.5t-18 97.5q0 43 10 87l90 425h120l-90 -428q-10 -39 -10 -74q0 -66 34 -96t103 -30q43 0 73.5 12.5t52.5 37.5t36.5 62.5t25.5 87.5l91 428h121l-90 -428q-17 -80 -43.5 -137.5t-65 -94.5t-90.5 -54.5t-119 -17.5zM541 773
l141 139h132l-167 -139h-106zM343 773l141 139h131l-167 -139h-105z" />
    <glyph glyph-name="uhungarumlaut" unicode="&#x171;" horiz-adv-x="574" 
d="M250 520l-68 -319q-5 -28 -5 -45q0 -35 17 -55.5t54 -20.5q28 0 49 9t44 28q21 16 40 41t25 55l65 307h114l-109 -520h-112l16 75q-42 -49 -84.5 -70t-88.5 -21q-75 0 -111 40t-36 107q0 31 7 63l69 326h114zM216 593l141 148h124l-166 -148h-99zM403 593l141 148h123
l-166 -148h-98z" />
    <glyph glyph-name="Uogonek" unicode="&#x172;" horiz-adv-x="688" 
d="M412 -191q-10 -1 -20.5 -1.5t-23.5 -0.5q-20 0 -39 4t-34 13t-24.5 23.5t-9.5 34.5q0 58 60 100q-54 1 -98 15t-75.5 41t-49 68t-17.5 96q0 43 10 87l90 425h120l-90 -428q-10 -39 -10 -74q0 -66 34 -96t103 -30q43 0 73.5 12.5t52.5 37.5t36.5 62.5t25.5 87.5l91 428
h121l-90 -428q-26 -121 -73.5 -191t-126.5 -96q-37 -21 -62.5 -43.5t-25.5 -45.5q0 -16 11 -22.5t28 -6.5q8 0 14 0.5t14 1.5z" />
    <glyph glyph-name="uogonek" unicode="&#x173;" horiz-adv-x="574" 
d="M439 -185q-18 -3 -42 -3q-19 0 -37.5 3.5t-32.5 12t-23 22.5t-9 34q0 68 88 116h-19l16 75q-42 -49 -84.5 -70t-88.5 -21q-75 0 -111 40t-36 107q0 31 7 63l69 326h114l-68 -319q-5 -28 -5 -45q0 -35 17 -55.5t54 -20.5q28 0 49 9t44 28q21 16 40 41t25 55l65 307h114
l-109 -520q-38 -22 -62.5 -43t-24.5 -44q0 -16 11 -22t28 -6h12.5t13.5 1z" />
    <glyph glyph-name="Wcircumflex" unicode="&#x174;" horiz-adv-x="950" 
d="M709 0h-121l-26 562l-262 -562h-118l-53 714h134l16 -542l249 538h128l26 -537l244 541h130zM430 773l146 139h114l91 -139h-101l-56 75l-92 -75h-102z" />
    <glyph glyph-name="wcircumflex" unicode="&#x175;" horiz-adv-x="753" 
d="M123 0l-42 520h124l6 -380l188 376h105l27 -376l170 380h120l-262 -520h-114l-24 378l-186 -378h-112zM284 593l147 148h114l88 -148h-99l-55 85l-94 -85h-101z" />
    <glyph glyph-name="Ycircumflex" unicode="&#x176;" horiz-adv-x="635" 
d="M129 714h130l108 -310l240 310h134l-332 -417l-62 -297h-121l63 297zM264 773l146 139h114l91 -139h-101l-56 75l-92 -75h-102z" />
    <glyph glyph-name="ycircumflex" unicode="&#x177;" horiz-adv-x="545" 
d="M82 520h126l66 -375l208 375h130l-335 -552q-24 -40 -44.5 -70.5t-43 -50.5t-49.5 -30.5t-64 -10.5q-25 0 -45.5 4.5t-40.5 12.5l30 86q11 -4 25 -7.5t30 -3.5q30 0 48.5 16.5t41.5 55.5l30 51zM175 593l147 148h114l88 -148h-99l-55 85l-94 -85h-101z" />
    <glyph glyph-name="Ydieresis" unicode="&#x178;" horiz-adv-x="635" 
d="M129 714h130l108 -310l240 310h134l-332 -417l-62 -297h-121l63 297zM286 786l24 116h113l-25 -116h-112zM480 786l24 116h113l-25 -116h-112z" />
    <glyph glyph-name="Zacute" unicode="&#x179;" horiz-adv-x="586" 
d="M523 0h-528l18 90l486 520h-370l22 104h520l-19 -91l-484 -518h391zM319 773l150 139h140l-177 -139h-113z" />
    <glyph glyph-name="zacute" unicode="&#x17a;" horiz-adv-x="484" 
d="M424 0h-424l17 80l345 350h-267l19 90h414l-16 -80l-345 -350h287zM249 593l146 148h138l-171 -148h-113z" />
    <glyph glyph-name="Zdotaccent" unicode="&#x17b;" horiz-adv-x="586" 
d="M523 0h-528l18 90l486 520h-370l22 104h520l-19 -91l-484 -518h391zM343 784l26 120h117l-26 -120h-117z" />
    <glyph glyph-name="zdotaccent" unicode="&#x17c;" horiz-adv-x="484" 
d="M424 0h-424l17 80l345 350h-267l19 90h414l-16 -80l-345 -350h287zM267 611l24 114h111l-24 -114h-111z" />
    <glyph glyph-name="Zcaron" unicode="&#x17d;" horiz-adv-x="586" 
d="M523 0h-528l18 90l486 520h-370l22 104h520l-19 -91l-484 -518h391zM617 916l-146 -140h-114l-90 140h101l55 -75l93 75h101z" />
    <glyph glyph-name="zcaron" unicode="&#x17e;" horiz-adv-x="484" 
d="M424 0h-424l17 80l345 350h-267l19 90h414l-16 -80l-345 -350h287zM525 741l-147 -148h-114l-88 148h99l55 -85l94 85h101z" />
    <glyph glyph-name="longs" unicode="&#x17f;" horiz-adv-x="250" 
d="M147 0h-114l117 552q20 94 64 132t123 38q28 0 55.5 -5.5t48.5 -15.5l-32 -81q-27 12 -61 12q-37 0 -56.5 -18t-27.5 -60z" />
    <glyph glyph-name="florin" unicode="&#x192;" 
d="M230 -28q-14 -39 -30 -66.5t-38 -45.5t-51 -26.5t-68 -8.5q-35 0 -60.5 7.5t-43.5 16.5l35 83q15 -6 29.5 -10t34.5 -4q36 0 52.5 15.5t30.5 54.5l150 422h-78l25 94h86l20 56q27 78 73.5 113.5t125.5 35.5q31 0 56.5 -7t42.5 -16l-34 -84q-15 7 -29.5 11t-34.5 4
q-37 0 -56.5 -15t-33.5 -57l-15 -41h124l-25 -94h-132z" />
    <glyph glyph-name="Scommaaccent" unicode="&#x218;" horiz-adv-x="644" 
d="M607 221q0 -62 -20 -107t-57 -74t-89.5 -43.5t-117.5 -14.5q-53 0 -103.5 11t-90.5 38t-64.5 72.5t-26.5 114.5h122q6 -69 45.5 -101.5t126.5 -32.5q40 0 68.5 9.5t46.5 26t26 39t8 49.5q0 30 -20 56.5t-72 37.5l-86 18q-94 19 -138.5 66t-44.5 119q0 58 20 101t56.5 71
t89 41.5t117.5 13.5q117 0 183 -52.5t75 -154.5l-116 -16q-8 63 -42.5 93t-106.5 30q-44 0 -73.5 -9t-47 -24t-25 -34t-7.5 -38q0 -42 22.5 -65t73.5 -34l86 -19q51 -12 86 -30.5t56.5 -42.5t30.5 -53t9 -62zM126 -222l111 155h131l-136 -155h-106z" />
    <glyph glyph-name="scommaaccent" unicode="&#x219;" horiz-adv-x="530" 
d="M482 154q0 -48 -19 -80.5t-50.5 -52.5t-74 -28.5t-88.5 -8.5q-41 0 -80 8.5t-69 29t-49 53.5t-20 82h109q3 -49 35 -66.5t83 -17.5q57 0 82.5 19.5t25.5 54.5q0 26 -14.5 41.5t-53.5 23.5l-57 12q-82 18 -115 54t-33 90q0 43 17 74.5t47 52.5t70.5 31t87.5 10q42 0 78 -9
t63 -27.5t43.5 -48t20.5 -70.5l-104 -14q-6 38 -28.5 60t-76.5 22q-33 0 -54 -6.5t-33 -16.5t-16.5 -22.5t-4.5 -24.5q0 -26 17 -40.5t60 -23.5l57 -12q80 -17 112 -54.5t32 -94.5zM79 -217l106 150h124l-130 -150h-100z" />
    <glyph glyph-name="uni021A" unicode="&#x21a;" horiz-adv-x="610" 
d="M462 609l-129 -609h-121l129 609h-226l22 105h572l-22 -105h-225zM84 -222l111 155h131l-136 -155h-106z" />
    <glyph glyph-name="uni021B" unicode="&#x21b;" horiz-adv-x="363" 
d="M211 166l-3.5 -17.5t-1.5 -15.5q0 -29 14.5 -40t39.5 -11q18 0 33.5 2.5t28.5 6.5l17 -85q-48 -16 -105 -16q-69 0 -106 31t-37 94q0 28 7 55l55 260h-81l19 90h81l30 140h114l-30 -140h128l-19 -90h-128zM14 -217l106 150h124l-130 -150h-100z" />
    <glyph glyph-name="dotlessj" unicode="&#x237;" horiz-adv-x="246" 
d="M143 520h114l-116 -541q-9 -42 -22.5 -73t-33.5 -51.5t-49 -30.5t-69 -10q-33 0 -59.5 6t-48.5 15l34 86q12 -5 27.5 -9t35.5 -4q31 0 47.5 17.5t25.5 59.5z" />
    <glyph glyph-name="apostrophe" unicode="&#x2bc;" horiz-adv-x="339" 
d="M94 482l80 232h116l-107 -232h-89z" />
    <glyph glyph-name="circumflex" unicode="&#x2c6;" horiz-adv-x="403" 
d="M112 593l147 148h114l88 -148h-99l-55 85l-94 -85h-101z" />
    <glyph glyph-name="caron" unicode="&#x2c7;" horiz-adv-x="403" 
d="M475 741l-147 -148h-114l-88 148h99l55 -85l94 85h101z" />
    <glyph glyph-name="uni02C9" unicode="&#x2c9;" horiz-adv-x="403" 
d="M165 706h276l-18 -89h-277z" />
    <glyph glyph-name="breve" unicode="&#x2d8;" horiz-adv-x="403" 
d="M288 590q-57 0 -93 29.5t-36 80.5q0 9 0.5 18t2.5 20h82q-2 -7 -2 -13v-11q0 -26 14.5 -38.5t38.5 -12.5q29 0 49 16t27 59h83q-12 -78 -53 -113t-113 -35z" />
    <glyph glyph-name="dotaccent" unicode="&#x2d9;" horiz-adv-x="403" 
d="M218 611l24 114h111l-24 -114h-111z" />
    <glyph glyph-name="ring" unicode="&#x2da;" horiz-adv-x="403" 
d="M178 695q0 27 9 47t24 33.5t34.5 20t41.5 6.5q21 0 41 -6.5t35 -20t24 -33.5t9 -47t-9 -47t-24 -33t-35 -19.5t-41 -6.5q-22 0 -41.5 6.5t-34.5 19.5t-24 33t-9 47zM241 695q0 -25 12.5 -37t33.5 -12t33.5 12t12.5 37q0 26 -12.5 37.5t-33.5 11.5t-33.5 -11.5
t-12.5 -37.5z" />
    <glyph glyph-name="ogonek" unicode="&#x2db;" horiz-adv-x="403" 
d="M351 -185q-18 -3 -42 -3q-19 0 -37.5 3.5t-32.5 12t-23 22.5t-9 34q0 68 88 116h93q-38 -22 -62.5 -43t-24.5 -44q0 -16 11 -22t28 -6h12.5t13.5 1z" />
    <glyph glyph-name="tilde" unicode="&#x2dc;" horiz-adv-x="403" 
d="M349 685q23 0 34.5 9.5t15.5 35.5h79q-7 -69 -36 -99t-81 -30q-21 0 -38.5 7.5t-32.5 16.5t-28.5 16.5t-26.5 7.5q-23 0 -35 -10t-16 -36h-79q7 69 36 99.5t81 30.5q21 0 38.5 -7.5t32.5 -16.5t28.5 -16.5t27.5 -7.5z" />
    <glyph glyph-name="hungarumlaut" unicode="&#x2dd;" horiz-adv-x="403" 
d="M84 593l141 148h124l-166 -148h-99zM271 593l141 148h123l-166 -148h-98z" />
    <glyph glyph-name="tonos" unicode="&#x384;" horiz-adv-x="403" 
d="M216 754h119l-133 -161h-96z" />
    <glyph glyph-name="dieresistonos" unicode="&#x385;" horiz-adv-x="363" 
d="M-22 620l20 96h92l-19 -96h-93zM279 620l20 96h93l-20 -96h-93zM174 746h106l-92 -146h-83z" />
    <glyph glyph-name="Alphatonos" unicode="&#x386;" horiz-adv-x="694" 
d="M529 714l121 -714h-124l-28 182h-278l-105 -182h-130l424 714h120zM274 283h211l-44 294zM193 714h116l-116 -154h-93z" />
    <glyph glyph-name="Epsilontonos" unicode="&#x388;" horiz-adv-x="768" 
d="M461 610l-40 -190h334l-22 -105h-334l-45 -211h375l-36 -104h-481l151 714h474l-21 -104h-355zM178 714h116l-116 -154h-93z" />
    <glyph glyph-name="Etatonos" unicode="&#x389;" horiz-adv-x="884" 
d="M654 0l66 313h-321l-66 -313h-121l151 714h121l-61 -289h321l61 289h121l-151 -714h-121zM178 714h116l-116 -154h-93z" />
    <glyph glyph-name="Iotatonos" unicode="&#x38a;" horiz-adv-x="442" 
d="M213 0l151 714h121l-151 -714h-121zM178 714h116l-116 -154h-93z" />
    <glyph glyph-name="Omicrontonos" unicode="&#x38c;" horiz-adv-x="882" 
d="M592 732q66 0 119 -21.5t89.5 -60.5t56.5 -94t20 -122q0 -86 -25 -167.5t-74.5 -144.5t-123 -101.5t-169.5 -38.5q-66 0 -119.5 21.5t-91 60.5t-57.5 94t-20 122q0 85 26 166.5t76.5 145t124 102t168.5 38.5zM583 628q-65 0 -114 -30t-81.5 -79t-49 -110t-16.5 -123
q0 -91 42.5 -145.5t127.5 -54.5q64 0 113 30t81.5 79t49 110t16.5 124q0 45 -10.5 81.5t-32 62.5t-53 40.5t-73.5 14.5zM178 714h116l-116 -154h-93z" />
    <glyph glyph-name="Upsilontonos" unicode="&#x38e;" horiz-adv-x="838" 
d="M332 714h130l108 -310l240 310h134l-332 -417l-62 -297h-121l63 297zM182 714h116l-116 -154h-93z" />
    <glyph glyph-name="Omegatonos" unicode="&#x38f;" horiz-adv-x="837" 
d="M526 94q46 30 81.5 70t59.5 87.5t36.5 100t12.5 108.5q0 78 -38 125t-110 47q-70 0 -118.5 -30t-78.5 -77.5t-43.5 -107.5t-13.5 -120q0 -28 6 -57t17 -55.5t25.5 -50t32.5 -40.5l-20 -94h-263l20 99h141q-32 38 -54.5 92t-22.5 113q0 84 25 161.5t73.5 136.5t120 94.5
t164.5 35.5q58 0 106 -19t82 -54t52.5 -84t18.5 -109q0 -69 -14.5 -124t-39.5 -99.5t-58 -79.5t-69 -64h146l-33 -99h-264zM163 714h116l-116 -154h-93z" />
    <glyph glyph-name="iotadieresistonos" unicode="&#x390;" horiz-adv-x="297" 
d="M141 521h112l-75 -353q-3 -13 -5 -24.5t-2 -18.5q0 -19 9 -31.5t37 -12.5q12 0 25.5 2t24.5 5l9 -84q-16 -6 -41.5 -10.5t-57.5 -4.5q-68 0 -94.5 32.5t-26.5 82.5q0 26 6.5 53t12.5 58zM14 620l20 96h92l-19 -96h-93zM315 620l20 96h93l-20 -96h-93zM210 746h106
l-92 -146h-83z" />
    <glyph glyph-name="Alpha" unicode="&#x391;" horiz-adv-x="686" 
d="M521 714l121 -714h-124l-28 182h-278l-105 -182h-130l424 714h120zM266 283h211l-44 294z" />
    <glyph glyph-name="Beta" unicode="&#x392;" horiz-adv-x="640" 
d="M662 552q0 -74 -36.5 -116t-102.5 -65q48 -23 71 -59.5t23 -82.5q0 -52 -18 -94t-55.5 -72t-95.5 -46.5t-137 -16.5h-268l151 714h238q65 0 109 -13.5t71 -36t38.5 -52t11.5 -60.5zM390 421q29 0 56.5 5t48.5 18t33.5 35t12.5 56q0 37 -27 60t-98 23h-126l-41 -197h141z
M179 97h141q95 0 136 33t41 98q0 45 -30 69.5t-97 24.5h-142z" />
    <glyph glyph-name="Gamma" unicode="&#x393;" horiz-adv-x="534" 
d="M193 714h443l-23 -105h-322l-128 -609h-120z" />
    <glyph glyph-name="uni0394" unicode="&#x394;" horiz-adv-x="672" 
d="M395 714h117l115 -714h-650zM156 104h339l-66 477z" />
    <glyph glyph-name="Epsilon" unicode="&#x395;" horiz-adv-x="599" 
d="M292 610l-40 -190h334l-22 -105h-334l-45 -211h375l-36 -104h-481l151 714h474l-21 -104h-355z" />
    <glyph glyph-name="Zeta" unicode="&#x396;" horiz-adv-x="586" 
d="M523 0h-528l18 90l486 520h-370l22 104h520l-19 -91l-484 -518h391z" />
    <glyph glyph-name="Eta" unicode="&#x397;" horiz-adv-x="715" 
d="M485 0l66 313h-321l-66 -313h-121l151 714h121l-61 -289h321l61 289h121l-151 -714h-121z" />
    <glyph glyph-name="Theta" unicode="&#x398;" horiz-adv-x="772" 
d="M560 315h-281l21 103h281zM482 732q66 0 119 -21.5t89.5 -60.5t56.5 -94t20 -122q0 -86 -25 -167.5t-74.5 -144.5t-123 -101.5t-169.5 -38.5q-66 0 -119.5 21.5t-91 60.5t-57.5 94t-20 122q0 85 26 166.5t76.5 145t124 102t168.5 38.5zM473 628q-65 0 -114 -30t-81.5 -79
t-49 -110t-16.5 -123q0 -91 42.5 -145.5t127.5 -54.5q64 0 113 30t81.5 79t49 110t16.5 124q0 45 -10.5 81.5t-32 62.5t-53 40.5t-73.5 14.5z" />
    <glyph glyph-name="Iota" unicode="&#x399;" horiz-adv-x="272" 
d="M43 0l151 714h121l-151 -714h-121z" />
    <glyph glyph-name="Kappa" unicode="&#x39a;" horiz-adv-x="662" 
d="M349 370l-129 -107l-56 -263h-121l151 714h121l-65 -307l359 307h139l-304 -273l179 -441h-131z" />
    <glyph glyph-name="Lambda" unicode="&#x39b;" horiz-adv-x="680" 
d="M399 714h117l120 -714h-129l-81 550l-316 -550h-133z" />
    <glyph glyph-name="Mu" unicode="&#x39c;" horiz-adv-x="853" 
d="M194 714h143l85 -568l327 568h146l-151 -714h-111l110 519l-303 -519h-95l-83 518l-110 -518h-109z" />
    <glyph glyph-name="Nu" unicode="&#x39d;" horiz-adv-x="710" 
d="M500 0l-230 518l-110 -518h-117l151 714h102l228 -520l110 520h118l-151 -714h-101z" />
    <glyph glyph-name="Xi" unicode="&#x39e;" horiz-adv-x="567" 
d="M128 423h436l-23 -110h-436zM170 714h476l-23 -110h-476zM530 110l-38 -110h-478l23 110h493z" />
    <glyph glyph-name="Omicron" unicode="&#x39f;" horiz-adv-x="772" 
d="M482 732q66 0 119 -21.5t89.5 -60.5t56.5 -94t20 -122q0 -86 -25 -167.5t-74.5 -144.5t-123 -101.5t-169.5 -38.5q-66 0 -119.5 21.5t-91 60.5t-57.5 94t-20 122q0 85 26 166.5t76.5 145t124 102t168.5 38.5zM473 628q-65 0 -114 -30t-81.5 -79t-49 -110t-16.5 -123
q0 -91 42.5 -145.5t127.5 -54.5q64 0 113 30t81.5 79t49 110t16.5 124q0 45 -10.5 81.5t-32 62.5t-53 40.5t-73.5 14.5z" />
    <glyph glyph-name="Pi" unicode="&#x3a0;" horiz-adv-x="700" 
d="M599 609h-306l-129 -609h-121l151 714h548l-151 -714h-121z" />
    <glyph glyph-name="Rho" unicode="&#x3a1;" horiz-adv-x="633" 
d="M667 524q0 -68 -22 -116.5t-63.5 -80t-100 -46.5t-131.5 -15h-132l-56 -266h-119l151 714h239q65 0 109.5 -17.5t72.5 -45t40 -61.5t12 -66zM363 367q40 0 74 7t58.5 24t38 46t13.5 73q0 20 -7 38t-23 31t-41 20.5t-62 7.5h-123l-52 -247h124z" />
    <glyph glyph-name="Sigma" unicode="&#x3a3;" horiz-adv-x="581" 
d="M161 105h396l-36 -105h-524l18 90l274 281l-161 253l18 90h514l-21 -105h-376l156 -248z" />
    <glyph glyph-name="Tau" unicode="&#x3a4;" horiz-adv-x="610" 
d="M462 609l-129 -609h-121l129 609h-226l22 105h572l-22 -105h-225z" />
    <glyph glyph-name="Upsilon" unicode="&#x3a5;" horiz-adv-x="635" 
d="M129 714h130l108 -310l240 310h134l-332 -417l-62 -297h-121l63 297z" />
    <glyph glyph-name="Phi" unicode="&#x3a6;" horiz-adv-x="844" 
d="M331 0l19 92q-57 7 -104 25.5t-81 49.5t-53 74.5t-19 99.5q0 83 31 145.5t83.5 105.5t122 66t146.5 28l17 78h117l-17 -82q57 -7 104 -26t81 -50t53 -75t19 -102q0 -80 -31 -142.5t-84 -105.5t-122.5 -67t-147.5 -27l-18 -87h-116zM730 433q0 66 -40 106t-118 50
l-85 -405q118 11 180.5 75.5t62.5 173.5zM213 342q0 -70 41 -109.5t116 -47.5l85 404q-118 -10 -180 -74t-62 -173z" />
    <glyph glyph-name="Chi" unicode="&#x3a7;" horiz-adv-x="661" 
d="M441 370l180 -370h-133l-132 284l-243 -284h-138l330 379l-162 335h132l113 -251l219 251h136z" />
    <glyph glyph-name="Psi" unicode="&#x3a8;" horiz-adv-x="838" 
d="M331 0l40 187q-54 5 -99 21.5t-78 45t-51 69.5t-18 96q0 20 2 41.5t7 45.5l44 208h119l-45 -204q-5 -21 -7.5 -40.5t-2.5 -37.5q0 -65 34.5 -102t115.5 -43l90 427h121l-91 -428q43 3 79.5 15.5t65 39t50 69t35.5 105.5l45 199h119l-45 -208q-18 -85 -50 -144t-78 -97
t-106.5 -57t-136.5 -23l-38 -185h-121z" />
    <glyph glyph-name="Omega" unicode="&#x3a9;" horiz-adv-x="740" 
d="M429 94q46 30 81.5 70t59.5 87.5t36.5 100t12.5 108.5q0 78 -38 125t-110 47q-70 0 -118.5 -30t-78.5 -77.5t-43.5 -107.5t-13.5 -120q0 -28 6 -57t17 -55.5t25.5 -50t32.5 -40.5l-20 -94h-263l20 99h141q-32 38 -54.5 92t-22.5 113q0 84 25 161.5t73.5 136.5t120 94.5
t164.5 35.5q58 0 106 -19t82 -54t52.5 -84t18.5 -109q0 -69 -14.5 -124t-39.5 -99.5t-58 -79.5t-69 -64h146l-33 -99h-264z" />
    <glyph glyph-name="Iotadieresis" unicode="&#x3aa;" horiz-adv-x="272" 
d="M43 0l151 714h121l-151 -714h-121zM109 786l24 116h113l-25 -116h-112zM303 786l24 116h113l-25 -116h-112z" />
    <glyph glyph-name="Upsilondieresis" unicode="&#x3ab;" horiz-adv-x="635" 
d="M129 714h130l108 -310l240 310h134l-332 -417l-62 -297h-121l63 297zM286 786l24 116h113l-25 -116h-112zM480 786l24 116h113l-25 -116h-112z" />
    <glyph glyph-name="alphatonos" unicode="&#x3ac;" horiz-adv-x="689" 
d="M544 239l16 -86q7 -34 17.5 -55t36.5 -21q11 0 22 2t17 4l13 -80q-9 -5 -31 -11.5t-48 -6.5q-85 0 -106 94l-13 64q-27 -42 -53 -72.5t-53.5 -49.5t-58 -28t-66.5 -9q-81 0 -129.5 55.5t-48.5 154.5q0 63 17 124t51 109.5t84.5 78.5t117.5 30q43 0 73.5 -12.5t52 -35.5
t35 -56.5t22.5 -76.5l86 165h112zM260 76q24 0 46 10.5t44 32t45 54.5t49 78q-6 48 -14 84t-20.5 60t-31.5 36.5t-46 12.5q-41 0 -70 -23.5t-48 -59t-28 -78.5t-9 -82q0 -63 22.5 -94t60.5 -31zM408 754h119l-133 -161h-96z" />
    <glyph glyph-name="epsilontonos" unicode="&#x3ad;" horiz-adv-x="545" 
d="M512 160q-7 -38 -23 -70t-45 -55.5t-73 -37t-107 -13.5q-57 0 -98 11.5t-68 31.5t-40 47t-13 59q0 57 31 93.5t89 51.5q-31 17 -46 43.5t-15 58.5q0 33 13.5 61.5t42 49.5t72 33t103.5 12q49 0 86 -12t62 -33t39 -49.5t18 -61.5l-100 -15q-3 16 -9 31t-18.5 26.5
t-32 18.5t-48.5 7q-24 0 -46 -3.5t-38 -12t-25.5 -22.5t-9.5 -35q0 -29 18.5 -47.5t61.5 -18.5h91l-14 -87h-96q-59 0 -87 -18t-28 -58q0 -42 33 -57.5t85 -15.5q60 0 90.5 22t39.5 65h105zM381 754h119l-133 -161h-96z" />
    <glyph glyph-name="etatonos" unicode="&#x3ae;" horiz-adv-x="582" 
d="M332 -194l108 504q3 13 4.5 26t1.5 24q0 38 -18 59t-55 21q-51 0 -100 -38q-22 -17 -39.5 -40.5t-23.5 -51.5l-65 -310h-114l110 520h111l-16 -75q42 49 87 70t91 21q73 0 111.5 -39.5t38.5 -109.5q0 -30 -7 -61l-111 -520h-114zM428 754h119l-133 -161h-96z" />
    <glyph glyph-name="iotatonos" unicode="&#x3af;" horiz-adv-x="297" 
d="M141 521h112l-75 -353q-3 -13 -5 -24.5t-2 -18.5q0 -19 9 -31.5t37 -12.5q12 0 25.5 2t24.5 5l9 -84q-16 -6 -41.5 -10.5t-57.5 -4.5q-68 0 -94.5 32.5t-26.5 82.5q0 26 6.5 53t12.5 58zM250 754h119l-133 -161h-96z" />
    <glyph glyph-name="upsilondieresistonos" unicode="&#x3b0;" horiz-adv-x="560" 
d="M130 520h113l-59 -279q-4 -18 -7 -38.5t-3 -36.5q0 -42 21.5 -64.5t69.5 -22.5q37 0 61.5 14t40 38.5t25.5 58t18 72.5l55 258h114l-64 -300q-13 -60 -32 -104.5t-48.5 -74t-72 -43.5t-101.5 -14q-103 0 -151.5 45t-48.5 126q0 20 3 45t8 48zM178 620l20 96h92l-19 -96
h-93zM479 620l20 96h93l-20 -96h-93zM374 746h106l-92 -146h-83z" />
    <glyph glyph-name="alpha" unicode="&#x3b1;" horiz-adv-x="689" 
d="M544 239l16 -86q7 -34 17.5 -55t36.5 -21q11 0 22 2t17 4l13 -80q-9 -5 -31 -11.5t-48 -6.5q-85 0 -106 94l-13 64q-27 -42 -53 -72.5t-53.5 -49.5t-58 -28t-66.5 -9q-81 0 -129.5 55.5t-48.5 154.5q0 63 17 124t51 109.5t84.5 78.5t117.5 30q43 0 73.5 -12.5t52 -35.5
t35 -56.5t22.5 -76.5l86 165h112zM260 76q24 0 46 10.5t44 32t45 54.5t49 78q-6 48 -14 84t-20.5 60t-31.5 36.5t-46 12.5q-41 0 -70 -23.5t-48 -59t-28 -78.5t-9 -82q0 -63 22.5 -94t60.5 -31z" />
    <glyph glyph-name="beta" unicode="&#x3b2;" horiz-adv-x="598" 
d="M567 225q0 -51 -16 -94t-46 -75t-73.5 -50t-98.5 -18q-56 0 -101 23t-72 68l-58 -273h-110l151 709q21 99 82.5 153t171.5 54q36 0 70.5 -10t61.5 -30.5t43.5 -51t16.5 -72.5q0 -63 -36.5 -107.5t-102.5 -64.5q50 -15 83.5 -57t33.5 -104zM456 220q0 52 -30.5 82.5
t-85.5 30.5h-47l19 88h45q24 0 45.5 9t38 26t26.5 41t10 54q0 38 -25 60t-64 22q-33 0 -56.5 -9.5t-40 -27.5t-26.5 -43.5t-17 -56.5l-56 -261q-4 -17 -4 -42q0 -40 26 -72q12 -17 37.5 -31t66.5 -14q67 0 102.5 39t35.5 105z" />
    <glyph glyph-name="gamma" unicode="&#x3b3;" horiz-adv-x="544" 
d="M125 -194l44 210l-103 504h126l59 -376l215 376h131l-314 -504l-45 -210h-113z" />
    <glyph glyph-name="delta" unicode="&#x3b4;" horiz-adv-x="587" 
d="M285 -16q-50 0 -91.5 15.5t-71.5 43t-47 65.5t-17 83q0 54 16.5 97t45 77t67.5 58.5t84 39.5q-35 26 -52 51.5t-17 63.5t17 65t45.5 44.5t65 26t75.5 8.5q87 0 137.5 -38t58.5 -116l-96 -13q-15 81 -101 81q-29 0 -47.5 -5t-29.5 -13t-15 -18.5t-4 -21.5q0 -15 7.5 -26.5
t22 -23.5t36.5 -26t51 -34q70 -48 104 -100.5t34 -127.5q0 -53 -20.5 -99.5t-57.5 -81.5t-88 -55t-112 -20zM291 76q69 0 111 44.5t42 124.5q0 33 -8.5 57.5t-23 43.5t-35 34t-44.5 29q-72 -18 -115.5 -73t-43.5 -134q0 -56 30 -91t87 -35z" />
    <glyph glyph-name="epsilon" unicode="&#x3b5;" horiz-adv-x="545" 
d="M512 160q-7 -38 -23 -70t-45 -55.5t-73 -37t-107 -13.5q-57 0 -98 11.5t-68 31.5t-40 47t-13 59q0 57 31 93.5t89 51.5q-31 17 -46 43.5t-15 58.5q0 33 13.5 61.5t42 49.5t72 33t103.5 12q49 0 86 -12t62 -33t39 -49.5t18 -61.5l-100 -15q-3 16 -9 31t-18.5 26.5
t-32 18.5t-48.5 7q-24 0 -46 -3.5t-38 -12t-25.5 -22.5t-9.5 -35q0 -29 18.5 -47.5t61.5 -18.5h91l-14 -87h-96q-59 0 -87 -18t-28 -58q0 -42 33 -57.5t85 -15.5q60 0 90.5 22t39.5 65h105z" />
    <glyph glyph-name="zeta" unicode="&#x3b6;" horiz-adv-x="487" 
d="M586 636q-40 -24 -86 -52.5t-91 -61t-86 -68.5t-72.5 -75t-50.5 -81.5t-19 -86.5q0 -50 23.5 -76t71.5 -43l70 -24q51 -17 81 -47t30 -81q0 -48 -26 -83.5t-61 -61.5l-63 57q17 14 30.5 31.5t13.5 37.5q0 18 -11.5 32.5t-47.5 26.5l-69 23q-74 25 -117 69.5t-43 120.5
q0 74 32 137t82.5 116.5t113 97t124.5 79.5h-238l20 91h406z" />
    <glyph glyph-name="eta" unicode="&#x3b7;" horiz-adv-x="582" 
d="M332 -194l108 504q3 13 4.5 26t1.5 24q0 38 -18 59t-55 21q-51 0 -100 -38q-22 -17 -39.5 -40.5t-23.5 -51.5l-65 -310h-114l110 520h111l-16 -75q42 49 87 70t91 21q73 0 111.5 -39.5t38.5 -109.5q0 -30 -7 -61l-111 -520h-114z" />
    <glyph glyph-name="theta" unicode="&#x3b8;" horiz-adv-x="598" 
d="M394 722q100 0 156.5 -63.5t56.5 -188.5q0 -51 -7 -106.5t-23 -110t-41.5 -103.5t-62 -86t-85.5 -59t-112 -22q-97 0 -154 64.5t-57 187.5q0 50 7 105t23 109t41.5 103.5t62 87t85 60t110.5 22.5zM282 75q39 0 69.5 17t54.5 48t41 74t28 95h-295q-2 -21 -3 -40t-1 -38
q0 -77 26 -116.5t80 -39.5zM388 629q-38 0 -68.5 -17.5t-54 -48t-40.5 -72t-28 -90.5h294q2 18 3 36t1 35q0 79 -24.5 118t-82.5 39z" />
    <glyph glyph-name="iota" unicode="&#x3b9;" horiz-adv-x="297" 
d="M141 521h112l-75 -353q-3 -13 -5 -24.5t-2 -18.5q0 -19 9 -31.5t37 -12.5q12 0 25.5 2t24.5 5l9 -84q-16 -6 -41.5 -10.5t-57.5 -4.5q-68 0 -94.5 32.5t-26.5 82.5q0 26 6.5 53t12.5 58z" />
    <glyph glyph-name="kappa" unicode="&#x3ba;" horiz-adv-x="552" 
d="M31 0l110 520h112l-47 -222l266 222h135l-229 -198l136 -322h-121l-103 261l-110 -87l-37 -174h-112z" />
    <glyph glyph-name="lambda" unicode="&#x3bb;" horiz-adv-x="545" 
d="M304 568q-6 33 -22.5 47.5t-45.5 14.5q-30 0 -59 -10l-14 89q20 7 46.5 11t51.5 4q67 0 100 -35t46 -105l107 -584h-128l-50 393l-229 -393h-127l331 526z" />
    <glyph glyph-name="uni03BC" unicode="&#x3bc;" horiz-adv-x="578" 
d="M385 76q-32 -42 -68 -65.5t-85 -23.5q-30 0 -49.5 8.5t-33.5 26.5l-47 -216h-113l151 714h114l-68 -319q-5 -23 -5 -42q0 -36 16.5 -57.5t54.5 -21.5q28 0 50.5 9t45.5 28q22 17 39 40.5t24 55.5l65 307h113l-109 -520h-111z" />
    <glyph glyph-name="nu" unicode="&#x3bd;" horiz-adv-x="544" 
d="M178 0l-96 520h127l53 -392l220 392h129l-316 -520h-117z" />
    <glyph glyph-name="xi" unicode="&#x3be;" horiz-adv-x="520" 
d="M368 69q50 -17 78 -47.5t28 -81.5q0 -48 -26 -83.5t-61 -61.5l-63 57q17 14 30.5 31.5t13.5 37.5q0 19 -13 34.5t-50 27.5l-93 31q-71 23 -112 67t-41 115q0 85 44.5 134t121.5 68q-36 18 -59 50t-23 86q0 46 17.5 82.5t49 62t75 39.5t95.5 14t90.5 -11.5t64.5 -32.5
t40 -51t18 -67l-101 -14q-9 44 -34.5 66t-79.5 22q-26 0 -48.5 -6.5t-39.5 -20t-27 -35.5t-10 -53q0 -21 6 -39.5t18.5 -32.5t31.5 -22t46 -8h102l-15 -90h-108q-75 0 -117.5 -30.5t-42.5 -91.5q0 -48 23 -72t74 -41z" />
    <glyph glyph-name="omicron" unicode="&#x3bf;" horiz-adv-x="603" 
d="M366 536q49 0 89.5 -17t69 -46t44 -69.5t15.5 -86.5q0 -79 -22.5 -141t-62.5 -104.5t-95 -65t-120 -22.5q-50 0 -90.5 17t-69.5 46t-44.5 69t-15.5 87q0 78 23.5 139.5t64 104.5t95.5 66t119 23zM357 444q-37 0 -69 -16.5t-55 -47.5t-36.5 -75.5t-13.5 -99.5
q0 -60 28 -94.5t80 -34.5q37 0 69 16.5t55.5 47t37 74.5t13.5 100q0 60 -28.5 95t-80.5 35z" />
    <glyph glyph-name="pi" unicode="&#x3c0;" horiz-adv-x="622" 
d="M432 428h-158l-90 -428h-114l91 428h-98l19 92h576l-19 -92h-95l-57 -270q-3 -13 -5 -24t-2 -18q0 -16 7.5 -27.5t28.5 -11.5t39 5l12 -83q-15 -5 -39.5 -9.5t-52.5 -4.5q-60 0 -84.5 28t-24.5 72q0 6 0.5 14t2 20t4 28.5t7.5 39.5z" />
    <glyph glyph-name="rho" unicode="&#x3c1;" horiz-adv-x="607" 
d="M88 272q30 140 100 202t175 62q50 0 91.5 -16t71 -46t45.5 -73t16 -96q0 -65 -19.5 -123.5t-54 -102.5t-83.5 -69.5t-107 -25.5q-54 0 -95.5 21t-67.5 69l-58 -268h-113zM302 76q37 0 68 18t53 49t34 73.5t12 90.5q0 27 -6.5 52t-20.5 44t-35 30t-50 11
q-37 0 -63.5 -14.5t-45.5 -39t-31 -57.5t-19 -70q-7 -34 -8.5 -47t-1.5 -21q0 -23 6 -41t20 -37q32 -41 88 -41z" />
    <glyph glyph-name="sigma1" unicode="&#x3c2;" horiz-adv-x="541" 
d="M357 72q50 -16 78.5 -48.5t28.5 -83.5q0 -48 -26 -83.5t-61 -61.5l-63 57q17 14 30.5 31.5t13.5 37.5q0 19 -13.5 36.5t-50.5 28.5l-80 24q-31 9 -58 26.5t-47.5 42.5t-32 58t-11.5 74q0 78 22.5 139t61.5 102t91 62.5t110 21.5q50 0 87 -13.5t61.5 -37.5t38.5 -57
t17 -73l-113 -16q-5 51 -27 78t-75 27q-32 0 -60 -15.5t-49.5 -44.5t-34 -70t-12.5 -93q0 -53 24.5 -81t69.5 -42z" />
    <glyph glyph-name="sigma" unicode="&#x3c3;" horiz-adv-x="607" 
d="M284 -16q-47 0 -87.5 15t-70 43.5t-46 68.5t-16.5 90q0 85 27 145.5t71.5 99t103 56.5t121.5 18h258l-19 -92h-127q29 -29 47 -71t18 -92q0 -67 -21.5 -119.5t-59.5 -88.5t-89 -54.5t-110 -18.5zM295 76q70 0 112.5 54t42.5 148q0 36 -10 77.5t-36 71.5h-23
q-42 0 -78.5 -13t-63.5 -39.5t-42.5 -66t-15.5 -93.5q0 -65 28.5 -102t85.5 -37z" />
    <glyph glyph-name="tau" unicode="&#x3c4;" horiz-adv-x="509" 
d="M331 428l-54 -252q-5 -20 -5 -35q0 -30 16 -46t55 -16q27 0 46 4t35 8l11 -85q-15 -5 -50.5 -12t-76.5 -7q-43 0 -72 11t-46 29t-24.5 41t-7.5 47q0 7 0.5 16t2.5 21.5t5.5 30t8.5 41.5l43 204h-156l19 92h463l-19 -92h-194z" />
    <glyph glyph-name="upsilon" unicode="&#x3c5;" horiz-adv-x="560" 
d="M130 520h113l-59 -279q-4 -18 -7 -38.5t-3 -36.5q0 -42 21.5 -64.5t69.5 -22.5q37 0 61.5 14t40 38.5t25.5 58t18 72.5l55 258h114l-64 -300q-13 -60 -32 -104.5t-48.5 -74t-72 -43.5t-101.5 -14q-103 0 -151.5 45t-48.5 126q0 20 3 45t8 48z" />
    <glyph glyph-name="phi" unicode="&#x3c6;" horiz-adv-x="777" 
d="M263 -194l38 184q-54 6 -97.5 25.5t-74.5 49.5t-48 70.5t-17 88.5q0 72 26.5 129.5t76.5 98t121 62.5t161 22q55 0 110 -13.5t99 -43.5t71.5 -77t27.5 -113q0 -69 -24.5 -124.5t-69.5 -94.5t-108.5 -61t-142.5 -24l-38 -179h-111zM179 232q0 -66 36.5 -108.5t104.5 -46.5
l78 370q-56 -2 -97 -19.5t-68 -46.5t-40.5 -67t-13.5 -82zM430 74q96 6 154 60t58 157q0 63 -36 104.5t-97 48.5z" />
    <glyph glyph-name="chi" unicode="&#x3c7;" horiz-adv-x="550" 
d="M486 520h127l-270 -340l65 -215q13 -42 26.5 -59.5t39.5 -17.5q21 0 47 9l16 -84q-16 -8 -41 -13t-51 -5q-29 0 -50.5 8.5t-36.5 24t-26 37.5t-19 49l-52 177l-213 -285h-126l301 390l-50 172q-11 38 -25 56t-41 18q-21 0 -46 -9l-14 85q17 7 40.5 12t50.5 5q30 0 51 -8
t36 -23t24.5 -36.5t17.5 -48.5l38 -140z" />
    <glyph glyph-name="psi" unicode="&#x3c8;" horiz-adv-x="788" 
d="M258 -194l39 184q-52 6 -94 21.5t-72 42t-46.5 65t-16.5 89.5q0 42 10 89l47 223h112l-48 -228q-9 -42 -9 -75q0 -63 32.5 -97.5t102.5 -41.5l94 442h113l-94 -441q43 4 78 16.5t62 38t46.5 66.5t32.5 101l47 219h112l-47 -220q-17 -78 -44 -134.5t-69 -94t-100 -58
t-137 -25.5l-38 -182h-113z" />
    <glyph glyph-name="omega" unicode="&#x3c9;" horiz-adv-x="807" 
d="M396 90q-14 -24 -29.5 -43.5t-36 -33.5t-47.5 -21.5t-63 -7.5q-81 0 -124 51t-43 137q0 52 13.5 102.5t37 96.5t55 87.5t67.5 76.5l86 -47q-63 -69 -103 -148t-40 -162q0 -42 17 -72t57 -30q30 0 50 13t32.5 34t20 48t13.5 55l30 140h113l-29 -135q-4 -19 -5.5 -37.5
t-1.5 -34.5q0 -37 20 -60t52 -23q37 0 61.5 23t39.5 58.5t21 79t6 84.5q0 57 -12 99t-26 70l95 44q9 -17 19.5 -40t19 -51t14 -59.5t5.5 -65.5q0 -63 -12 -123t-39.5 -107t-73 -75.5t-112.5 -28.5q-65 0 -99 29t-49 77z" />
    <glyph glyph-name="iotadieresis" unicode="&#x3ca;" horiz-adv-x="297" 
d="M141 521h112l-75 -353q-3 -13 -5 -24.5t-2 -18.5q0 -19 9 -31.5t37 -12.5q12 0 25.5 2t24.5 5l9 -84q-16 -6 -41.5 -10.5t-57.5 -4.5q-68 0 -94.5 32.5t-26.5 82.5q0 26 6.5 53t12.5 58zM84 612l23 112h109l-23 -112h-109zM272 612l24 112h109l-23 -112h-110z" />
    <glyph glyph-name="upsilondieresis" unicode="&#x3cb;" horiz-adv-x="560" 
d="M130 520h113l-59 -279q-4 -18 -7 -38.5t-3 -36.5q0 -42 21.5 -64.5t69.5 -22.5q37 0 61.5 14t40 38.5t25.5 58t18 72.5l55 258h114l-64 -300q-13 -60 -32 -104.5t-48.5 -74t-72 -43.5t-101.5 -14q-103 0 -151.5 45t-48.5 126q0 20 3 45t8 48zM224 612l23 112h109
l-23 -112h-109zM412 612l24 112h109l-23 -112h-110z" />
    <glyph glyph-name="omicrontonos" unicode="&#x3cc;" horiz-adv-x="603" 
d="M366 536q49 0 89.5 -17t69 -46t44 -69.5t15.5 -86.5q0 -79 -22.5 -141t-62.5 -104.5t-95 -65t-120 -22.5q-50 0 -90.5 17t-69.5 46t-44.5 69t-15.5 87q0 78 23.5 139.5t64 104.5t95.5 66t119 23zM357 444q-37 0 -69 -16.5t-55 -47.5t-36.5 -75.5t-13.5 -99.5
q0 -60 28 -94.5t80 -34.5q37 0 69 16.5t55.5 47t37 74.5t13.5 100q0 60 -28.5 95t-80.5 35zM420 754h119l-133 -161h-96z" />
    <glyph glyph-name="upsilontonos" unicode="&#x3cd;" horiz-adv-x="560" 
d="M130 520h113l-59 -279q-4 -18 -7 -38.5t-3 -36.5q0 -42 21.5 -64.5t69.5 -22.5q37 0 61.5 14t40 38.5t25.5 58t18 72.5l55 258h114l-64 -300q-13 -60 -32 -104.5t-48.5 -74t-72 -43.5t-101.5 -14q-103 0 -151.5 45t-48.5 126q0 20 3 45t8 48zM408 754h119l-133 -161h-96z
" />
    <glyph glyph-name="omegatonos" unicode="&#x3ce;" horiz-adv-x="807" 
d="M396 90q-14 -24 -29.5 -43.5t-36 -33.5t-47.5 -21.5t-63 -7.5q-81 0 -124 51t-43 137q0 52 13.5 102.5t37 96.5t55 87.5t67.5 76.5l86 -47q-63 -69 -103 -148t-40 -162q0 -42 17 -72t57 -30q30 0 50 13t32.5 34t20 48t13.5 55l30 140h113l-29 -135q-4 -19 -5.5 -37.5
t-1.5 -34.5q0 -37 20 -60t52 -23q37 0 61.5 23t39.5 58.5t21 79t6 84.5q0 57 -12 99t-26 70l95 44q9 -17 19.5 -40t19 -51t14 -59.5t5.5 -65.5q0 -63 -12 -123t-39.5 -107t-73 -75.5t-112.5 -28.5q-65 0 -99 29t-49 77zM518 754h119l-133 -161h-96z" />
    <glyph glyph-name="uni0400" unicode="&#x400;" horiz-adv-x="599" 
d="M292 610l-40 -190h334l-22 -105h-334l-45 -211h375l-36 -104h-481l151 714h474l-21 -104h-355zM429 773l-120 139h130l95 -139h-105z" />
    <glyph glyph-name="afii10023" unicode="&#x401;" horiz-adv-x="599" 
d="M292 610l-40 -190h334l-22 -105h-334l-45 -211h375l-36 -104h-481l151 714h474l-21 -104h-355zM289 786l24 116h113l-25 -116h-112zM483 786l24 116h113l-25 -116h-112z" />
    <glyph glyph-name="afii10051" unicode="&#x402;" horiz-adv-x="803" 
d="M390 419q33 10 77 17t86 7q49 0 91.5 -12t73.5 -36.5t48.5 -62t17.5 -87.5q0 -116 -80.5 -180.5t-246.5 -64.5h-52l21 102h27q97 0 150 36t53 108q0 51 -38 74t-100 23q-50 0 -85.5 -7.5t-63.5 -17.5l-70 -318h-121l132 609h-200l22 105h572l-22 -105h-251z" />
    <glyph glyph-name="afii10052" unicode="&#x403;" horiz-adv-x="534" 
d="M193 714h443l-23 -105h-322l-128 -609h-120zM315 773l150 139h140l-177 -139h-113z" />
    <glyph glyph-name="afii10053" unicode="&#x404;" horiz-adv-x="722" 
d="M523 315h-304q-1 -8 -1 -13v-8q0 -41 9.5 -79t30 -66.5t53 -45.5t77.5 -17q75 0 118 33.5t63 96.5h125q-31 -118 -107 -176t-210 -58q-67 0 -120 22.5t-90 63.5t-56.5 98.5t-19.5 128.5q0 84 25 163t73.5 140t119 97.5t161.5 36.5q115 0 182 -53.5t83 -156.5l-121 -18
q-12 63 -47.5 93.5t-101.5 30.5q-78 0 -141 -51t-92 -158h312z" />
    <glyph glyph-name="afii10054" unicode="&#x405;" horiz-adv-x="644" 
d="M607 221q0 -62 -20 -107t-57 -74t-89.5 -43.5t-117.5 -14.5q-53 0 -103.5 11t-90.5 38t-64.5 72.5t-26.5 114.5h122q6 -69 45.5 -101.5t126.5 -32.5q40 0 68.5 9.5t46.5 26t26 39t8 49.5q0 30 -20 56.5t-72 37.5l-86 18q-94 19 -138.5 66t-44.5 119q0 58 20 101t56.5 71
t89 41.5t117.5 13.5q117 0 183 -52.5t75 -154.5l-116 -16q-8 63 -42.5 93t-106.5 30q-44 0 -73.5 -9t-47 -24t-25 -34t-7.5 -38q0 -42 22.5 -65t73.5 -34l86 -19q51 -12 86 -30.5t56.5 -42.5t30.5 -53t9 -62z" />
    <glyph glyph-name="afii10055" unicode="&#x406;" horiz-adv-x="272" 
d="M43 0l151 714h121l-151 -714h-121z" />
    <glyph glyph-name="afii10056" unicode="&#x407;" horiz-adv-x="272" 
d="M43 0l151 714h121l-151 -714h-121zM110 786l24 116h113l-25 -116h-112zM304 786l24 116h113l-25 -116h-112z" />
    <glyph glyph-name="afii10057" unicode="&#x408;" horiz-adv-x="617" 
d="M564 229q-14 -65 -38 -112t-59.5 -77t-82.5 -44t-107 -14q-51 0 -94 13t-73.5 38.5t-48 64.5t-17.5 90q0 10 0.5 20.5t2.5 21.5h119q-1 -7 -1 -12.5v-11.5q0 -26 5.5 -47.5t19 -38t37 -25.5t58.5 -9q37 0 64 11.5t45.5 33t31 52t21.5 69.5l98 462h121z" />
    <glyph glyph-name="afii10058" unicode="&#x409;" horiz-adv-x="1073" 
d="M360 334q-29 -94 -62 -159t-72.5 -105.5t-89 -58.5t-111.5 -18h-32l21 104h15q34 0 63.5 12.5t57 45.5t54 89.5t53.5 143.5l101 326h403l-54 -256h95q114 0 180 -49.5t66 -151.5q0 -133 -80 -195t-242 -62h-237l129 612h-172zM685 357l-54 -257h119q89 0 133.5 35.5
t44.5 116.5q0 105 -135 105h-108z" />
    <glyph glyph-name="afii10059" unicode="&#x40a;" horiz-adv-x="1042" 
d="M530 331h-296l-70 -331h-121l151 714h121l-59 -278h297l59 278h121l-58 -278h93q57 0 103 -13t78.5 -37.5t50 -60.5t17.5 -82q0 -126 -78 -184.5t-234 -58.5h-244zM652 332l-49 -232h117q89 0 133 32t44 107q0 42 -32.5 67.5t-100.5 25.5h-112z" />
    <glyph glyph-name="afii10060" unicode="&#x40b;" horiz-adv-x="796" 
d="M575 0l35 167q8 35 8 66q0 53 -33.5 77.5t-88.5 24.5q-35 0 -72.5 -7.5t-66.5 -19.5l-66 -308h-121l130 609h-195l22 105h567l-22 -105h-252l-44 -208q37 14 79 22t85 8t80 -11.5t64 -34t42.5 -57.5t15.5 -81q0 -14 -2 -29t-5 -31l-40 -187h-120z" />
    <glyph glyph-name="afii10061" unicode="&#x40c;" horiz-adv-x="661" 
d="M252 415h32q49 0 85 30.5t71 77.5l51 69q23 30 44.5 53t44.5 38.5t48.5 23t57.5 7.5q20 0 37.5 -2.5t28.5 -6.5l-29 -98q-18 5 -38 5q-33 0 -54.5 -18.5t-47.5 -53.5l-58 -79q-23 -31 -50 -54t-65 -37q34 -14 52.5 -42t40.5 -75l117 -253h-128l-106 235q-19 42 -42.5 61
t-65.5 19h-47l-67 -315h-121l151 714h121zM389 773l150 139h140l-177 -139h-113z" />
    <glyph glyph-name="uni040D" unicode="&#x40d;" horiz-adv-x="701" 
d="M472 0l110 512l-428 -512h-111l150 714h120l-110 -514l427 514h113l-152 -714h-119zM445 773l-120 139h130l95 -139h-105z" />
    <glyph glyph-name="afii10062" unicode="&#x40e;" horiz-adv-x="604" 
d="M48 94q15 -6 36.5 -11t43.5 -5q38 0 66 18t56 63l29 46l-152 509h124l105 -399l242 399h126l-346 -549q-31 -49 -58.5 -84t-56 -57t-61 -32t-72.5 -10q-36 0 -68.5 6.5t-48.5 14.5zM367 921q-1 -6 -1 -9.5v-8.5q0 -11 3.5 -21.5t12 -18.5t23.5 -13t38 -5q39 0 64.5 17.5
t36.5 58.5h83q-14 -67 -60 -107.5t-132 -40.5q-33 0 -61 7t-48.5 21.5t-32 37t-11.5 53.5q0 10 1 17t2 12h82z" />
    <glyph glyph-name="afii10145" unicode="&#x40f;" horiz-adv-x="698" 
d="M186 105h304l129 609h121l-151 -714h-217l-37 -173h-107l37 173h-222l151 714h121z" />
    <glyph glyph-name="afii10017" unicode="&#x410;" horiz-adv-x="686" 
d="M521 714l121 -714h-124l-28 182h-278l-105 -182h-130l424 714h120zM266 283h211l-44 294z" />
    <glyph glyph-name="afii10018" unicode="&#x411;" horiz-adv-x="632" 
d="M194 714h430l-22 -105h-309l-34 -162h106q114 0 180 -48.5t66 -145.5q0 -129 -80.5 -191t-238.5 -62h-249zM237 347l-52 -247h127q89 0 134 35t45 113q0 46 -32.5 72.5t-101.5 26.5h-120z" />
    <glyph glyph-name="afii10019" unicode="&#x412;" horiz-adv-x="640" 
d="M662 552q0 -74 -36.5 -116t-102.5 -65q48 -23 71 -59.5t23 -82.5q0 -52 -18 -94t-55.5 -72t-95.5 -46.5t-137 -16.5h-268l151 714h238q65 0 109 -13.5t71 -36t38.5 -52t11.5 -60.5zM390 421q29 0 56.5 5t48.5 18t33.5 35t12.5 56q0 37 -27 60t-98 23h-126l-41 -197h141z
M179 97h141q95 0 136 33t41 98q0 45 -30 69.5t-97 24.5h-142z" />
    <glyph glyph-name="afii10020" unicode="&#x413;" horiz-adv-x="534" 
d="M193 714h443l-23 -105h-322l-128 -609h-120z" />
    <glyph glyph-name="afii10021" unicode="&#x414;" horiz-adv-x="739" 
d="M84 0l-38 -173h-107l60 278h71q38 28 70.5 72.5t61 102t54.5 128t51 150.5l49 156h413l-130 -609h73l-59 -278h-107l37 173h-499zM410 513q-22 -70 -43.5 -130.5t-45.5 -111.5t-51 -92.5t-60 -73.5h307l110 507h-186z" />
    <glyph glyph-name="afii10022" unicode="&#x415;" horiz-adv-x="599" 
d="M292 610l-40 -190h334l-22 -105h-334l-45 -211h375l-36 -104h-481l151 714h474l-21 -104h-355z" />
    <glyph glyph-name="afii10024" unicode="&#x416;" horiz-adv-x="1031" 
d="M496 315h-41q-18 0 -32.5 -4.5t-29 -15t-30 -28t-36.5 -42.5l-189 -225h-150l248 292q31 36 57 55t55 27q-27 13 -44 37.5t-28 61.5l-22 77q-10 33 -26 49.5t-51 16.5q-12 0 -22.5 -1t-15.5 -2l16 93q16 4 31 6t34 2q52 0 81 -24.5t46 -77.5l24 -77q9 -29 19.5 -51.5
t24 -38t31.5 -23.5t43 -8h28l63 300h120l-64 -300h25q21 0 40.5 6t38.5 20.5t38.5 37.5t42.5 58l50 75q39 59 82 81t99 22q17 0 34.5 -2t32.5 -7l-28 -97l-10 2t-11.5 1.5t-13.5 0.5q-17 0 -30 -3t-24.5 -11.5t-24 -23t-27.5 -38.5l-46 -71q-26 -39 -51.5 -61t-58.5 -34
q24 -11 42 -37.5t33 -61.5l120 -271h-136l-102 244q-15 36 -34.5 53.5t-61.5 17.5h-39l-67 -315h-120z" />
    <glyph glyph-name="afii10025" unicode="&#x417;" horiz-adv-x="632" 
d="M169 206q4 -37 15 -61t29 -38.5t45 -20.5t65 -6q71 0 113 32t42 109q0 99 -140 99h-78l21 98h82q37 0 68.5 7t54 22t35 39t12.5 59q0 42 -33.5 65.5t-86.5 23.5q-38 0 -66.5 -5.5t-49.5 -18t-36 -33t-26 -50.5l-110 15q15 46 39 81.5t59.5 59.5t84 36.5t112.5 12.5
q50 0 92 -12.5t72 -35.5t47 -56t17 -74q0 -38 -10.5 -67.5t-29 -51.5t-44.5 -38t-56 -26q44 -24 66.5 -62.5t22.5 -84.5q0 -58 -20 -103t-56.5 -76t-87.5 -47t-113 -16q-126 0 -192.5 55t-71.5 169h113z" />
    <glyph glyph-name="afii10026" unicode="&#x418;" horiz-adv-x="701" 
d="M472 0l110 512l-428 -512h-111l150 714h120l-110 -514l427 514h113l-152 -714h-119z" />
    <glyph glyph-name="afii10027" unicode="&#x419;" horiz-adv-x="701" 
d="M472 0l110 512l-428 -512h-111l150 714h120l-110 -514l427 514h113l-152 -714h-119zM416 921q-1 -6 -1 -9.5v-8.5q0 -11 3.5 -21.5t12 -18.5t23.5 -13t38 -5q39 0 64.5 17.5t36.5 58.5h83q-14 -67 -60 -107.5t-132 -40.5q-33 0 -61 7t-48.5 21.5t-32 37t-11.5 53.5
q0 10 1 17t2 12h82z" />
    <glyph glyph-name="afii10028" unicode="&#x41a;" horiz-adv-x="661" 
d="M252 415h32q49 0 85 30.5t71 77.5l51 69q23 30 44.5 53t44.5 38.5t48.5 23t57.5 7.5q20 0 37.5 -2.5t28.5 -6.5l-29 -98q-18 5 -38 5q-33 0 -54.5 -18.5t-47.5 -53.5l-58 -79q-23 -31 -50 -54t-65 -37q34 -14 52.5 -42t40.5 -75l117 -253h-128l-106 235q-19 42 -42.5 61
t-65.5 19h-47l-67 -315h-121l151 714h121z" />
    <glyph glyph-name="afii10029" unicode="&#x41b;" horiz-adv-x="742" 
d="M642 612h-196l-86 -278q-29 -94 -62 -159t-72.5 -105.5t-89 -58.5t-111.5 -18h-32l21 104h15q34 0 63.5 12.5t57 45.5t54 89.5t53.5 143.5l101 326h426l-151 -714h-121z" />
    <glyph glyph-name="afii10030" unicode="&#x41c;" horiz-adv-x="853" 
d="M194 714h143l85 -568l327 568h146l-151 -714h-111l110 519l-303 -519h-95l-83 518l-110 -518h-109z" />
    <glyph glyph-name="afii10031" unicode="&#x41d;" horiz-adv-x="715" 
d="M485 0l66 313h-321l-66 -313h-121l151 714h121l-61 -289h321l61 289h121l-151 -714h-121z" />
    <glyph glyph-name="afii10032" unicode="&#x41e;" horiz-adv-x="772" 
d="M482 732q66 0 119 -21.5t89.5 -60.5t56.5 -94t20 -122q0 -86 -25 -167.5t-74.5 -144.5t-123 -101.5t-169.5 -38.5q-66 0 -119.5 21.5t-91 60.5t-57.5 94t-20 122q0 85 26 166.5t76.5 145t124 102t168.5 38.5zM473 628q-65 0 -114 -30t-81.5 -79t-49 -110t-16.5 -123
q0 -91 42.5 -145.5t127.5 -54.5q64 0 113 30t81.5 79t49 110t16.5 124q0 45 -10.5 81.5t-32 62.5t-53 40.5t-73.5 14.5z" />
    <glyph glyph-name="afii10033" unicode="&#x41f;" horiz-adv-x="700" 
d="M599 609h-306l-129 -609h-121l151 714h548l-151 -714h-121z" />
    <glyph glyph-name="afii10034" unicode="&#x420;" horiz-adv-x="633" 
d="M667 524q0 -68 -22 -116.5t-63.5 -80t-100 -46.5t-131.5 -15h-132l-56 -266h-119l151 714h239q65 0 109.5 -17.5t72.5 -45t40 -61.5t12 -66zM363 367q40 0 74 7t58.5 24t38 46t13.5 73q0 20 -7 38t-23 31t-41 20.5t-62 7.5h-123l-52 -247h124z" />
    <glyph glyph-name="afii10035" unicode="&#x421;" horiz-adv-x="712" 
d="M610 473q-10 76 -44 115.5t-110 39.5q-57 0 -102 -26t-76.5 -70.5t-48.5 -103.5t-17 -125q0 -45 9.5 -84.5t30 -69t53 -46.5t78.5 -17q83 0 126.5 40.5t57.5 111.5h131q-12 -57 -36 -104.5t-62.5 -81t-94 -52t-130.5 -18.5q-72 0 -126 23.5t-90.5 65.5t-54.5 99t-18 125
q0 86 26 165t74.5 139.5t118 96.5t156.5 36q66 0 114.5 -17t81.5 -48.5t50.5 -76.5t22.5 -100z" />
    <glyph glyph-name="afii10036" unicode="&#x422;" horiz-adv-x="610" 
d="M462 609l-129 -609h-121l129 609h-226l22 105h572l-22 -105h-225z" />
    <glyph glyph-name="afii10037" unicode="&#x423;" horiz-adv-x="604" 
d="M48 94q15 -6 36.5 -11t43.5 -5q38 0 66 18t56 63l29 46l-152 509h124l105 -399l242 399h126l-346 -549q-31 -49 -58.5 -84t-56 -57t-61 -32t-72.5 -10q-36 0 -68.5 6.5t-48.5 14.5z" />
    <glyph glyph-name="afii10038" unicode="&#x424;" horiz-adv-x="844" 
d="M331 0l19 92q-57 7 -104 25.5t-81 49.5t-53 74.5t-19 99.5q0 83 31 145.5t83.5 105.5t122 66t146.5 28l17 78h117l-17 -82q57 -7 104 -26t81 -50t53 -75t19 -102q0 -80 -31 -142.5t-84 -105.5t-122.5 -67t-147.5 -27l-18 -87h-116zM730 433q0 66 -40 106t-118 50
l-85 -405q118 11 180.5 75.5t62.5 173.5zM213 342q0 -70 41 -109.5t116 -47.5l85 404q-118 -10 -180 -74t-62 -173z" />
    <glyph glyph-name="afii10039" unicode="&#x425;" horiz-adv-x="661" 
d="M441 370l180 -370h-133l-132 284l-243 -284h-138l330 379l-162 335h132l113 -251l219 251h136z" />
    <glyph glyph-name="afii10040" unicode="&#x426;" horiz-adv-x="709" 
d="M43 0l151 714h121l-129 -609h294l129 609h121l-129 -609h76l-59 -278h-107l37 173h-505z" />
    <glyph glyph-name="afii10041" unicode="&#x427;" horiz-adv-x="658" 
d="M490 302q-35 -14 -78.5 -22.5t-85.5 -8.5q-46 0 -84.5 11.5t-66 34t-42.5 56.5t-15 80q0 19 2 36.5t4 28.5l42 196h121l-37 -175q-3 -15 -5 -32t-2 -36q0 -49 27.5 -76t95.5 -27q37 0 76 8t69 19l68 319h121l-154 -714h-121z" />
    <glyph glyph-name="afii10042" unicode="&#x428;" horiz-adv-x="991" 
d="M545 105h238l129 609h121l-151 -714h-839l151 714h121l-129 -609h238l129 609h121z" />
    <glyph glyph-name="afii10043" unicode="&#x429;" horiz-adv-x="1012" 
d="M43 0l151 714h121l-129 -609h238l129 609h121l-129 -609h238l129 609h121l-129 -609h76l-59 -278h-107l37 173h-808z" />
    <glyph glyph-name="afii10044" unicode="&#x42a;" horiz-adv-x="725" 
d="M388 714l-54 -256h120q114 0 180 -49.5t66 -151.5q0 -133 -80 -195t-242 -62h-262l128 609h-150l23 105h271zM312 357l-54 -257h144q89 0 133.5 35.5t44.5 116.5q0 105 -135 105h-133z" />
    <glyph glyph-name="afii10045" unicode="&#x42b;" horiz-adv-x="895" 
d="M315 714l-54 -256h103q114 0 180 -49.5t66 -151.5q0 -133 -80 -195t-242 -62h-245l151 714h121zM239 357l-54 -257h127q89 0 133.5 35.5t44.5 116.5q0 105 -135 105h-116zM665 0l151 714h121l-151 -714h-121z" />
    <glyph glyph-name="afii10046" unicode="&#x42c;" horiz-adv-x="639" 
d="M315 714l-54 -256h122q114 0 180 -49.5t66 -151.5q0 -133 -80 -195t-242 -62h-264l151 714h121zM239 357l-54 -257h146q89 0 133.5 35.5t44.5 116.5q0 105 -135 105h-135z" />
    <glyph glyph-name="afii10047" unicode="&#x42d;" horiz-adv-x="710" 
d="M581 419v7q0 3 0.5 7t0.5 8q0 88 -45 137.5t-122 49.5q-70 0 -117.5 -30.5t-76.5 -97.5l-112 23q41 106 118.5 157.5t190.5 51.5q71 0 125 -22.5t90 -64t54 -99.5t18 -128q0 -87 -22 -166t-67 -139t-114 -95.5t-163 -35.5q-54 0 -102 14.5t-84.5 44t-60 73t-28.5 102.5
h118q14 -73 58 -101.5t109 -28.5q50 0 88 17.5t65 48t44 72.5t26 91h-315l22 104h302z" />
    <glyph glyph-name="afii10048" unicode="&#x42e;" horiz-adv-x="1055" 
d="M773 732q64 0 115 -21.5t87 -60.5t55.5 -94t19.5 -122q0 -86 -25 -167.5t-73.5 -144.5t-120 -101.5t-165.5 -38.5q-64 0 -115 21.5t-87 60.5t-55 94t-19 122v18t1 18h-160l-67 -316h-121l151 714h121l-62 -295h154q16 64 48 121t78.5 99.5t106.5 67.5t133 25zM765 628
q-62 0 -109.5 -30t-79.5 -79t-48.5 -110t-16.5 -123q0 -91 41.5 -145.5t120.5 -54.5q62 0 109.5 30t79 79t47.5 110t16 124q0 45 -10.5 81.5t-30.5 62.5t-50 40.5t-69 14.5z" />
    <glyph glyph-name="afii10049" unicode="&#x42f;" horiz-adv-x="673" 
d="M564 0h-121l60 282h-92q-29 0 -50 -6t-38 -17.5t-31 -28t-27 -36.5l-126 -194h-142l137 207q28 41 53 67t65 42q-51 23 -79.5 65t-28.5 104q0 113 79 171t233 58h259zM525 383l48 230h-131q-91 0 -133 -29.5t-42 -103.5q0 -42 30.5 -69.5t88.5 -27.5h139z" />
    <glyph glyph-name="afii10065" unicode="&#x430;" horiz-adv-x="550" 
d="M182 -13q-69 0 -110 36.5t-41 105.5q0 58 24 94.5t64 58t92 30.5t108 11l95 4l3 16q2 9 2.5 18.5t0.5 17.5q0 38 -21.5 57t-68.5 19q-53 0 -81.5 -14t-43.5 -57l-103 11q25 82 84 114.5t156 32.5q91 0 139 -40.5t49 -117.5q0 -14 -2 -30t-5 -32l-68 -322h-108l14 68
q-18 -18 -36.5 -33t-39.5 -25.5t-46.5 -16.5t-56.5 -6zM397 251l-77 -4q-50 -3 -84 -10.5t-54 -21t-28.5 -33t-8.5 -44.5q0 -26 18 -44.5t55 -18.5q62 0 109 35t60 95z" />
    <glyph glyph-name="afii10066" unicode="&#x431;" horiz-adv-x="612" 
d="M302 -17q-57 0 -99.5 17.5t-70.5 49.5t-41.5 76.5t-13.5 98.5q0 48 7 97t23 96t40.5 90t59.5 79q46 47 114.5 78t172.5 48l115 18l-6 -96l-91 -15q-44 -8 -78 -16.5t-61 -19t-47.5 -24t-38.5 -30.5q-23 -23 -41 -52.5t-31 -63.5q33 35 79 58t101 23q47 0 83 -16.5
t60.5 -44t37 -64t12.5 -76.5q0 -72 -19.5 -130t-56.5 -98t-90 -61.5t-120 -21.5zM365 403q-26 0 -53.5 -8.5t-52.5 -27.5q-34 -26 -50.5 -66.5t-16.5 -85.5q0 -30 6.5 -55.5t21 -44t36.5 -29.5t53 -11q39 0 69 17t50.5 45.5t31 65.5t10.5 77q0 57 -28 90t-77 33z" />
    <glyph glyph-name="afii10067" unicode="&#x432;" horiz-adv-x="557" 
d="M551 407q0 -52 -24 -86t-78 -51q38 -16 55.5 -46t17.5 -66q0 -73 -51.5 -115.5t-166.5 -42.5h-273l111 526h243q45 0 77 -10.5t51.5 -27.5t28.5 -38.5t9 -42.5zM339 307q19 0 37.5 3.5t32.5 12.5t23 23.5t9 36.5q0 23 -17 38.5t-60 15.5h-130l-28 -130h133zM160 89h133
q63 0 88.5 19t25.5 59q0 27 -19 44t-60 17h-138z" />
    <glyph glyph-name="afii10068" unicode="&#x433;" horiz-adv-x="436" 
d="M500 526l-20 -96h-244l-91 -430h-114l112 526h357z" />
    <glyph glyph-name="afii10069" unicode="&#x434;" horiz-adv-x="599" 
d="M602 526l-90 -431h63l-50 -235h-98l30 140h-382l-29 -140h-98l50 235h53q38 28 74 100t72 187l45 144h360zM284 313q-25 -81 -52.5 -135.5t-53.5 -82.5h221l71 340h-147z" />
    <glyph glyph-name="afii10070" unicode="&#x435;" horiz-adv-x="580" 
d="M344 454q-54 0 -95.5 -31.5t-59.5 -107.5h257q3 15 3 31q0 45 -25.5 76.5t-79.5 31.5zM179 236q-1 -4 -1.5 -13.5t-0.5 -15.5q0 -28 7 -52.5t21.5 -42.5t37.5 -28.5t55 -10.5q53 0 80.5 19.5t40.5 61.5h111q-11 -41 -30 -73t-48 -53.5t-69.5 -32.5t-95.5 -11
q-53 0 -94.5 16.5t-70 46.5t-43.5 71t-15 89q0 81 22 143t60.5 104.5t91.5 64.5t116 22q49 0 87 -15t64 -42t39.5 -63.5t13.5 -79.5q0 -17 -2.5 -40.5t-6.5 -46.5l-3 -18h-367z" />
    <glyph glyph-name="afii10072" unicode="&#x436;" horiz-adv-x="806" 
d="M511 304q31 0 54 17.5t44 48.5l46 70q29 43 64.5 64.5t86.5 21.5q19 0 35 -3.5t21 -5.5l-25 -84l-10 2t-10.5 2t-11.5 1q-26 0 -41.5 -15.5t-32.5 -40.5l-33 -51q-16 -24 -34.5 -38t-39.5 -22q26 -11 40.5 -30.5t22.5 -40.5l81 -200h-116l-60 158q-13 33 -32.5 50
t-54.5 17h-28l-48 -225h-108l49 225h-30q-29 0 -50.5 -13.5t-45.5 -43.5l-136 -168h-127l157 192q29 35 54 53.5t54 26.5q-21 10 -31.5 30t-20.5 47l-12 41q-9 24 -21.5 36t-36.5 12q-6 0 -11 -0.5t-10 -1.5t-9 -1l8 84l15 3q7 2 17 3t22 1q45 0 69.5 -22t39.5 -63l26 -69
q12 -33 28 -50.5t45 -17.5h22l47 222h108l-47 -222h17z" />
    <glyph glyph-name="afii10073" unicode="&#x437;" horiz-adv-x="540" 
d="M334 541q44 0 80.5 -9t63 -26t41 -42t14.5 -57q0 -53 -29 -85.5t-77 -47.5q35 -16 55.5 -45t20.5 -70q0 -45 -16.5 -77.5t-47.5 -54t-75 -32t-99 -10.5q-99 0 -160.5 42.5t-69.5 135.5h108q6 -47 39.5 -66.5t82.5 -19.5q65 0 93.5 20.5t28.5 63.5q0 33 -23.5 50.5
t-66.5 17.5h-101l16 79h107q21 0 39.5 4t32.5 13t22.5 23.5t8.5 35.5q0 32 -25.5 49.5t-69.5 17.5q-60 0 -93 -19t-48 -63l-105 18q26 78 87.5 116t165.5 38z" />
    <glyph glyph-name="afii10074" unicode="&#x438;" horiz-adv-x="573" 
d="M373 0l76 352l-315 -352h-103l113 526h104l-78 -364l321 364h98l-112 -526h-104z" />
    <glyph glyph-name="afii10075" unicode="&#x439;" horiz-adv-x="573" 
d="M373 0l76 352l-315 -352h-103l113 526h104l-78 -364l321 364h98l-112 -526h-104zM311 739q-1 -6 -1 -9.5v-8.5q0 -11 3.5 -21.5t12 -18.5t23.5 -13t38 -5q39 0 64.5 17.5t36.5 58.5h83q-14 -67 -60 -107.5t-132 -40.5q-33 0 -61 7t-48.5 21.5t-32 37t-11.5 53.5
q0 10 1 17t2 12h82z" />
    <glyph glyph-name="afii10076" unicode="&#x43a;" horiz-adv-x="533" 
d="M209 304h32q25 0 46.5 14t46.5 52l45 69q16 25 31 41.5t32.5 26.5t37.5 14.5t47 4.5q16 0 33 -3t28 -7l-25 -83l-10 2t-11 2t-12 1q-25 0 -38 -12t-29 -35l-35 -53q-17 -26 -34.5 -41t-41.5 -26q27 -11 41 -31.5t23 -43.5l77 -196h-116l-63 168q-11 29 -28 43t-56 14h-38
l-48 -225h-113l112 526h113z" />
    <glyph glyph-name="afii10077" unicode="&#x43b;" horiz-adv-x="584" 
d="M466 431h-150l-51 -159q-24 -74 -48.5 -126.5t-54.5 -86t-68 -49t-88 -15.5h-34l19 94h10q26 0 47 10t39.5 33.5t35.5 63t36 98.5l75 232h366l-111 -526h-114z" />
    <glyph glyph-name="afii10078" unicode="&#x43c;" horiz-adv-x="714" 
d="M142 526h127l81 -405l260 405h120l-111 -526h-106l74 344l-223 -344h-79l-74 360l-76 -360h-104z" />
    <glyph glyph-name="afii10079" unicode="&#x43d;" horiz-adv-x="594" 
d="M256 526l-43 -206h240l43 206h114l-111 -526h-114l48 225h-241l-47 -225h-114l111 526h114z" />
    <glyph glyph-name="afii10080" unicode="&#x43e;" horiz-adv-x="609" 
d="M368 541q51 0 91.5 -17t69.5 -46.5t44.5 -70t15.5 -87.5q0 -80 -22.5 -142.5t-63 -105.5t-96 -65.5t-121.5 -22.5q-50 0 -91 17t-70 47t-45 70.5t-16 87.5q0 78 23.5 140.5t64.5 105.5t96.5 66t119.5 23zM360 449q-38 0 -70.5 -16.5t-56.5 -47.5t-37.5 -76t-13.5 -101
q0 -62 29 -97t83 -35q38 0 70.5 16.5t56 47.5t37 75.5t13.5 101.5q0 61 -28.5 96.5t-82.5 35.5z" />
    <glyph glyph-name="afii10081" unicode="&#x43f;" horiz-adv-x="582" 
d="M598 526l-111 -526h-114l91 430h-228l-91 -430h-114l111 526h456z" />
    <glyph glyph-name="afii10082" unicode="&#x440;" horiz-adv-x="609" 
d="M238 457q31 39 74 62t97 23q48 0 82.5 -18t57 -48.5t33 -72t10.5 -88.5q0 -68 -19.5 -128t-54.5 -105t-83 -71.5t-106 -26.5q-57 0 -98 21.5t-70 68.5l-57 -268h-114l151 720h111zM195 253q-4 -18 -5 -30.5t-1 -25.5q0 -54 30 -87t90 -33q39 0 69.5 19.5t51.5 52.5
t32 76.5t11 90.5q0 65 -28 98.5t-73 33.5q-31 0 -59 -11.5t-50 -32.5t-37.5 -49t-21.5 -61z" />
    <glyph glyph-name="afii10083" unicode="&#x441;" horiz-adv-x="564" 
d="M444 343q-2 23 -8 42.5t-17 34t-29.5 22.5t-45.5 8q-35 0 -64.5 -16t-51 -47t-34 -76t-12.5 -103q0 -59 27 -95.5t86 -36.5q54 0 84.5 27.5t42.5 76.5h115q-20 -94 -81 -145t-173 -51q-52 0 -92.5 16.5t-68.5 46t-43 70.5t-15 90q0 81 23 143.5t62.5 105t93 64.5
t114.5 22q50 0 86.5 -14t60.5 -38.5t37.5 -58t16.5 -72.5z" />
    <glyph glyph-name="afii10084" unicode="&#x442;" horiz-adv-x="497" 
d="M250 431h-176l21 95h463l-20 -95h-174l-91 -431h-114z" />
    <glyph glyph-name="afii10085" unicode="&#x443;" horiz-adv-x="545" 
d="M81 526h126l67 -381l209 381h130l-336 -558q-24 -40 -44.5 -70.5t-43 -50.5t-49.5 -30.5t-64 -10.5q-25 0 -45.5 4.5t-40.5 12.5l30 86q11 -4 25 -7.5t30 -3.5q30 0 48.5 16.5t41.5 55.5l30 51z" />
    <glyph glyph-name="afii10086" unicode="&#x444;" horiz-adv-x="745" 
d="M285 1q-55 6 -97.5 25t-72 48t-44.5 66t-15 79q0 70 25.5 123.5t70.5 91t107 58.5t136 26l38 183h111l-40 -185q54 -5 96.5 -25t72 -50t45 -68.5t15.5 -80.5q0 -66 -25 -118.5t-70 -89.5t-107 -58.5t-136 -25.5l-38 -178h-110zM375 424q-97 -7 -151 -58t-54 -138
q0 -54 34 -91.5t101 -42.5zM415 93q94 8 148.5 57t54.5 143q0 55 -34 90.5t-100 40.5z" />
    <glyph glyph-name="afii10087" unicode="&#x445;" horiz-adv-x="528" 
d="M483 0h-125l-87 194l-162 -194h-132l247 279l-120 247h127l74 -172l146 172h127l-223 -254z" />
    <glyph glyph-name="afii10088" unicode="&#x446;" horiz-adv-x="581" 
d="M31 0l111 526h114l-91 -431h214l91 431h113l-90 -431h63l-50 -235h-98l30 140h-407z" />
    <glyph glyph-name="afii10089" unicode="&#x447;" horiz-adv-x="542" 
d="M376 203q-25 -6 -56 -10.5t-57 -4.5q-84 0 -131 38.5t-47 110.5q0 24 6 53l29 136h113l-27 -129q-5 -23 -5 -43q0 -38 22 -56t76 -18q28 0 52.5 5t44.5 11l49 230h113l-112 -526h-113z" />
    <glyph glyph-name="afii10090" unicode="&#x448;" horiz-adv-x="822" 
d="M726 0h-695l111 526h114l-91 -431h177l91 431h114l-91 -431h177l91 431h114z" />
    <glyph glyph-name="afii10091" unicode="&#x449;" horiz-adv-x="834" 
d="M745 95h63l-50 -235h-99l31 140h-659l111 526h114l-91 -431h176l91 431h114l-91 -431h176l91 431h114z" />
    <glyph glyph-name="afii10092" unicode="&#x44a;" horiz-adv-x="594" 
d="M304 526l-38 -181h110q94 0 142 -42t48 -112q0 -93 -59.5 -142t-180.5 -49h-248l92 431h-115l20 95h229zM212 93h126q57 0 84 23.5t27 71.5q0 29 -18.5 47t-60.5 18h-124z" />
    <glyph glyph-name="afii10093" unicode="&#x44b;" horiz-adv-x="756" 
d="M256 526l-38 -181h103q94 0 142 -42t48 -112q0 -93 -59.5 -142t-180.5 -49h-240l111 526h114zM164 93h119q57 0 84 23.5t27 71.5q0 29 -18.5 47t-60.5 18h-117zM546 0l112 526h114l-112 -526h-114z" />
    <glyph glyph-name="afii10094" unicode="&#x44c;" horiz-adv-x="552" 
d="M256 526l-38 -181h116q94 0 142 -42t48 -112q0 -93 -59.5 -142t-180.5 -49h-253l111 526h114zM164 93h132q57 0 84 23.5t27 71.5q0 29 -18.5 47t-60.5 18h-130z" />
    <glyph glyph-name="afii10095" unicode="&#x44d;" horiz-adv-x="570" 
d="M227 306h206q1 5 1.5 13.5t0.5 16.5q0 50 -28.5 82.5t-82.5 32.5q-51 0 -81 -21t-49 -65l-101 19q13 36 34 65t50.5 49.5t68.5 31.5t89 11q49 0 89 -17.5t68.5 -47.5t43.5 -71t15 -89q0 -62 -17.5 -121.5t-53.5 -106t-92 -75.5t-132 -29q-44 0 -82 12t-66.5 35t-45 56.5
t-18.5 75.5h107q8 -42 36 -65.5t77 -23.5q34 0 60.5 11t46 31t32.5 47.5t19 60.5h-212z" />
    <glyph glyph-name="afii10096" unicode="&#x44e;" horiz-adv-x="825" 
d="M256 526l-46 -216h102q13 55 40.5 98t64.5 72.5t82.5 45t95.5 15.5q47 0 86 -17t67 -46.5t43.5 -70t15.5 -87.5q0 -80 -22.5 -142.5t-62 -105.5t-93 -65.5t-116.5 -22.5q-47 0 -86 17t-67.5 47t-44 70.5t-15.5 87.5v19h-108l-47 -225h-114l111 526h114zM587 449
q-35 0 -65.5 -16.5t-53.5 -47.5t-36.5 -76t-13.5 -101q0 -62 28 -97t75 -35q34 0 65 16.5t53.5 47.5t36 75.5t13.5 101.5q0 61 -27.5 96.5t-74.5 35.5z" />
    <glyph glyph-name="afii10097" unicode="&#x44f;" horiz-adv-x="557" 
d="M-12 0l125 169q19 25 37 38t34 18q-41 17 -62.5 51t-21.5 76q0 48 17.5 81t50 53.5t77 30t98.5 9.5h230l-112 -526h-115l43 197h-68q-34 0 -55 -12t-39 -37l-107 -148h-132zM409 290l30 144h-114q-50 0 -80 -17t-30 -66q0 -27 19.5 -44t54.5 -17h120z" />
    <glyph glyph-name="uni0450" unicode="&#x450;" horiz-adv-x="580" 
d="M344 454q-54 0 -95.5 -31.5t-59.5 -107.5h257q3 15 3 31q0 45 -25.5 76.5t-79.5 31.5zM179 236q-1 -4 -1.5 -13.5t-0.5 -15.5q0 -28 7 -52.5t21.5 -42.5t37.5 -28.5t55 -10.5q53 0 80.5 19.5t40.5 61.5h111q-11 -41 -30 -73t-48 -53.5t-69.5 -32.5t-95.5 -11
q-53 0 -94.5 16.5t-70 46.5t-43.5 71t-15 89q0 81 22 143t60.5 104.5t91.5 64.5t116 22q49 0 87 -15t64 -42t39.5 -63.5t13.5 -79.5q0 -17 -2.5 -40.5t-6.5 -46.5l-3 -18h-367zM358 593l-113 148h126l88 -148h-101z" />
    <glyph glyph-name="afii10071" unicode="&#x451;" horiz-adv-x="580" 
d="M344 454q-54 0 -95.5 -31.5t-59.5 -107.5h257q3 15 3 31q0 45 -25.5 76.5t-79.5 31.5zM179 236q-1 -4 -1.5 -13.5t-0.5 -15.5q0 -28 7 -52.5t21.5 -42.5t37.5 -28.5t55 -10.5q53 0 80.5 19.5t40.5 61.5h111q-11 -41 -30 -73t-48 -53.5t-69.5 -32.5t-95.5 -11
q-53 0 -94.5 16.5t-70 46.5t-43.5 71t-15 89q0 81 22 143t60.5 104.5t91.5 64.5t116 22q49 0 87 -15t64 -42t39.5 -63.5t13.5 -79.5q0 -17 -2.5 -40.5t-6.5 -46.5l-3 -18h-367zM218 612l23 112h109l-23 -112h-109zM406 612l24 112h109l-23 -112h-110z" />
    <glyph glyph-name="afii10099" unicode="&#x452;" horiz-adv-x="611" 
d="M111 647h91l15 67h113l-14 -67h189l-19 -84h-188l-32 -150q38 44 82.5 66t90.5 22q75 0 113.5 -41t38.5 -113q0 -20 -6.5 -49t-13.5 -64q-11 -52 -23 -111.5t-28 -129.5q-7 -32 -19 -63.5t-33 -57t-54 -41.5t-82 -16q-29 0 -54 6t-43 14l34 86q31 -13 60 -13
q34 0 50.5 19t24.5 56l63 292q2 11 4 27.5t2 23.5q0 38 -17.5 58.5t-58.5 20.5q-23 0 -48.5 -9t-48.5 -26t-40 -41t-23 -53l-58 -276h-114l119 563h-92z" />
    <glyph glyph-name="afii10100" unicode="&#x453;" horiz-adv-x="436" 
d="M500 526l-20 -96h-244l-91 -430h-114l112 526h357zM236 593l146 148h138l-171 -148h-113z" />
    <glyph glyph-name="afii10101" unicode="&#x454;" horiz-adv-x="570" 
d="M394 225h-217v-14q0 -26 7 -50.5t21.5 -43.5t37 -30t53.5 -11q59 0 87.5 23.5t43.5 62.5h109q-29 -95 -90.5 -136.5t-161.5 -41.5q-56 0 -97 17.5t-68.5 48.5t-41 72.5t-13.5 88.5q0 85 25 147t65.5 103t92.5 61t106 20q48 0 83 -11.5t59.5 -32.5t39.5 -50.5t22 -64.5
l-109 -17q-8 37 -29.5 60.5t-73.5 23.5q-59 0 -99.5 -39t-54.5 -103h220z" />
    <glyph glyph-name="afii10102" unicode="&#x455;" horiz-adv-x="530" 
d="M482 154q0 -48 -18.5 -80.5t-50.5 -52.5t-74 -28.5t-89 -8.5q-41 0 -80 8.5t-69.5 29t-49 53.5t-19.5 82h109q3 -49 35.5 -66.5t82.5 -17.5q56 0 82 19.5t26 54.5q0 28 -14.5 44t-53.5 24l-57 12q-82 18 -115 54t-33 91q0 43 17 75t47 53t70.5 31.5t87.5 10.5q42 0 78 -9
t63 -27.5t43.5 -48t20.5 -70.5l-104 -14q-6 38 -28.5 60t-76.5 22q-33 0 -54 -6.5t-33 -17t-16.5 -23t-4.5 -25.5q0 -26 17 -41t60 -24l57 -12q80 -17 112 -55t32 -97z" />
    <glyph glyph-name="afii10103" unicode="&#x456;" horiz-adv-x="246" 
d="M33 0l111 526h114l-111 -526h-114zM156 607l24 113h119l-24 -113h-119z" />
    <glyph glyph-name="afii10104" unicode="&#x457;" horiz-adv-x="246" 
d="M33 0l111 526h114l-111 -526h-114zM58 612l23 112h109l-23 -112h-109zM246 612l24 112h109l-23 -112h-110z" />
    <glyph glyph-name="afii10105" unicode="&#x458;" horiz-adv-x="246" 
d="M155 601l24 113h119l-24 -113h-119zM144 526h114l-117 -547q-9 -42 -22.5 -73t-33.5 -51.5t-49 -30.5t-69 -10q-33 0 -59.5 6t-48.5 15l34 86q12 -5 27.5 -9t35.5 -4q31 0 47.5 17.5t25.5 59.5z" />
    <glyph glyph-name="afii10106" unicode="&#x459;" horiz-adv-x="855" 
d="M575 526l-38 -181h100q94 0 142 -42t48 -112q0 -93 -59.5 -142t-180.5 -49h-237l91 431h-125l-51 -159q-24 -74 -48.5 -126.5t-54.5 -86t-68 -49t-88 -15.5h-34l19 94h10q26 0 47 10t39.5 33.5t35.5 63t36 98.5q19 58 37 116t38 116h341zM483 93h116q57 0 84 23.5
t27 71.5q0 29 -18.5 47t-60.5 18h-114z" />
    <glyph glyph-name="afii10107" unicode="&#x45a;" horiz-adv-x="861" 
d="M256 526l-41 -194h213l41 194h114l-41 -194h101q94 0 142 -41t48 -107q0 -88 -59.5 -136t-180.5 -48h-235l50 239h-213l-50 -239h-114l111 526h114zM491 93h114q57 0 84 22.5t27 65.5q0 24 -18.5 41.5t-60.5 17.5h-115z" />
    <glyph glyph-name="afii10108" unicode="&#x45b;" horiz-adv-x="611" 
d="M113 647h89l14 67h114l-14 -67h198l-19 -84h-197l-31 -150q41 48 85 68t90 20q75 0 113.5 -39t38.5 -110q0 -31 -7 -60l-62 -292h-114l61 280q2 12 3.5 23.5t1.5 22.5q0 79 -76 79q-54 0 -102 -37q-23 -18 -39 -40.5t-22 -51.5l-59 -276h-114l119 563h-90z" />
    <glyph glyph-name="afii10109" unicode="&#x45c;" horiz-adv-x="533" 
d="M209 304h32q25 0 46.5 14t46.5 52l45 69q16 25 31 41.5t32.5 26.5t37.5 14.5t47 4.5q16 0 33 -3t28 -7l-25 -83l-10 2t-11 2t-12 1q-25 0 -38 -12t-29 -35l-35 -53q-17 -26 -34.5 -41t-41.5 -26q27 -11 41 -31.5t23 -43.5l77 -196h-116l-63 168q-11 29 -28 43t-56 14h-38
l-48 -225h-113l112 526h113zM291 593l146 148h138l-171 -148h-113z" />
    <glyph glyph-name="uni045D" unicode="&#x45d;" horiz-adv-x="573" 
d="M373 0l76 352l-315 -352h-103l113 526h104l-78 -364l321 364h98l-112 -526h-104zM351 593l-113 148h126l88 -148h-101z" />
    <glyph glyph-name="afii10110" unicode="&#x45e;" horiz-adv-x="545" 
d="M81 526h126l67 -381l209 381h130l-336 -558q-24 -40 -44.5 -70.5t-43 -50.5t-49.5 -30.5t-64 -10.5q-25 0 -45.5 4.5t-40.5 12.5l30 86q11 -4 25 -7.5t30 -3.5q30 0 48.5 16.5t41.5 55.5l30 51zM281 739q-1 -6 -1 -9.5v-8.5q0 -11 3.5 -21.5t12 -18.5t23.5 -13t38 -5
q39 0 64.5 17.5t36.5 58.5h83q-14 -67 -60 -107.5t-132 -40.5q-33 0 -61 7t-48.5 21.5t-32 37t-11.5 53.5q0 10 1 17t2 12h82z" />
    <glyph glyph-name="afii10193" unicode="&#x45f;" horiz-adv-x="582" 
d="M308 0l-29 -140h-99l30 140h-179l111 526h114l-91 -431h228l91 431h114l-111 -526h-179z" />
    <glyph glyph-name="uni0462" unicode="&#x462;" horiz-adv-x="749" 
d="M159 0l118 564h-171l21 98h171l17 80h120l-17 -80h225l-21 -98h-224l-23 -106h117q119 0 183 -49t64 -152q0 -128 -78.5 -192.5t-241.5 -64.5h-260zM354 357l-54 -257h140q90 0 134.5 35.5t44.5 116.5q0 52 -32 78.5t-103 26.5h-130z" />
    <glyph glyph-name="uni0463" unicode="&#x463;" horiz-adv-x="610" 
d="M357 732l-44 -208h205l-18 -85h-205l-19 -94h116q94 0 142 -42t48 -112q0 -93 -59.5 -142t-180.5 -49h-253l92 439h-117l18 85h117l44 208h114zM222 93h132q57 0 84 23.5t27 71.5q0 29 -18.5 47t-60.5 18h-130z" />
    <glyph glyph-name="uni0472" unicode="&#x472;" horiz-adv-x="772" 
d="M482 732q66 0 119 -21.5t89.5 -60.5t56.5 -94t20 -122q0 -86 -25 -167.5t-74.5 -144.5t-123 -101.5t-169.5 -38.5q-66 0 -119.5 21.5t-91 60.5t-57.5 94t-20 122q0 85 26 166.5t76.5 145t124 102t168.5 38.5zM382 86q47 0 86 17t69 46t51.5 67t34.5 81q-29 -14 -54.5 -18
t-45.5 -4q-35 0 -61 12t-50.5 27t-49.5 27t-58 12q-20 0 -43 -5.5t-46 -16.5q-2 -11 -2 -22v-22q0 -45 11 -82t32 -63.5t52.5 -41t73.5 -14.5zM473 628q-46 0 -84 -16.5t-68 -44t-51.5 -64.5t-34.5 -79q25 13 50.5 18.5t48.5 5.5q34 0 60.5 -12.5t51 -27t50 -27t58.5 -12.5
q41 0 86 20q2 10 2 19.5v19.5q0 44 -10.5 80.5t-32 63t-53 41.5t-73.5 15z" />
    <glyph glyph-name="uni0473" unicode="&#x473;" horiz-adv-x="609" 
d="M361 453q-59 0 -103 -36.5t-64 -105.5q17 8 33.5 11t30.5 3q26 -1 44.5 -8.5t35 -16t33 -15.5t39.5 -7q15 0 30 2t32 10q1 8 1.5 15t0.5 14q0 62 -29 98t-84 36zM179 207q0 -63 29 -99t84 -36q59 0 101.5 35.5t64.5 106.5q-17 -7 -31.5 -9.5t-30.5 -2.5q-21 0 -39 7.5
t-36.5 16.5t-37.5 16.5t-41 7.5q-16 0 -31 -2.5t-31 -10.5q-1 -8 -1 -15v-15zM368 541q50 0 91 -17t70 -46.5t44.5 -70t15.5 -86.5q0 -80 -22.5 -142.5t-63 -105.5t-96 -66t-121.5 -23q-50 0 -91 17t-70 47t-45 70.5t-16 87.5q0 78 23.5 140t64 105.5t96 66.5t120.5 23z" />
    <glyph glyph-name="uni0474" unicode="&#x474;" horiz-adv-x="776" 
d="M573 589q17 31 35.5 57t42 44.5t53.5 28.5t71 10q35 0 66 -10t57 -28l-46 -92q-14 10 -31.5 16.5t-36.5 6.5q-41 0 -62.5 -23t-43.5 -62l-311 -537h-118l-120 714h128l82 -550z" />
    <glyph glyph-name="uni0475" unicode="&#x475;" horiz-adv-x="615" 
d="M206 526l54 -398l151 269q23 40 42 67.5t39.5 44t43.5 23.5t55 7q36 0 62.5 -14t39.5 -26l-47 -78q-8 8 -20 14t-30 6q-27 0 -45 -19.5t-44 -64.5l-214 -357h-119l-93 526h125z" />
    <glyph glyph-name="uni048A" unicode="&#x48a;" horiz-adv-x="731" 
d="M472 0l110 512l-428 -512h-111l150 714h120l-110 -514l427 514h113l-130 -609h79q-5 -54 -21.5 -98t-41 -79.5t-55.5 -63.5t-67 -52l-66 75q34 24 64.5 52.5t47.5 60.5h-81zM416 921q-1 -6 -1 -9.5v-8.5q0 -11 3.5 -21.5t12 -18.5t23.5 -13t38 -5q39 0 64.5 17.5
t36.5 58.5h83q-14 -67 -60 -107.5t-132 -40.5q-33 0 -61 7t-48.5 21.5t-32 37t-11.5 53.5q0 10 1 17t2 12h82z" />
    <glyph glyph-name="uni048B" unicode="&#x48b;" horiz-adv-x="584" 
d="M373 0l76 352l-315 -352h-103l113 526h104l-78 -364l321 364h98l-92 -431h61q-4 -40 -12.5 -73.5t-25 -63.5t-42.5 -57t-65 -53l-60 63q24 19 47.5 41.5t35.5 47.5h-63zM311 738q-1 -6 -1 -9.5v-8.5q0 -11 3.5 -21.5t12 -18.5t23.5 -13t38 -5q39 0 64.5 17.5t36.5 58.5
h83q-14 -67 -60 -107.5t-132 -40.5q-33 0 -61 7t-48.5 21.5t-32 37t-11.5 53.5q0 10 1 17t2 12h82z" />
    <glyph glyph-name="uni048C" unicode="&#x48c;" horiz-adv-x="659" 
d="M309 541l-18 -86h111q119 0 183 -47.5t64 -150.5q0 -128 -78.5 -192.5t-241.5 -64.5h-254l113 541h-97l19 98h99l16 75h120l-16 -75h160l-21 -98h-159zM270 354l-54 -254h134q90 0 134.5 35.5t44.5 116.5q0 52 -32 77t-103 25h-124z" />
    <glyph glyph-name="uni048D" unicode="&#x48d;" horiz-adv-x="593" 
d="M270 401l-12 -60h119q94 0 142 -41t48 -111q0 -93 -59.5 -141t-180.5 -48h-255l84 401h-100l17 85h101l12 57h114l-12 -57h179l-18 -85h-179zM205 93h134q57 0 84 22.5t27 70.5q0 29 -18.5 46t-60.5 17h-133z" />
    <glyph glyph-name="uni048E" unicode="&#x48e;" horiz-adv-x="654" 
d="M688 524q0 -97 -44.5 -155t-125.5 -83l36 -82l-79 -39l-44 104q-30 -3 -61 -3h-152l-56 -266h-119l151 714h259q65 0 110 -17.5t72.5 -45t40 -61.5t12.5 -66zM329 367h29t30 1l-36 88l77 40l49 -116q40 14 63 46t23 91q0 20 -7 38t-22.5 31t-40.5 20.5t-62 7.5h-141
l-52 -247h90z" />
    <glyph glyph-name="uni048F" unicode="&#x48f;" horiz-adv-x="609" 
d="M238 457q31 39 74 62t97 23q48 0 82.5 -18t57 -48.5t33 -72t10.5 -88.5q0 -50 -10.5 -95.5t-30 -84.5t-46.5 -69.5t-61 -50.5l39 -92l-73 -35l-43 99q-20 -3 -38 -3q-57 0 -98 21.5t-70 68.5l-57 -268h-114l151 720h111zM195 253q-4 -18 -5 -30.5t-1 -25.5q0 -54 30 -87
t90 -33h9t9 1l-47 110l74 37l47 -111q35 33 53.5 86.5t18.5 115.5q0 65 -28 98.5t-73 33.5q-31 0 -59 -11.5t-50 -32.5t-37.5 -49t-21.5 -61z" />
    <glyph glyph-name="afii10050" unicode="&#x490;" horiz-adv-x="530" 
d="M193 714h336l21 99h107l-44 -204h-322l-128 -609h-120z" />
    <glyph glyph-name="afii10098" unicode="&#x491;" horiz-adv-x="436" 
d="M402 526l18 80h98l-38 -176h-244l-91 -430h-114l112 526h259z" />
    <glyph glyph-name="uni0492" unicode="&#x492;" horiz-adv-x="556" 
d="M130 311h-93l20 99h94l64 304h443l-23 -105h-322l-42 -199h196l-20 -99h-197l-65 -311h-120z" />
    <glyph glyph-name="uni0493" unicode="&#x493;" horiz-adv-x="450" 
d="M514 526l-20 -96h-244l-29 -137h153l-17 -86h-154l-44 -207h-114l44 207h-71l17 86h73l49 233h357z" />
    <glyph glyph-name="uni0494" unicode="&#x494;" horiz-adv-x="660" 
d="M252 419q31 10 65 16.5t76 6.5q54 0 98 -16t74.5 -46.5t47.5 -76t17 -104.5q0 -80 -24.5 -146.5t-72 -113.5t-118 -73t-163.5 -26h-42l22 103h34q51 0 94.5 14.5t76 44.5t50.5 77.5t18 113.5q0 70 -35.5 110t-108.5 40q-35 0 -66.5 -6t-63.5 -17l-68 -320h-120l151 714
h445l-22 -105h-324z" />
    <glyph glyph-name="uni0495" unicode="&#x495;" horiz-adv-x="553" 
d="M31 0l112 526h381l-20 -96h-268l-29 -139q25 8 50.5 12t54.5 4q51 0 88 -15.5t62 -43t37 -66t12 -83.5q0 -143 -85.5 -222t-246.5 -79h-31l19 92h29q93 0 145.5 51.5t52.5 157.5q0 57 -27.5 86t-87.5 29q-28 0 -50 -4.5t-42 -11.5l-42 -198h-114z" />
    <glyph glyph-name="uni0496" unicode="&#x496;" horiz-adv-x="1040" 
d="M1009 105l-58 -278h-107l36 173h-27l-102 244q-15 36 -34.5 53.5t-61.5 17.5h-39l-67 -315h-120l67 315h-41q-18 0 -32.5 -4.5t-29 -15t-30 -28t-36.5 -42.5l-189 -225h-150l248 292q31 36 57 55t55 27q-27 13 -44 37.5t-28 61.5l-22 77q-10 33 -26 49.5t-51 16.5
q-12 0 -22.5 -1t-15.5 -2l16 93q16 4 31 6t34 2q52 0 81 -24.5t46 -77.5l24 -77q9 -29 19.5 -51.5t24 -38t31.5 -23.5t43 -8h28l63 300h120l-64 -300h25q21 0 40.5 6t38.5 20.5t38.5 37.5t42.5 58l50 75q39 59 82 81t99 22q17 0 34.5 -2t32.5 -7l-28 -97l-10 2t-11.5 1.5
t-13.5 0.5q-17 0 -30 -3t-24.5 -11.5t-24 -23t-27.5 -38.5l-46 -71q-26 -39 -51.5 -61t-58.5 -34q24 -11 42 -37.5t33 -61.5l73 -166h67z" />
    <glyph glyph-name="uni0497" unicode="&#x497;" horiz-adv-x="807" 
d="M511 304q31 0 54 17.5t44 48.5l46 70q29 43 64.5 64.5t86.5 21.5q19 0 35 -3.5t21 -5.5l-25 -84l-10 2t-10.5 2t-11.5 1q-26 0 -41.5 -15.5t-32.5 -40.5l-33 -51q-16 -24 -34.5 -38t-39.5 -22q26 -11 40.5 -30.5t22.5 -40.5l42 -105h62l-50 -235h-98l30 140h-21l-60 158
q-13 33 -32.5 50t-54.5 17h-28l-48 -225h-108l49 225h-30q-29 0 -50.5 -13.5t-45.5 -43.5l-136 -168h-127l157 192q29 35 54 53.5t54 26.5q-21 10 -31.5 30t-20.5 47l-12 41q-9 24 -21.5 36t-36.5 12q-6 0 -11 -0.5t-10 -1.5t-9 -1l8 84l15 3q7 2 17 3t22 1q45 0 69.5 -22
t39.5 -63l26 -69q12 -33 28 -50.5t45 -17.5h22l47 222h108l-47 -222h17z" />
    <glyph glyph-name="uni0498" unicode="&#x498;" horiz-adv-x="632" 
d="M278 -16q-106 8 -162 63t-60 159h113q4 -37 15 -61t29 -38.5t45 -20.5t65 -6q71 0 113 32t42 109q0 99 -140 99h-78l21 98h82q37 0 68.5 7t54 22t35 39t12.5 59q0 42 -33.5 65.5t-86.5 23.5q-38 0 -66.5 -5.5t-49.5 -18t-36 -33t-26 -50.5l-110 15q15 46 39 81.5
t59.5 59.5t84 36.5t112.5 12.5q50 0 92 -12.5t72 -35.5t47 -56t17 -74q0 -38 -10.5 -67.5t-29 -51.5t-44.5 -38t-56 -26q44 -24 66.5 -62.5t22.5 -84.5q0 -55 -18 -98.5t-51 -74t-79 -48t-103 -20.5l-18 -36q48 -8 66 -28.5t18 -45.5q0 -54 -38 -75t-110 -21q-27 0 -67 8
l10 64q21 -3 35 -4.5t28 -1.5q29 0 42.5 7.5t13.5 25.5q0 13 -13.5 20t-47.5 7h-28z" />
    <glyph glyph-name="uni0499" unicode="&#x499;" horiz-adv-x="540" 
d="M224 -13q-82 8 -131.5 50t-57.5 126h108q6 -47 39.5 -66.5t82.5 -19.5q65 0 93.5 20.5t28.5 63.5q0 33 -23.5 50.5t-66.5 17.5h-101l16 79h107q21 0 39.5 4t32.5 13t22.5 23.5t8.5 35.5q0 32 -25.5 49.5t-69.5 17.5q-60 0 -93 -19t-48 -63l-105 18q26 78 87.5 116
t165.5 38q44 0 80.5 -9t63 -26t41 -42t14.5 -57q0 -53 -29 -85.5t-77 -47.5q35 -16 55.5 -45t20.5 -70q0 -84 -57.5 -126.5t-155.5 -46.5l-18 -36q24 -3 39.5 -10.5t25.5 -17t14 -21t4 -22.5q0 -29 -11 -47t-30 -28t-45.5 -14t-57.5 -4q-14 0 -30.5 1.5t-35.5 5.5l10 65
q20 -4 34 -5t27 -1q28 0 41 6t13 23q0 14 -13.5 20.5t-45.5 6.5h-27z" />
    <glyph glyph-name="uni049A" unicode="&#x49a;" horiz-adv-x="676" 
d="M252 415h32q49 0 85 30.5t71 77.5l51 69q23 30 44.5 53t44.5 38.5t48.5 23t57.5 7.5q20 0 37.5 -2.5t28.5 -6.5l-29 -98q-18 5 -38 5q-33 0 -54.5 -18.5t-47.5 -53.5l-58 -79q-23 -31 -50 -54t-65 -37q34 -14 52.5 -42t40.5 -75l68 -148h77l-59 -278h-107l37 173h-27
l-106 235q-19 42 -42.5 61t-65.5 19h-47l-67 -315h-121l151 714h121z" />
    <glyph glyph-name="uni049B" unicode="&#x49b;" horiz-adv-x="538" 
d="M209 304h32q25 0 46.5 14t46.5 52l45 69q16 25 31 41.5t32.5 26.5t37.5 14.5t47 4.5q16 0 33 -3t28 -7l-25 -83l-10 2t-11 2t-12 1q-25 0 -38 -12t-29 -35l-35 -53q-17 -26 -34.5 -41t-41.5 -26q27 -11 41 -31.5t23 -43.5l39 -101h60l-50 -235h-98l30 140h-20l-63 168
q-11 29 -28 43t-56 14h-38l-48 -225h-113l112 526h113z" />
    <glyph glyph-name="uni049C" unicode="&#x49c;" horiz-adv-x="693" 
d="M252 415h53l29 133h81l-24 -109q22 14 41.5 35.5t39.5 48.5l51 69q23 30 44.5 53t44.5 38.5t48.5 23t57.5 7.5q20 0 37.5 -2.5t28.5 -6.5l-29 -98q-18 5 -38 5q-33 0 -54.5 -18.5t-47.5 -53.5l-58 -79q-23 -31 -50 -54t-65 -37q34 -14 52.5 -42t40.5 -75l117 -253h-128
l-106 235q-12 26 -24.5 43t-30.5 26l-25 -116h-81l27 127h-53l-67 -315h-121l151 714h121z" />
    <glyph glyph-name="uni049D" unicode="&#x49d;" horiz-adv-x="566" 
d="M209 304h38l24 109h68l-21 -97q12 7 23.5 20.5t25.5 33.5l45 69q16 25 31 41.5t32.5 26.5t37.5 14.5t47 4.5q16 0 33 -3t28 -7l-25 -83l-10 2t-11 2t-12 1q-25 0 -38 -12t-29 -35l-35 -53q-17 -26 -34.5 -41t-41.5 -26q27 -11 41 -31.5t23 -43.5l77 -196h-116l-63 168
q-8 21 -18.5 34.5t-31.5 18.5l-20 -101h-68l21 105h-38l-48 -225h-113l112 526h113z" />
    <glyph glyph-name="uni049E" unicode="&#x49e;" horiz-adv-x="684" 
d="M316 618h101l-20 -97h-102l-22 -106h32q50 0 86.5 30.5t71.5 77.5l51 69q23 30 44.5 53t44.5 38.5t48.5 23t57.5 7.5q20 0 37.5 -2.5t28.5 -6.5l-29 -98q-18 5 -38 5q-33 0 -54.5 -18.5t-47.5 -53.5l-58 -79q-23 -31 -50 -54t-65 -37q34 -14 52.5 -42t40.5 -75l117 -253
h-128l-106 235q-19 42 -42.5 61t-67.5 19h-47l-67 -315h-121l110 521h-83l21 97h82l21 96h121z" />
    <glyph glyph-name="uni049F" unicode="&#x49f;" horiz-adv-x="564" 
d="M267 461h80l-17 -84h-81l-15 -73h38q25 0 46.5 14t46.5 52l45 69q16 25 31 41.5t32.5 26.5t37.5 14.5t47 4.5q16 0 33 -3t28 -7l-25 -83l-10 2t-11 2t-12 1q-25 0 -38 -12t-29 -35l-35 -53q-17 -26 -34.5 -41t-41.5 -26q27 -11 41 -31.5t23 -43.5l77 -196h-116l-63 168
q-11 29 -28 43t-56 14h-44l-48 -225h-113l80 377h-75l17 84h76l14 65h113z" />
    <glyph glyph-name="uni04A0" unicode="&#x4a0;" horiz-adv-x="755" 
d="M346 415h32q49 0 85 30.5t71 77.5l51 69q23 30 44.5 53t44.5 38.5t48.5 23t57.5 7.5q20 0 37.5 -2.5t28.5 -6.5l-29 -98q-18 5 -38 5q-33 0 -54.5 -18.5t-47.5 -53.5l-58 -79q-23 -31 -50 -54t-65 -37q34 -14 52.5 -42t40.5 -75l117 -253h-128l-106 235q-19 42 -42.5 61
t-65.5 19h-47l-67 -315h-121l129 609h-152l23 105h272z" />
    <glyph glyph-name="uni04A1" unicode="&#x4a1;" horiz-adv-x="586" 
d="M262 304h32q25 0 46.5 14t46.5 52l45 69q16 25 31 41.5t32.5 26.5t37.5 14.5t47 4.5q16 0 33 -3t28 -7l-25 -83l-10 2t-11 2t-12 1q-25 0 -38 -12t-29 -35l-35 -53q-17 -26 -34.5 -41t-41.5 -26q27 -11 41 -31.5t23 -43.5l77 -196h-116l-63 168q-11 29 -28 43t-56 14h-38
l-48 -225h-113l92 431h-113l20 95h226z" />
    <glyph glyph-name="uni04A2" unicode="&#x4a2;" horiz-adv-x="736" 
d="M704 105l-58 -278h-107l36 173h-90l66 313h-321l-66 -313h-121l151 714h121l-61 -289h321l61 289h121l-129 -609h76z" />
    <glyph glyph-name="uni04A3" unicode="&#x4a3;" horiz-adv-x="607" 
d="M256 526l-43 -206h240l43 206h114l-91 -431h63l-50 -235h-98l30 140h-79l48 225h-241l-47 -225h-114l111 526h114z" />
    <glyph glyph-name="uni04A4" unicode="&#x4a4;" horiz-adv-x="807" 
d="M485 0l66 313h-321l-66 -313h-121l151 714h121l-61 -289h321l61 289h272l-23 -105h-150l-129 -609h-121z" />
    <glyph glyph-name="uni04A5" unicode="&#x4a5;" horiz-adv-x="648" 
d="M256 526l-43 -206h240l43 206h228l-20 -95h-114l-91 -431h-114l48 225h-241l-47 -225h-114l111 526h114z" />
    <glyph glyph-name="uni04A6" unicode="&#x4a6;" horiz-adv-x="1075" 
d="M666 419q31 10 65 16.5t77 6.5q54 0 98 -16t74.5 -46.5t47.5 -76t17 -104.5q0 -80 -24.5 -146.5t-72 -113.5t-118 -73t-163.5 -26h-42l22 103h34q51 0 94.5 14.5t76 44.5t50.5 77.5t18 113.5q0 70 -35.5 110t-108.5 40q-35 0 -67 -6t-64 -17l-67 -320h-121l129 609h-293
l-128 -609h-122l151 714h535z" />
    <glyph glyph-name="uni04A7" unicode="&#x4a7;" horiz-adv-x="886" 
d="M592 526l-50 -235q25 8 50.5 12t55.5 4q51 0 89 -15.5t63 -43t37 -66t12 -83.5q0 -143 -86 -222t-248 -79h-32l19 92h30q94 0 147 51.5t53 157.5q0 57 -28 86t-89 29q-29 0 -50.5 -4.5t-41.5 -11.5l-42 -198h-114l91 430h-222l-91 -430h-114l111 526h450z" />
    <glyph glyph-name="uni04A8" unicode="&#x4a8;" horiz-adv-x="835" 
d="M808 1q-35 -11 -71.5 -15t-64.5 -4q-38 0 -71.5 9t-62.5 24q-32 -14 -73 -23.5t-92 -9.5q-59 0 -111 18t-91 55t-61.5 91.5t-22.5 128.5q0 90 26.5 173t79 146t130 100.5t179.5 37.5q42 0 76.5 -8.5t71.5 -25.5l-46 -91q-25 11 -50.5 17.5t-58.5 6.5q-71 0 -124.5 -29.5
t-89.5 -78t-54 -109.5t-18 -124q0 -107 47.5 -159t124.5 -52q20 0 38.5 1.5t35.5 6.5q-29 37 -46 84t-17 97q0 51 13.5 102t43 91t75 65t109.5 25q42 0 74.5 -14t54 -39t33 -59.5t11.5 -75.5q0 -85 -37.5 -157t-114.5 -126q11 -3 21 -4t22 -1q52 0 96 15zM502 273
q0 -48 13 -90.5t43 -71.5q28 16 53.5 40.5t45 56t30.5 70t11 82.5q0 19 -4 36.5t-13 31.5t-23 22.5t-35 8.5q-31 0 -54 -17.5t-38 -45t-22 -60.5t-7 -63z" />
    <glyph glyph-name="uni04A9" unicode="&#x4a9;" horiz-adv-x="638" 
d="M512 -18q-26 0 -58.5 6.5t-55.5 21.5q-28 -14 -56.5 -19.5t-63.5 -5.5q-48 0 -87 16t-67.5 45.5t-44 71t-15.5 91.5q0 65 19 125t56.5 106t93 73.5t128.5 27.5q60 0 115 -25l-34 -80q-20 9 -39.5 13t-45.5 4q-45 0 -79 -18.5t-57.5 -50.5t-35.5 -75t-12 -93
q0 -69 32.5 -110t89.5 -41q11 0 22 1.5t22 3.5q-23 23 -33.5 59.5t-10.5 71.5q0 38 11.5 73.5t33.5 62.5t55 43.5t75 16.5q30 0 54 -10t41 -28t26 -42.5t9 -52.5q0 -64 -25.5 -112.5t-79.5 -88.5q5 -1 9.5 -1h7.5q23 0 42 3t42 10l18 -73q-7 -2 -32 -11t-70 -9zM462 320
q-19 0 -33.5 -10.5t-24.5 -27.5t-15.5 -39t-5.5 -46q0 -23 7.5 -54t30.5 -51q46 27 68 72t22 96q0 26 -11 43t-38 17z" />
    <glyph glyph-name="uni04AA" unicode="&#x4aa;" horiz-adv-x="712" 
d="M336 -16q-62 6 -109 32t-78.5 67t-47 95t-15.5 117q0 86 26 165t74.5 139.5t118 96.5t156.5 36q66 0 114.5 -17t81.5 -48.5t50.5 -76.5t22.5 -100l-120 -17q-10 76 -44 115.5t-110 39.5q-57 0 -102 -26t-76.5 -70.5t-48.5 -103.5t-17 -125q0 -45 9.5 -84.5t30 -69
t53 -46.5t78.5 -17q83 0 126.5 40.5t57.5 111.5h131q-12 -55 -34.5 -100.5t-57.5 -79t-85 -53t-117 -22.5l-18 -36q48 -8 66 -28.5t18 -45.5q0 -54 -38 -75t-110 -21q-14 0 -30.5 2t-36.5 6l10 64q21 -3 35 -4.5t28 -1.5q29 0 42.5 7.5t13.5 25.5q0 13 -13.5 20t-47.5 7h-28
z" />
    <glyph glyph-name="uni04AB" unicode="&#x4ab;" horiz-adv-x="564" 
d="M239 -12q-84 13 -129.5 72t-45.5 147q0 81 23 143.5t62.5 105t93 64.5t114.5 22q50 0 86.5 -14t60.5 -38.5t37.5 -58t16.5 -72.5l-114 -16q-2 23 -8 42.5t-17 34t-29.5 22.5t-45.5 8q-35 0 -64.5 -16t-51 -47t-34 -76t-12.5 -103q0 -59 27 -95.5t86 -36.5q54 0 84.5 27.5
t42.5 76.5h115q-19 -89 -75 -139.5t-158 -55.5l-17 -35q24 -3 39.5 -10.5t25.5 -17t14 -21t4 -22.5q0 -29 -11 -47t-30 -28t-45.5 -14t-57.5 -4q-14 0 -30.5 1.5t-35.5 5.5l10 65q20 -4 34 -5t27 -1q28 0 41 6t13 23q0 14 -13.5 20.5t-45.5 6.5h-27z" />
    <glyph glyph-name="uni04AC" unicode="&#x4ac;" horiz-adv-x="610" 
d="M462 609l-107 -504h76l-58 -278h-107l36 173h-90l129 609h-226l22 105h572l-22 -105h-225z" />
    <glyph glyph-name="uni04AD" unicode="&#x4ad;" horiz-adv-x="497" 
d="M250 431h-176l21 95h463l-20 -95h-174l-71 -336h63l-50 -235h-98l30 140h-79z" />
    <glyph glyph-name="uni04AE" unicode="&#x4ae;" horiz-adv-x="635" 
d="M129 714h130l108 -310l240 310h134l-332 -417l-62 -297h-121l63 297z" />
    <glyph glyph-name="uni04AF" unicode="&#x4af;" horiz-adv-x="545" 
d="M151 -194l43 205l-120 515h127l75 -387l219 387h129l-316 -515l-43 -205h-114z" />
    <glyph glyph-name="uni04B0" unicode="&#x4b0;" horiz-adv-x="635" 
d="M392 216l-45 -216h-121l46 216h-150l22 98h138l-153 400h130l108 -310l240 310h134l-319 -400h136l-22 -98h-144z" />
    <glyph glyph-name="uni04B1" unicode="&#x4b1;" horiz-adv-x="545" 
d="M151 -194l40 194h-121l20 92h85l-101 434h127l75 -387l219 387h129l-267 -434h90l-20 -92h-122l-40 -194h-114z" />
    <glyph glyph-name="uni04B2" unicode="&#x4b2;" horiz-adv-x="661" 
d="M441 370l128 -265h67l-58 -278h-107l36 173h-19l-132 284l-243 -284h-138l330 379l-162 335h132l113 -251l219 251h136z" />
    <glyph glyph-name="uni04B3" unicode="&#x4b3;" horiz-adv-x="528" 
d="M438 95h62l-50 -235h-98l30 140h-24l-87 194l-162 -194h-132l247 279l-120 247h127l74 -172l146 172h127l-223 -254z" />
    <glyph glyph-name="uni04B4" unicode="&#x4b4;" horiz-adv-x="824" 
d="M408 609l-107 -504h294l129 609h121l-129 -609h76l-59 -278h-107l37 173h-505l129 609h-175l22 105h487l-22 -105h-191z" />
    <glyph glyph-name="uni04B5" unicode="&#x4b5;" horiz-adv-x="634" 
d="M84 0l91 431h-103l20 95h340l-20 -95h-123l-71 -336h214l91 431h113l-90 -431h63l-50 -235h-98l30 140h-407z" />
    <glyph glyph-name="uni04B6" unicode="&#x4b6;" horiz-adv-x="679" 
d="M490 302q-35 -14 -78.5 -22.5t-85.5 -8.5q-46 0 -84.5 11.5t-66 34t-42.5 56.5t-15 80q0 19 2 36.5t4 28.5l42 196h121l-37 -175q-3 -15 -5 -32t-2 -36q0 -49 27.5 -76t95.5 -27q37 0 76 8t69 19l68 319h121l-132 -609h76l-58 -278h-107l36 173h-90z" />
    <glyph glyph-name="uni04B7" unicode="&#x4b7;" horiz-adv-x="555" 
d="M376 203q-25 -6 -56 -10.5t-57 -4.5q-84 0 -131 38.5t-47 110.5q0 24 6 53l29 136h113l-27 -129q-5 -23 -5 -43q0 -38 22 -56t76 -18q28 0 52.5 5t44.5 11l49 230h113l-92 -431h63l-50 -235h-98l30 140h-78z" />
    <glyph glyph-name="uni04B8" unicode="&#x4b8;" horiz-adv-x="672" 
d="M504 302q-24 -10 -52 -17t-58 -11l-29 -124h-97l28 123q-82 8 -130 52.5t-48 127.5q0 19 2 36.5t4 28.5l42 196h121l-37 -175q-3 -15 -5 -32.5t-2 -37.5q0 -38 17 -63.5t59 -34.5l30 133h98l-31 -136q30 3 58 10t51 15l68 321h121l-154 -714h-121z" />
    <glyph glyph-name="uni04B9" unicode="&#x4b9;" horiz-adv-x="556" 
d="M390 205q-16 -4 -35.5 -7.5t-39.5 -5.5l-21 -102h-86l21 102q-70 9 -107 45.5t-37 99.5q0 24 6 53l29 136h113l-27 -129q-5 -23 -5 -46q0 -27 11 -43.5t37 -24.5l22 102h86l-23 -107q23 2 41.5 6t33.5 9l50 233h113l-112 -526h-113z" />
    <glyph glyph-name="uni04BA" unicode="&#x4ba;" horiz-adv-x="658" 
d="M163 0h-120l150 714h121l-62 -289q36 14 79.5 22t85.5 8q43 0 81 -10.5t66 -33t44 -57.5t16 -84q0 -8 -1 -19t-2.5 -23.5t-3.5 -24t-4 -20.5l-40 -183h-120l35 168q3 16 7 42.5t4 44.5q0 49 -27 76t-95 27q-38 0 -76.5 -7.5t-67.5 -18.5z" />
    <glyph glyph-name="uni04BB" unicode="&#x4bb;" horiz-adv-x="581" 
d="M373 445q-50 0 -99 -38q-22 -17 -39.5 -40.5t-23.5 -51.5l-66 -315h-114l151 714h114l-56 -260q42 47 85.5 67t88.5 20q73 0 111.5 -39.5t38.5 -109.5q0 -30 -7 -61l-70 -331h-114l68 319q2 13 3.5 24t1.5 22q0 38 -18 59t-55 21z" />
    <glyph glyph-name="uni04BC" unicode="&#x4bc;" horiz-adv-x="893" 
d="M858 207q-36 -112 -116.5 -168.5t-201.5 -56.5q-87 0 -143.5 30t-90 76t-47 100.5t-13.5 102.5q0 6 0.5 11.5t0.5 10.5q-87 2 -131 38.5t-44 98.5q0 38 12.5 68.5t34.5 59.5l82 -26q-12 -18 -21.5 -38.5t-9.5 -45.5q0 -28 21.5 -44t66.5 -16q16 70 49 129.5t79.5 103
t106.5 67.5t130 24q67 0 118.5 -21t86 -58.5t52.5 -90t18 -115.5q0 -29 -2.5 -58t-8.5 -75h-516v-30q0 -43 10 -79.5t31 -63t53.5 -41.5t77.5 -15q43 0 75.5 10.5t55 27.5t36.5 39t22 45h126zM773 408q3 27 3 54q0 37 -9 68t-28.5 53.5t-49 35.5t-71.5 13q-46 0 -84 -17
t-67.5 -47t-50.5 -71t-32 -89h389z" />
    <glyph glyph-name="uni04BD" unicode="&#x4bd;" horiz-adv-x="682" 
d="M281 236q-1 -4 -1.5 -13.5t-0.5 -15.5q0 -28 7 -52.5t21.5 -42.5t37.5 -28.5t55 -10.5q53 0 80.5 19.5t40.5 61.5h111q-11 -41 -30 -73t-48 -53.5t-69.5 -32.5t-95.5 -11q-53 0 -94.5 16.5t-70 46.5t-43.5 71t-15 89v15t1 15q-58 2 -95 28.5t-37 78.5q0 26 7.5 50.5
t24.5 50.5l72 -20q-9 -14 -14.5 -31.5t-5.5 -32.5q0 -25 16 -34.5t43 -11.5q26 110 100.5 168t177.5 58q49 0 87 -15t64 -42t39.5 -63.5t13.5 -79.5q0 -9 -0.5 -21.5t-2 -27t-4 -29t-5.5 -27.5h-367zM446 454q-54 0 -95.5 -31.5t-59.5 -107.5h257q3 15 3 31q0 45 -25.5 76.5
t-79.5 31.5z" />
    <glyph glyph-name="uni04BE" unicode="&#x4be;" horiz-adv-x="893" 
d="M465 -10q-63 13 -105 45.5t-67 75t-35 90t-10 90.5q0 6 0.5 11.5t0.5 10.5q-87 2 -131 38.5t-44 98.5q0 38 12.5 68.5t34.5 59.5l82 -26q-12 -18 -21.5 -38.5t-9.5 -45.5q0 -28 21.5 -44t66.5 -16q16 70 49 129.5t79.5 103t106.5 67.5t130 24q67 0 118.5 -21t86 -58.5
t52.5 -90t18 -115.5q0 -29 -2.5 -58t-8.5 -75h-516v-30q0 -43 10 -79.5t31 -63t53.5 -41.5t77.5 -15q43 0 75.5 10.5t55 27.5t36.5 39t22 45h126q-34 -104 -106 -159.5t-178 -63.5l-33 -157h-112zM775 408q3 27 3 54q0 37 -9 68t-28.5 53.5t-49 35.5t-71.5 13q-46 0 -84 -17
t-67.5 -47t-50.5 -71t-32 -89h389z" />
    <glyph glyph-name="uni04BF" unicode="&#x4bf;" horiz-adv-x="682" 
d="M333 -10q-81 16 -124 74.5t-43 142.5v15t1 15q-58 2 -95 28.5t-37 78.5q0 26 7.5 50.5t24.5 50.5l72 -20q-9 -14 -14.5 -31.5t-5.5 -32.5q0 -25 16 -34.5t43 -11.5q26 110 100.5 168t177.5 58q49 0 87 -15t64 -42t39.5 -63.5t13.5 -79.5q0 -9 -0.5 -21.5t-2 -27t-4 -29
t-5.5 -27.5h-367q-1 -4 -1.5 -13.5t-0.5 -15.5q0 -28 7 -52.5t21.5 -42.5t37.5 -28.5t55 -10.5q53 0 80.5 19.5t40.5 61.5h111q-20 -74 -66 -116.5t-133 -51.5l-27 -126h-99zM446 454q-54 0 -95.5 -31.5t-59.5 -107.5h257q3 15 3 31q0 45 -25.5 76.5t-79.5 31.5z" />
    <glyph glyph-name="uni04C0" unicode="&#x4c0;" horiz-adv-x="272" 
d="M43 0l151 714h121l-151 -714h-121z" />
    <glyph glyph-name="uni04C1" unicode="&#x4c1;" horiz-adv-x="1031" 
d="M496 315h-41q-18 0 -32.5 -4.5t-29 -15t-30 -28t-36.5 -42.5l-189 -225h-150l248 292q31 36 57 55t55 27q-27 13 -44 37.5t-28 61.5l-22 77q-10 33 -26 49.5t-51 16.5q-12 0 -22.5 -1t-15.5 -2l16 93q16 4 31 6t34 2q52 0 81 -24.5t46 -77.5l24 -77q9 -29 19.5 -51.5
t24 -38t31.5 -23.5t43 -8h28l63 300h120l-64 -300h25q21 0 40.5 6t38.5 20.5t38.5 37.5t42.5 58l50 75q39 59 82 81t99 22q17 0 34.5 -2t32.5 -7l-28 -97l-10 2t-11.5 1.5t-13.5 0.5q-17 0 -30 -3t-24.5 -11.5t-24 -23t-27.5 -38.5l-46 -71q-26 -39 -51.5 -61t-58.5 -34
q24 -11 42 -37.5t33 -61.5l120 -271h-136l-102 244q-15 36 -34.5 53.5t-61.5 17.5h-39l-67 -315h-120zM584 926q-1 -6 -1 -9.5v-8.5q0 -11 3.5 -21.5t12 -18.5t23.5 -13t38 -5q39 0 64.5 17.5t36.5 58.5h83q-14 -67 -60 -107.5t-132 -40.5q-33 0 -61 7t-48.5 21.5t-32 37
t-11.5 53.5q0 10 1 17t2 12h82z" />
    <glyph glyph-name="uni04C2" unicode="&#x4c2;" horiz-adv-x="806" 
d="M511 304q31 0 54 17.5t44 48.5l46 70q29 43 64.5 64.5t86.5 21.5q19 0 35 -3.5t21 -5.5l-25 -84l-10 2t-10.5 2t-11.5 1q-26 0 -41.5 -15.5t-32.5 -40.5l-33 -51q-16 -24 -34.5 -38t-39.5 -22q26 -11 40.5 -30.5t22.5 -40.5l81 -200h-116l-60 158q-13 33 -32.5 50
t-54.5 17h-28l-48 -225h-108l49 225h-30q-29 0 -50.5 -13.5t-45.5 -43.5l-136 -168h-127l157 192q29 35 54 53.5t54 26.5q-21 10 -31.5 30t-20.5 47l-12 41q-9 24 -21.5 36t-36.5 12q-6 0 -11 -0.5t-10 -1.5t-9 -1l8 84l15 3q7 2 17 3t22 1q45 0 69.5 -22t39.5 -63l26 -69
q12 -33 28 -50.5t45 -17.5h22l47 222h108l-47 -222h17zM429 741q-1 -6 -1 -9.5v-8.5q0 -11 3.5 -21.5t12 -18.5t23.5 -13t38 -5q39 0 64.5 17.5t36.5 58.5h83q-14 -67 -60 -107.5t-132 -40.5q-33 0 -61 7t-48.5 21.5t-32 37t-11.5 53.5q0 10 1 17t2 12h82z" />
    <glyph glyph-name="uni04C3" unicode="&#x4c3;" horiz-adv-x="671" 
d="M252 415h32q49 0 85 30.5t71 77.5l51 69q23 30 44.5 53t44.5 38.5t48.5 23t57.5 7.5q20 0 37.5 -2.5t28.5 -6.5l-29 -98q-18 5 -38 5q-33 0 -54.5 -18.5t-47.5 -53.5l-58 -79q-16 -22 -36 -38.5t-44 -29.5q94 -17 143.5 -77.5t49.5 -150.5q0 -76 -25 -136.5t-73 -102.5
t-119 -64t-163 -22h-42l22 103h43q109 0 171 53.5t62 165.5q0 32 -10.5 60t-31.5 49t-52.5 33t-73.5 12h-115l-67 -316h-121l151 714h121z" />
    <glyph glyph-name="uni04C4" unicode="&#x4c4;" horiz-adv-x="557" 
d="M209 304h32q25 0 46.5 14t46.5 52l45 69q16 25 31 41.5t32.5 26.5t37.5 14.5t47 4.5q16 0 33 -3t28 -7l-25 -83l-10 2t-11 2t-12 1q-25 0 -38 -12t-29 -35l-35 -53q-22 -35 -49 -52q63 -18 100.5 -67t37.5 -121q0 -70 -20.5 -126t-61.5 -95t-103 -59.5t-145 -20.5h-38
l19 93h34q99 0 149 53t50 153q0 64 -38 96t-103 32h-68l-48 -224h-113l112 526h113z" />
    <glyph glyph-name="uni04C5" unicode="&#x4c5;" horiz-adv-x="761" 
d="M642 612h-196l-86 -278q-29 -94 -62 -159t-72.5 -105.5t-89 -58.5t-111.5 -18h-32l21 104h15q34 0 63.5 12.5t57 45.5t54 89.5t53.5 143.5l101 326h426l-129 -609h75q-5 -54 -21.5 -98t-41 -79.5t-55.5 -63.5t-67 -52l-66 75q34 24 64 52.5t47 60.5h-78z" />
    <glyph glyph-name="uni04C6" unicode="&#x4c6;" horiz-adv-x="594" 
d="M466 431h-150l-51 -159q-24 -74 -48.5 -126.5t-54.5 -86t-68 -49t-88 -15.5h-34l19 94h10q26 0 47 10t39.5 33.5t35.5 63t36 98.5l75 232h366l-91 -431h61q-4 -40 -12.5 -73.5t-25 -63.5t-42.5 -57t-65 -53l-60 63q24 19 47.5 41.5t35.5 47.5h-73z" />
    <glyph glyph-name="uni04C7" unicode="&#x4c7;" horiz-adv-x="715" 
d="M551 313h-321l-66 -313h-121l151 714h121l-61 -289h321l61 289h121l-157 -744q-11 -52 -28.5 -85.5t-41.5 -53.5t-54 -28t-64 -8q-32 0 -58 5.5t-48 13.5l33 91q13 -4 29 -7t33 -3q30 0 48.5 15t28.5 59z" />
    <glyph glyph-name="uni04C8" unicode="&#x4c8;" horiz-adv-x="594" 
d="M256 526l-43 -206h240l43 206h114l-119 -566q-9 -43 -22 -74t-33.5 -51.5t-50 -30t-70.5 -9.5q-33 0 -59 6t-48 15l33 86q12 -5 28 -9t35 -4q30 0 47.5 18.5t26.5 59.5l55 258h-241l-47 -225h-114l111 526h114z" />
    <glyph glyph-name="uni04C9" unicode="&#x4c9;" horiz-adv-x="735" 
d="M485 0l66 313h-321l-66 -313h-121l151 714h121l-61 -289h321l61 289h121l-129 -609h75q-5 -54 -21.5 -98t-41 -79.5t-55.5 -63.5t-67 -52l-66 75q34 24 64.5 52.5t47.5 60.5h-79z" />
    <glyph glyph-name="uni04CA" unicode="&#x4ca;" horiz-adv-x="605" 
d="M256 526l-43 -206h240l43 206h114l-91 -431h60q-4 -40 -12.5 -73.5t-25 -63.5t-43 -57t-65.5 -53l-60 63q25 19 48.5 41.5t35.5 47.5h-72l48 225h-241l-47 -225h-114l111 526h114z" />
    <glyph glyph-name="uni04CB" unicode="&#x4cb;" horiz-adv-x="658" 
d="M447 105l43 197q-35 -14 -78.5 -22.5t-85.5 -8.5q-46 0 -84.5 11.5t-66 34t-42.5 56.5t-15 80q0 19 2 36.5t4 28.5l42 196h121l-37 -175q-3 -15 -5 -32t-2 -36q0 -49 27.5 -76t95.5 -27q37 0 76 8t69 19l68 319h121l-154 -714h-86l-37 -173h-111l60 278h75z" />
    <glyph glyph-name="uni04CC" unicode="&#x4cc;" horiz-adv-x="542" 
d="M290 95h63l23 108q-25 -6 -56 -10.5t-57 -4.5q-84 0 -131 38.5t-47 110.5q0 24 6 53l29 136h113l-27 -129q-5 -23 -5 -43q0 -38 22 -56t76 -18q28 0 52.5 5t44.5 11l49 230h113l-112 -526h-78l-29 -140h-99z" />
    <glyph glyph-name="uni04CD" unicode="&#x4cd;" horiz-adv-x="873" 
d="M194 714h143l85 -568l327 568h146l-129 -609h75q-5 -54 -21.5 -98t-41 -79.5t-55.5 -63.5t-67 -52l-66 75q34 24 64.5 52.5t47.5 60.5h-69l110 519l-303 -519h-95l-83 518l-110 -518h-109z" />
    <glyph glyph-name="uni04CE" unicode="&#x4ce;" horiz-adv-x="724" 
d="M142 526h127l81 -405l260 405h120l-91 -431h58q-4 -40 -12.5 -73.5t-25 -63.5t-43 -57t-65.5 -53l-60 63q25 19 48.5 41.5t35.5 47.5h-62l74 344l-223 -344h-79l-74 360l-76 -360h-104z" />
    <glyph glyph-name="uni04CF" unicode="&#x4cf;" horiz-adv-x="272" 
d="M43 0l151 714h121l-151 -714h-121z" />
    <glyph glyph-name="uni04D0" unicode="&#x4d0;" horiz-adv-x="686" 
d="M521 714l121 -714h-124l-28 182h-278l-105 -182h-130l424 714h120zM266 283h211l-44 294zM404 921q-1 -6 -1 -9.5v-8.5q0 -11 3.5 -21.5t12 -18.5t23.5 -13t38 -5q39 0 64.5 17.5t36.5 58.5h83q-14 -67 -60 -107.5t-132 -40.5q-33 0 -61 7t-48.5 21.5t-32 37t-11.5 53.5
q0 10 1 17t2 12h82z" />
    <glyph glyph-name="uni04D1" unicode="&#x4d1;" horiz-adv-x="550" 
d="M182 -13q-69 0 -110 36.5t-41 105.5q0 58 24 94.5t64 58t92 30.5t108 11l95 4l3 16q2 9 2.5 18.5t0.5 17.5q0 38 -21.5 57t-68.5 19q-53 0 -81.5 -14t-43.5 -57l-103 11q25 82 84 114.5t156 32.5q91 0 139 -40.5t49 -117.5q0 -14 -2 -30t-5 -32l-68 -322h-108l14 68
q-18 -18 -36.5 -33t-39.5 -25.5t-46.5 -16.5t-56.5 -6zM397 251l-77 -4q-50 -3 -84 -10.5t-54 -21t-28.5 -33t-8.5 -44.5q0 -26 18 -44.5t55 -18.5q62 0 109 35t60 95zM293 739q-1 -6 -1 -9.5v-8.5q0 -11 3.5 -21.5t12 -18.5t23.5 -13t38 -5q39 0 64.5 17.5t36.5 58.5h83
q-14 -67 -60 -107.5t-132 -40.5q-33 0 -61 7t-48.5 21.5t-32 37t-11.5 53.5q0 10 1 17t2 12h82z" />
    <glyph glyph-name="uni04D2" unicode="&#x4d2;" horiz-adv-x="686" 
d="M521 714l121 -714h-124l-28 182h-278l-105 -182h-130l424 714h120zM266 283h211l-44 294zM316 786l24 116h113l-25 -116h-112zM510 786l24 116h113l-25 -116h-112z" />
    <glyph glyph-name="uni04D3" unicode="&#x4d3;" horiz-adv-x="550" 
d="M182 -13q-69 0 -110 36.5t-41 105.5q0 58 24 94.5t64 58t92 30.5t108 11l95 4l3 16q2 9 2.5 18.5t0.5 17.5q0 38 -21.5 57t-68.5 19q-53 0 -81.5 -14t-43.5 -57l-103 11q25 82 84 114.5t156 32.5q91 0 139 -40.5t49 -117.5q0 -14 -2 -30t-5 -32l-68 -322h-108l14 68
q-18 -18 -36.5 -33t-39.5 -25.5t-46.5 -16.5t-56.5 -6zM397 251l-77 -4q-50 -3 -84 -10.5t-54 -21t-28.5 -33t-8.5 -44.5q0 -26 18 -44.5t55 -18.5q62 0 109 35t60 95zM208 612l23 112h109l-23 -112h-109zM396 612l24 112h109l-23 -112h-110z" />
    <glyph glyph-name="uni04D4" unicode="&#x4d4;" horiz-adv-x="1039" 
d="M555 225h-278l-175 -225h-138l560 714h585l-22 -104h-334l-40 -190h313l-22 -105h-313l-45 -211h354l-36 -104h-456zM352 327h225l60 283h-67z" />
    <glyph glyph-name="uni04D5" unicode="&#x4d5;" horiz-adv-x="895" 
d="M845 154q-22 -84 -79 -127t-160 -43q-38 0 -67 8.5t-51.5 23.5t-39 35.5t-28.5 45.5q-20 -25 -41 -45.5t-47 -34.5t-59 -22t-76 -8q-79 0 -123 36.5t-43 105.5q0 58 24 94.5t63 58t89.5 30.5t105.5 11l94 4q2 11 4 25t2 23q0 39 -23.5 59.5t-64.5 20.5q-50 0 -78 -14
t-43 -57l-102 11q24 80 81.5 113.5t146.5 33.5q63 0 100.5 -22t55.5 -65q35 43 80 65t107 22q48 0 85.5 -15t63 -41.5t38.5 -63t13 -79.5q0 -37 -8 -83l-4 -24h-363v-24q0 -63 30 -101t87 -38q51 0 79 19.5t40 61.5h111zM390 251l-76 -4q-49 -3 -81.5 -10.5t-52 -21
t-27.5 -33t-8 -44.5q0 -26 18.5 -44.5t57.5 -18.5q38 0 65.5 10.5t46.5 28t30.5 40.5t17.5 49zM662 455q-52 0 -93.5 -31.5t-60.5 -108.5h253q3 15 3 31q0 22 -6 42t-18.5 35t-32 23.5t-45.5 8.5z" />
    <glyph glyph-name="uni04D6" unicode="&#x4d6;" horiz-adv-x="599" 
d="M292 610l-40 -190h334l-22 -105h-334l-45 -211h375l-36 -104h-481l151 714h474l-21 -104h-355zM373 921q-1 -6 -1 -9.5v-8.5q0 -11 3.5 -21.5t12 -18.5t23.5 -13t38 -5q39 0 64.5 17.5t36.5 58.5h83q-14 -67 -60 -107.5t-132 -40.5q-33 0 -61 7t-48.5 21.5t-32 37
t-11.5 53.5q0 10 1 17t2 12h82z" />
    <glyph glyph-name="uni04D7" unicode="&#x4d7;" horiz-adv-x="580" 
d="M344 454q-54 0 -95.5 -31.5t-59.5 -107.5h257q3 15 3 31q0 45 -25.5 76.5t-79.5 31.5zM179 236q-1 -4 -1.5 -13.5t-0.5 -15.5q0 -28 7 -52.5t21.5 -42.5t37.5 -28.5t55 -10.5q53 0 80.5 19.5t40.5 61.5h111q-11 -41 -30 -73t-48 -53.5t-69.5 -32.5t-95.5 -11
q-53 0 -94.5 16.5t-70 46.5t-43.5 71t-15 89q0 81 22 143t60.5 104.5t91.5 64.5t116 22q49 0 87 -15t64 -42t39.5 -63.5t13.5 -79.5q0 -17 -2.5 -40.5t-6.5 -46.5l-3 -18h-367zM293 739q-1 -6 -1 -9.5v-8.5q0 -11 3.5 -21.5t12 -18.5t23.5 -13t38 -5q39 0 64.5 17.5
t36.5 58.5h83q-14 -67 -60 -107.5t-132 -40.5q-33 0 -61 7t-48.5 21.5t-32 37t-11.5 53.5q0 10 1 17t2 12h82z" />
    <glyph glyph-name="uni04D8" unicode="&#x4d8;" horiz-adv-x="747" 
d="M144 537q44 105 124.5 150t185.5 45q68 0 121.5 -21.5t90.5 -62t56.5 -97.5t19.5 -129q0 -85 -24 -164.5t-71 -140.5t-116 -98t-159 -37q-68 0 -119 22.5t-85 61t-51.5 90t-17.5 109.5q0 79 12 135h506q2 11 2 23v23q0 36 -9.5 69t-30 58.5t-52.5 41t-77 15.5
q-77 0 -122 -31.5t-74 -93.5zM222 306q-1 -9 -2 -21.5t-1 -25.5q0 -85 42 -131t114 -46q89 0 147 59t81 165h-381z" />
    <glyph glyph-name="uni04D9" unicode="&#x4d9;" horiz-adv-x="583" 
d="M88 385q35 81 95 118.5t160 37.5q54 0 95 -17t68.5 -48t42 -74t14.5 -94q0 -73 -21 -133t-58.5 -102.5t-90 -65.5t-114.5 -23q-109 0 -164.5 56t-55.5 155q0 17 3.5 44.5t8.5 51.5h378q1 7 1.5 15t0.5 15q0 58 -30.5 94t-87.5 36t-89.5 -21.5t-54.5 -68.5zM170 212
q-2 -8 -2 -15.5v-14.5q0 -49 26 -80.5t85 -31.5q71 0 110 39t51 103h-270z" />
    <glyph glyph-name="uni04DA" unicode="&#x4da;" horiz-adv-x="747" 
d="M144 537q44 105 124.5 150t185.5 45q68 0 121.5 -21.5t90.5 -62t56.5 -97.5t19.5 -129q0 -85 -24 -164.5t-71 -140.5t-116 -98t-159 -37q-68 0 -119 22.5t-85 61t-51.5 90t-17.5 109.5q0 79 12 135h506q2 11 2 23v23q0 36 -9.5 69t-30 58.5t-52.5 41t-77 15.5
q-77 0 -122 -31.5t-74 -93.5zM222 306q-1 -9 -2 -21.5t-1 -25.5q0 -85 42 -131t114 -46q89 0 147 59t81 165h-381zM333 786l24 116h113l-25 -116h-112zM527 786l24 116h113l-25 -116h-112z" />
    <glyph glyph-name="uni04DB" unicode="&#x4db;" horiz-adv-x="583" 
d="M88 385q35 81 95 118.5t160 37.5q54 0 95 -17t68.5 -48t42 -74t14.5 -94q0 -73 -21 -133t-58.5 -102.5t-90 -65.5t-114.5 -23q-109 0 -164.5 56t-55.5 155q0 17 3.5 44.5t8.5 51.5h378q1 7 1.5 15t0.5 15q0 58 -30.5 94t-87.5 36t-89.5 -21.5t-54.5 -68.5zM170 212
q-2 -8 -2 -15.5v-14.5q0 -49 26 -80.5t85 -31.5q71 0 110 39t51 103h-270zM206 612l23 112h109l-23 -112h-109zM394 612l24 112h109l-23 -112h-110z" />
    <glyph glyph-name="uni04DC" unicode="&#x4dc;" horiz-adv-x="1031" 
d="M496 315h-41q-18 0 -32.5 -4.5t-29 -15t-30 -28t-36.5 -42.5l-189 -225h-150l248 292q31 36 57 55t55 27q-27 13 -44 37.5t-28 61.5l-22 77q-10 33 -26 49.5t-51 16.5q-12 0 -22.5 -1t-15.5 -2l16 93q16 4 31 6t34 2q52 0 81 -24.5t46 -77.5l24 -77q9 -29 19.5 -51.5
t24 -38t31.5 -23.5t43 -8h28l63 300h120l-64 -300h25q21 0 40.5 6t38.5 20.5t38.5 37.5t42.5 58l50 75q39 59 82 81t99 22q17 0 34.5 -2t32.5 -7l-28 -97l-10 2t-11.5 1.5t-13.5 0.5q-17 0 -30 -3t-24.5 -11.5t-24 -23t-27.5 -38.5l-46 -71q-26 -39 -51.5 -61t-58.5 -34
q24 -11 42 -37.5t33 -61.5l120 -271h-136l-102 244q-15 36 -34.5 53.5t-61.5 17.5h-39l-67 -315h-120zM502 786l24 116h113l-25 -116h-112zM696 786l24 116h113l-25 -116h-112z" />
    <glyph glyph-name="uni04DD" unicode="&#x4dd;" horiz-adv-x="806" 
d="M511 304q31 0 54 17.5t44 48.5l46 70q29 43 64.5 64.5t86.5 21.5q19 0 35 -3.5t21 -5.5l-25 -84l-10 2t-10.5 2t-11.5 1q-26 0 -41.5 -15.5t-32.5 -40.5l-33 -51q-16 -24 -34.5 -38t-39.5 -22q26 -11 40.5 -30.5t22.5 -40.5l81 -200h-116l-60 158q-13 33 -32.5 50
t-54.5 17h-28l-48 -225h-108l49 225h-30q-29 0 -50.5 -13.5t-45.5 -43.5l-136 -168h-127l157 192q29 35 54 53.5t54 26.5q-21 10 -31.5 30t-20.5 47l-12 41q-9 24 -21.5 36t-36.5 12q-6 0 -11 -0.5t-10 -1.5t-9 -1l8 84l15 3q7 2 17 3t22 1q45 0 69.5 -22t39.5 -63l26 -69
q12 -33 28 -50.5t45 -17.5h22l47 222h108l-47 -222h17zM352 612l23 112h109l-23 -112h-109zM540 612l24 112h109l-23 -112h-110z" />
    <glyph glyph-name="uni04DE" unicode="&#x4de;" horiz-adv-x="632" 
d="M169 206q4 -37 15 -61t29 -38.5t45 -20.5t65 -6q71 0 113 32t42 109q0 99 -140 99h-78l21 98h82q37 0 68.5 7t54 22t35 39t12.5 59q0 42 -33.5 65.5t-86.5 23.5q-38 0 -66.5 -5.5t-49.5 -18t-36 -33t-26 -50.5l-110 15q15 46 39 81.5t59.5 59.5t84 36.5t112.5 12.5
q50 0 92 -12.5t72 -35.5t47 -56t17 -74q0 -38 -10.5 -67.5t-29 -51.5t-44.5 -38t-56 -26q44 -24 66.5 -62.5t22.5 -84.5q0 -58 -20 -103t-56.5 -76t-87.5 -47t-113 -16q-126 0 -192.5 55t-71.5 169h113zM281 786l24 116h113l-25 -116h-112zM475 786l24 116h113l-25 -116
h-112z" />
    <glyph glyph-name="uni04DF" unicode="&#x4df;" horiz-adv-x="540" 
d="M334 541q44 0 80.5 -9t63 -26t41 -42t14.5 -57q0 -53 -29 -85.5t-77 -47.5q35 -16 55.5 -45t20.5 -70q0 -45 -16.5 -77.5t-47.5 -54t-75 -32t-99 -10.5q-99 0 -160.5 42.5t-69.5 135.5h108q6 -47 39.5 -66.5t82.5 -19.5q65 0 93.5 20.5t28.5 63.5q0 33 -23.5 50.5
t-66.5 17.5h-101l16 79h107q21 0 39.5 4t32.5 13t22.5 23.5t8.5 35.5q0 32 -25.5 49.5t-69.5 17.5q-60 0 -93 -19t-48 -63l-105 18q26 78 87.5 116t165.5 38zM195 612l23 112h109l-23 -112h-109zM383 612l24 112h109l-23 -112h-110z" />
    <glyph glyph-name="uni04E0" unicode="&#x4e0;" horiz-adv-x="599" 
d="M140 609l20 105h472l-19 -91l-243 -205q92 -8 145.5 -55.5t53.5 -129.5q0 -118 -73 -184.5t-208 -66.5q-69 0 -117.5 17t-79.5 47t-46 71t-15 89h113q5 -64 40 -93.5t110 -29.5q77 0 117.5 34t40.5 110q0 45 -33.5 76t-102.5 31h-93l17 83l219 192h-318z" />
    <glyph glyph-name="uni04E1" unicode="&#x4e1;" horiz-adv-x="509" 
d="M99 435l18 91h419l-13 -69l-246 -225q94 -11 143.5 -59t49.5 -129q0 -115 -62.5 -181.5t-192.5 -66.5q-112 0 -169.5 49t-61.5 137h108q8 -51 37.5 -74t90.5 -23q65 0 100 37.5t35 109.5q0 55 -34.5 87t-101.5 32h-82l13 77l224 207h-275z" />
    <glyph glyph-name="uni04E2" unicode="&#x4e2;" horiz-adv-x="701" 
d="M472 0l110 512l-428 -512h-111l150 714h120l-110 -514l427 514h113l-152 -714h-119zM351 885h301l-19 -92h-301z" />
    <glyph glyph-name="uni04E3" unicode="&#x4e3;" horiz-adv-x="573" 
d="M373 0l76 352l-315 -352h-103l113 526h104l-78 -364l321 364h98l-112 -526h-104zM260 706h276l-18 -89h-277z" />
    <glyph glyph-name="uni04E4" unicode="&#x4e4;" horiz-adv-x="701" 
d="M472 0l110 512l-428 -512h-111l150 714h120l-110 -514l427 514h113l-152 -714h-119zM327 786l24 116h113l-25 -116h-112zM521 786l24 116h113l-25 -116h-112z" />
    <glyph glyph-name="uni04E5" unicode="&#x4e5;" horiz-adv-x="573" 
d="M373 0l76 352l-315 -352h-103l113 526h104l-78 -364l321 364h98l-112 -526h-104zM229 612l23 112h109l-23 -112h-109zM417 612l24 112h109l-23 -112h-110z" />
    <glyph glyph-name="uni04E6" unicode="&#x4e6;" horiz-adv-x="772" 
d="M482 732q66 0 119 -21.5t89.5 -60.5t56.5 -94t20 -122q0 -86 -25 -167.5t-74.5 -144.5t-123 -101.5t-169.5 -38.5q-66 0 -119.5 21.5t-91 60.5t-57.5 94t-20 122q0 85 26 166.5t76.5 145t124 102t168.5 38.5zM473 628q-65 0 -114 -30t-81.5 -79t-49 -110t-16.5 -123
q0 -91 42.5 -145.5t127.5 -54.5q64 0 113 30t81.5 79t49 110t16.5 124q0 45 -10.5 81.5t-32 62.5t-53 40.5t-73.5 14.5zM342 786l24 116h113l-25 -116h-112zM536 786l24 116h113l-25 -116h-112z" />
    <glyph glyph-name="uni04E7" unicode="&#x4e7;" horiz-adv-x="609" 
d="M368 541q51 0 91.5 -17t69.5 -46.5t44.5 -70t15.5 -87.5q0 -80 -22.5 -142.5t-63 -105.5t-96 -65.5t-121.5 -22.5q-50 0 -91 17t-70 47t-45 70.5t-16 87.5q0 78 23.5 140.5t64.5 105.5t96.5 66t119.5 23zM360 449q-38 0 -70.5 -16.5t-56.5 -47.5t-37.5 -76t-13.5 -101
q0 -62 29 -97t83 -35q38 0 70.5 16.5t56 47.5t37 75.5t13.5 101.5q0 61 -28.5 96.5t-82.5 35.5zM231 612l23 112h109l-23 -112h-109zM419 612l24 112h109l-23 -112h-110z" />
    <glyph glyph-name="uni04E8" unicode="&#x4e8;" horiz-adv-x="772" 
d="M482 732q66 0 119 -21.5t89.5 -60.5t56.5 -94t20 -122q0 -86 -25 -167.5t-74.5 -144.5t-123 -101.5t-169.5 -38.5q-66 0 -119.5 21.5t-91 60.5t-57.5 94t-20 122q0 85 26 166.5t76.5 145t124 102t168.5 38.5zM382 86q50 0 90.5 18.5t71 50t52 73t32.5 88.5h-414
q-1 -8 -1 -15v-15q0 -91 42.5 -145.5t126.5 -54.5zM473 628q-47 0 -85.5 -16.5t-68.5 -44.5t-51.5 -66t-34.5 -80h409q0 38 -7.5 75t-27 66.5t-52 47.5t-82.5 18z" />
    <glyph glyph-name="uni04E9" unicode="&#x4e9;" horiz-adv-x="609" 
d="M360 452q-59 0 -103 -38t-63 -104h279q0 27 -5 52.5t-18 45.5t-35 32t-55 12zM293 74q60 0 105.5 39.5t62.5 109.5h-281q0 -27 4 -46q7 -48 34.5 -75.5t74.5 -27.5zM368 541q50 0 91 -17t70 -46.5t44.5 -69.5t15.5 -87q0 -80 -22.5 -142.5t-63 -105.5t-96 -66t-121.5 -23
q-50 0 -91 17t-70 47t-45 70.5t-16 87.5q0 78 23.5 140t64 105.5t96 66.5t120.5 23z" />
    <glyph glyph-name="uni04EA" unicode="&#x4ea;" horiz-adv-x="772" 
d="M482 732q66 0 119 -21.5t89.5 -60.5t56.5 -94t20 -122q0 -86 -25 -167.5t-74.5 -144.5t-123 -101.5t-169.5 -38.5q-66 0 -119.5 21.5t-91 60.5t-57.5 94t-20 122q0 85 26 166.5t76.5 145t124 102t168.5 38.5zM382 86q50 0 90.5 18.5t71 50t52 73t32.5 88.5h-414
q-1 -8 -1 -15v-15q0 -91 42.5 -145.5t126.5 -54.5zM473 628q-47 0 -85.5 -16.5t-68.5 -44.5t-51.5 -66t-34.5 -80h409q0 38 -7.5 75t-27 66.5t-52 47.5t-82.5 18zM342 786l24 116h113l-25 -116h-112zM536 786l24 116h113l-25 -116h-112z" />
    <glyph glyph-name="uni04EB" unicode="&#x4eb;" horiz-adv-x="609" 
d="M360 452q-59 0 -103 -38t-63 -104h279q0 27 -5 52.5t-18 45.5t-35 32t-55 12zM293 74q60 0 105.5 39.5t62.5 109.5h-281q0 -27 4 -46q7 -48 34.5 -75.5t74.5 -27.5zM368 541q50 0 91 -17t70 -46.5t44.5 -69.5t15.5 -87q0 -80 -22.5 -142.5t-63 -105.5t-96 -66t-121.5 -23
q-50 0 -91 17t-70 47t-45 70.5t-16 87.5q0 78 23.5 140t64 105.5t96 66.5t120.5 23zM231 612l23 112h109l-23 -112h-109zM419 612l24 112h109l-23 -112h-110z" />
    </font>
</defs>
</svg>
